<?xml version="1.0" standalone="no"?>
<!DOCTYPE svg PUBLIC "-//W3C//DTD SVG 1.1//EN" "http://www.w3.org/Graphics/SVG/1.1/DTD/svg11.dtd" >
<svg xmlns="http://www.w3.org/2000/svg" xmlns:xlink="http://www.w3.org/1999/xlink" version="1.1">
<metadata>
Created by FontForge 20170731 at Fri Feb 22 16:56:42 2008
 By Aleksey,,,
Copyright (URW)++, copyright 1999 by (URW)++ Design &#38; Development; Cyrillic glyphs added by Valek Filippov, copyright 2001-2002; Vietnamese characters were added by Han The Thanh; copyright 2006, 2008 for TeX Gyre extensions by B. Jackowski and J.M. Nowacki (on behalf of TeX users groups). This work is released under the GUST Font License --  see http://tug.org/fonts/licenses/GUST-FONT-LICENSE.txt for details.
</metadata>
<defs>
<font id="TeXGyreHeros-BoldItalic" horiz-adv-x="556" >
  <font-face 
    font-family="TeXGyreHeros"
    font-weight="700"
    font-style="italic"
    font-stretch="normal"
    units-per-em="1000"
    panose-1="0 0 8 0 0 0 0 0 0 0"
    ascent="784"
    descent="-216"
    x-height="540"
    cap-height="729"
    bbox="-541 -307 1409 1123"
    underline-thickness="69"
    underline-position="-256"
    slope="-12"
    unicode-range="U+0020-FB04"
  />
<missing-glyph horiz-adv-x="280" 
 />
    <glyph glyph-name="I_J" unicode="IJ" horiz-adv-x="816" 
d="M325 729l-155 -729h-150l155 729h150zM871 729l-113 -528q-45 -213 -279 -213q-88 0 -138 41.5t-50 114.5q0 34 7 65l13 61h150l-14 -66q-4 -17 -4 -34q0 -24 18.5 -39t47.5 -15q80 0 99 85l113 528h150z" />
    <glyph glyph-name="i_j" unicode="ij" horiz-adv-x="541" 
d="M275 540l-115 -540h-140l115 540h140zM290 610h-140l27 131h140zM556 540l-135 -634q-14 -65 -58.5 -94.5t-129.5 -29.5q-27 0 -45 5l24 111q5 -4 25 -4q23 0 34.5 10t16.5 34l128 602h140zM571 610h-140l27 131h140z" />
    <glyph glyph-name="f_k" unicode="fk" horiz-adv-x="897" 
d="M385 529l-20 -93h-82l-93 -436h-140l93 436h-77l20 93h76l14 65q15 70 56.5 102.5t114.5 32.5l77 -3l-22 -105q-36 4 -42 4q-37 0 -46 -43l-12 -53h83zM849 0h-164l-79 239l-68 -62l-38 -177h-140l155 729h140l-85 -399l223 210h159l-232 -206z" />
    <glyph glyph-name="f_f" unicode="ff" horiz-adv-x="636" 
d="M695 529l-20 -93h-82l-93 -436h-140l93 436h-170l-93 -436h-140l93 436h-77l20 93h76l14 65q15 70 56.5 102.5t114.5 32.5l77 -3l-22 -105q-36 4 -42 4q-37 0 -46 -43l-12 -53h170l14 65q15 70 56.5 102.5t114.5 32.5l77 -3l-22 -105q-36 4 -42 4q-37 0 -46 -43l-12 -53
h83z" />
    <glyph glyph-name="f_i" unicode="fi" horiz-adv-x="611" 
d="M385 529l-20 -93h-82l-93 -436h-140l93 436h-77l20 93h76l14 65q15 70 56.5 102.5t114.5 32.5l77 -3l-22 -105q-36 4 -42 4q-37 0 -46 -43l-12 -53h83zM615 540l-115 -540h-140l115 540h140zM630 610h-140l27 131h140z" />
    <glyph glyph-name="f_l" unicode="fl" horiz-adv-x="611" 
d="M385 529l-20 -93h-82l-93 -436h-140l93 436h-77l20 93h76l14 65q15 70 56.5 102.5t114.5 32.5l77 -3l-22 -105q-36 4 -42 4q-37 0 -46 -43l-12 -53h83zM655 729l-155 -729h-140l155 729h140z" />
    <glyph glyph-name="f_f_i" unicode="ffi" horiz-adv-x="921" 
d="M695 529l-20 -93h-82l-93 -436h-140l93 436h-170l-93 -436h-140l93 436h-77l20 93h76l14 65q15 70 56.5 102.5t114.5 32.5l77 -3l-22 -105q-36 4 -42 4q-37 0 -46 -43l-12 -53h170l14 65q15 70 56.5 102.5t114.5 32.5l77 -3l-22 -105q-36 4 -42 4q-37 0 -46 -43l-12 -53
h83zM925 540l-115 -540h-140l115 540h140zM940 610h-140l27 131h140z" />
    <glyph glyph-name="f_f_l" unicode="ffl" horiz-adv-x="921" 
d="M695 529l-20 -93h-82l-93 -436h-140l93 436h-170l-93 -436h-140l93 436h-77l20 93h76l14 65q15 70 56.5 102.5t114.5 32.5l77 -3l-22 -105q-36 4 -42 4q-37 0 -46 -43l-12 -53h170l14 65q15 70 56.5 102.5t114.5 32.5l77 -3l-22 -105q-36 4 -42 4q-37 0 -46 -43l-12 -53
h83zM965 729l-155 -729h-140l155 729h140z" />
    <glyph glyph-name=".notdef" horiz-adv-x="280" 
 />
    <glyph glyph-name=".null" horiz-adv-x="0" 
 />
    <glyph glyph-name="nonmarkingreturn" horiz-adv-x="333" 
 />
    <glyph glyph-name="space" unicode=" " horiz-adv-x="278" 
 />
    <glyph glyph-name="exclam" unicode="!" horiz-adv-x="333" 
d="M357 726l-45 -210l-107 -309h-67l24 309l45 210h150zM202 0h-150l31 146h150z" />
    <glyph glyph-name="quotedbl" unicode="&#x22;" horiz-adv-x="474" 
d="M303 729l-28 -130l-69 -129h-56l-13 129l28 130h138zM539 729l-28 -130l-69 -129h-56l-13 129l28 130h138z" />
    <glyph glyph-name="numbersign" unicode="#" 
d="M599 424h-106l-62 -152h99l-21 -100h-119l-84 -204h-105l83 204h-102l-84 -204h-105l83 204h-77l21 100h97l62 152h-99l22 100h118l71 173h106l-72 -173h103l71 173h106l-72 -173h87zM387 424h-102l-63 -152h103z" />
    <glyph glyph-name="dollar" unicode="$" 
d="M533 237q0 -106 -73.5 -175.5t-193.5 -82.5l-22 -105h-68l23 105q-87 9 -133.5 52.5t-46.5 116.5q0 26 8 59h130q-1 -19 -1 -33q0 -75 65 -88l46 213q-165 42 -165 176q0 93 69.5 158t182.5 76l11 54h68l-12 -54q167 -15 167 -162q0 -21 -5 -49h-128q3 29 3 40
q0 60 -58 70l-43 -201q93 -28 134.5 -68.5t41.5 -101.5zM294 427l38 181q-47 -9 -73.5 -37.5t-26.5 -69.5q0 -50 62 -74zM390 198q0 60 -59 84l-42 -196q48 11 74.5 40.5t26.5 71.5z" />
    <glyph glyph-name="percent" unicode="%" horiz-adv-x="889" 
d="M793 709l-551 -729h-76l550 729h77zM465 557q0 -86 -68.5 -153t-156.5 -67q-65 0 -108 41.5t-43 103.5q0 85 68.5 152t154.5 67q67 0 110 -41t43 -103zM365 536q0 29 -21.5 48t-52.5 19q-40 0 -71 -31t-31 -71q0 -28 21 -47t52 -19q41 0 72 30.5t31 70.5zM863 200
q0 -86 -68.5 -153t-156.5 -67q-65 0 -108 41.5t-43 103.5q0 85 68.5 152t154.5 67q67 0 110 -41t43 -103zM763 179q0 29 -21.5 48t-52.5 19q-40 0 -71 -31t-31 -71q0 -28 21 -47t52 -19q41 0 72 30.5t31 70.5z" />
    <glyph glyph-name="ampersand" unicode="&#x26;" horiz-adv-x="722" 
d="M656 0h-160l-37 60q-69 -50 -111.5 -66.5t-100.5 -16.5q-93 0 -145.5 47.5t-52.5 131.5q0 81 51 138t159 107q-53 75 -53 122q0 80 67.5 140t157.5 60q68 0 110.5 -32.5t42.5 -85.5q0 -64 -35.5 -112.5t-123.5 -100.5l82 -137q25 23 38.5 49t21.5 69h113q-8 -55 -41 -114
t-77 -99zM406 152l-99 167l-52 -29q-69 -39 -69 -103q0 -39 26 -66.5t63 -27.5q25 0 53 12.5t78 46.5zM459 574q0 19 -13.5 30t-37.5 11q-29 0 -47 -17.5t-18 -45.5q0 -13 6 -26.5t30 -55.5q80 42 80 104z" />
    <glyph glyph-name="quotesingle" unicode="'" horiz-adv-x="238" 
d="M303 729l-28 -130l-70 -129h-55l-13 129l28 130h138z" />
    <glyph glyph-name="parenleft" unicode="(" horiz-adv-x="333" 
d="M221 -200h-100q-77 177 -77 322q0 151 65.5 297t208.5 310h100q-142 -194 -198.5 -329.5t-56.5 -287.5q0 -69 12.5 -136.5t45.5 -175.5z" />
    <glyph glyph-name="parenright" unicode=")" horiz-adv-x="333" 
d="M316 406q0 -155 -67.5 -299.5t-209.5 -306.5h-100q146 197 202 330.5t56 285.5q0 70 -13 136.5t-48 176.5h100q80 -176 80 -323z" />
    <glyph glyph-name="asterisk" unicode="*" horiz-adv-x="389" 
d="M438 579l-116 -35l47 -94l-67 -43l-47 94l-87 -94l-49 43l87 94l-101 36l37 69l101 -36l24 116h72l-25 -116l117 36z" />
    <glyph glyph-name="plus" unicode="+" horiz-adv-x="584" 
d="M538 200h-182v-182h-100v182h-182v100h182v182h100v-182h182v-100z" />
    <glyph glyph-name="comma" unicode="," horiz-adv-x="278" 
d="M176 9q-14 -82 -60 -126.5t-129 -56.5l12 56q92 16 111 118h-86l31 146h150z" />
    <glyph glyph-name="hyphen" unicode="-" horiz-adv-x="333" 
d="M331 342l-29 -135h-272l29 135h272z" />
    <glyph glyph-name="period" unicode="." horiz-adv-x="278" 
d="M174 0h-150l31 146h150z" />
    <glyph glyph-name="slash" unicode="/" horiz-adv-x="278" 
d="M387 714l-361 -728h-67l361 728h67z" />
    <glyph glyph-name="zero" unicode="0" 
d="M574 526q0 -76 -23 -180t-54 -172q-85 -183 -263 -183q-88 0 -139 53.5t-51 145.5q0 76 22.5 179.5t54.5 171.5q40 88 107.5 135.5t152.5 47.5q90 0 141.5 -53t51.5 -145zM384 251q47 165 47 277q0 38 -21 61t-56 23q-52 0 -88 -57q-25 -40 -52 -162.5t-27 -195.5
q0 -38 20.5 -61t55.5 -23q44 0 72 32t49 106z" />
    <glyph glyph-name="one" unicode="1" 
d="M489 709l-151 -709h-140l104 489h-170l20 93q184 0 244 127h93z" />
    <glyph glyph-name="two" unicode="2" 
d="M472 0h-482q25 99 71.5 156.5t151.5 120.5q131 79 178 127q54 56 54 128q0 38 -23 59t-63 21q-52 0 -84.5 -38.5t-42.5 -111.5h-134q19 126 93 194t190 68q97 0 152 -45.5t55 -126.5q0 -97 -65 -174q-42 -50 -152 -119q-90 -57 -122 -81.5t-51 -52.5h300z" />
    <glyph glyph-name="three" unicode="3" 
d="M526 264q0 -119 -78.5 -196t-212.5 -77q-97 0 -151 45.5t-54 128.5q0 23 6 57h136l1 -32q2 -77 90 -77q50 0 86 39t36 92q-1 44 -33 62t-107 18l20 94h12q68 0 108 32.5t40 91.5q0 31 -21.5 50.5t-55.5 19.5q-49 0 -75 -28.5t-42 -97.5h-129q24 124 90.5 181t180.5 57
q95 0 147.5 -39.5t52.5 -111.5q0 -113 -119 -186q72 -44 72 -123z" />
    <glyph glyph-name="four" unicode="4" 
d="M540 273l-25 -116h-73l-34 -157h-140l34 157h-285l25 118l352 434h165l-93 -436h74zM391 577l-249 -304h184z" />
    <glyph glyph-name="five" unicode="5" 
d="M532 300q0 -132 -89 -220.5t-221 -88.5q-90 0 -145 45t-55 119q0 19 5 44h138q-2 -18 -2 -22q0 -29 24 -46.5t64 -17.5q62 0 100 44t38 119q0 45 -23 71.5t-66 26.5q-67 0 -101 -53h-126l145 388h383l-27 -125h-296l-53 -141q65 43 132 43q81 0 128 -51t47 -135z" />
    <glyph glyph-name="six" unicode="6" 
d="M537 300q0 -125 -83.5 -217t-206.5 -92q-92 0 -146.5 49.5t-54.5 137.5q0 91 29.5 205.5t69.5 180.5q98 160 258 160q85 0 133.5 -41t48.5 -112q0 -14 -1 -23h-130q-7 34 -25.5 49t-54.5 15q-60 0 -91.5 -43t-62.5 -158q74 56 149 56q79 0 123.5 -44.5t44.5 -122.5z
M394 269q0 38 -22.5 62t-59.5 24q-56 0 -96 -46.5t-40 -113.5q0 -38 24.5 -60t63.5 -22q56 0 93 43.5t37 112.5z" />
    <glyph glyph-name="seven" unicode="7" 
d="M616 599l-105 -108q-110 -123 -174 -235.5t-104 -255.5h-142q60 182 143.5 312.5t229.5 271.5h-353l27 125h501z" />
    <glyph glyph-name="eight" unicode="8" 
d="M536 260q0 -111 -85.5 -190t-211.5 -79q-101 0 -159.5 45t-58.5 126q0 72 38.5 127t121.5 97q-35 27 -50 52t-15 57q0 94 78.5 161.5t187.5 67.5q88 0 143 -43t55 -111q0 -108 -129 -184q47 -29 66 -55.5t19 -70.5zM450 540q0 32 -25.5 52t-66.5 20q-50 0 -85 -32.5
t-35 -79.5q0 -34 23.5 -54.5t61.5 -20.5q53 0 90 33.5t37 81.5zM393 254q0 37 -24.5 56.5t-66.5 19.5q-59 0 -98.5 -40.5t-39.5 -102.5q0 -34 27 -54t69 -20q60 0 96.5 38.5t36.5 102.5z" />
    <glyph glyph-name="nine" unicode="9" 
d="M571 519q0 -90 -27.5 -190t-73.5 -180q-91 -158 -259 -158q-80 0 -130 43t-50 112q0 12 4 33h135q-1 -5 -1 -12q0 -24 22 -39t57 -15q60 0 94 46t57 146q-42 -36 -73.5 -49.5t-73.5 -13.5q-78 0 -123.5 47t-45.5 128q0 133 83 220t207 87q90 0 144 -56t54 -149zM442 526
q0 42 -25 64t-68 22q-56 0 -93.5 -49.5t-37.5 -124.5q0 -39 22 -59.5t60 -20.5q60 0 101 48t41 120z" />
    <glyph glyph-name="colon" unicode=":" horiz-adv-x="333" 
d="M201 0h-150l31 146h150zM281 374h-150l31 146h150z" />
    <glyph glyph-name="semicolon" unicode=";" horiz-adv-x="333" 
d="M203 9q-14 -82 -60 -126.5t-129 -56.5l12 56q92 16 111 118h-86l31 146h150zM281 374h-150l31 146h150z" />
    <glyph glyph-name="less" unicode="&#x3c;" horiz-adv-x="584" 
d="M478 -105l-376 317v76l376 317v-130l-266 -225l266 -225v-130z" />
    <glyph glyph-name="equal" unicode="=" horiz-adv-x="584" 
d="M538 291h-464v100h464v-100zM538 109h-464v100h464v-100z" />
    <glyph glyph-name="greater" unicode="&#x3e;" horiz-adv-x="584" 
d="M478 212l-376 -317v130l266 225l-266 225v130l376 -317v-76z" />
    <glyph glyph-name="question" unicode="?" horiz-adv-x="611" 
d="M626 566q0 -87 -51 -153q-33 -42 -116 -93q-51 -32 -66 -51t-25 -68h-122q5 57 37.5 103t102.5 95q63 44 80 71t17 63q0 38 -25.5 62.5t-65.5 24.5q-51 0 -86 -36.5t-48 -102.5h-136q59 263 288 263q102 0 159 -49t57 -129zM341 0h-150l31 146h150z" />
    <glyph glyph-name="at" unicode="@" horiz-adv-x="975" 
d="M992 439q0 -75 -31 -147t-78.5 -123t-105.5 -82t-112 -31q-85 0 -108 70q-75 -73 -159 -73q-61 0 -99 38t-38 98q0 70 51 148t128 129.5t146 51.5q38 0 60 -16t37 -53l27 59h90l-136 -280q-20 -42 -19 -54q0 -16 11 -25.5t28 -9.5q68 0 141.5 94.5t73.5 191.5
q0 98 -86 167.5t-212 69.5q-113 0 -208 -48t-161 -139q-99 -137 -99 -279q0 -110 85 -180t218 -70q84 0 212 41l12 -79q-110 -45 -247 -45q-175 0 -277.5 88.5t-102.5 229.5q0 143 82.5 273.5t221 210.5t293.5 80q151 0 256.5 -87.5t105.5 -218.5zM631 376q0 31 -19.5 50.5
t-50.5 19.5q-64 0 -132 -78t-68 -153q0 -35 18.5 -57t48.5 -22q63 0 133 84t70 156z" />
    <glyph glyph-name="A" unicode="A" horiz-adv-x="722" 
d="M663 0h-153l-18 147h-272l-81 -147h-153l407 729h173zM478 272l-35 283l-154 -283h189z" />
    <glyph glyph-name="B" unicode="B" horiz-adv-x="722" 
d="M676 255q0 -44 -22 -92.5t-59 -84.5q-81 -78 -225 -78h-328l155 729h325q95 0 147.5 -42.5t52.5 -115.5q0 -106 -117 -183q38 -30 54.5 -61t16.5 -72zM573 542q0 32 -21.5 47t-67.5 15h-164l-35 -165h164q63 0 93.5 29t30.5 74zM528 245q0 69 -91 69h-178l-40 -189h178
q64 0 97.5 33t33.5 87z" />
    <glyph glyph-name="C" unicode="C" horiz-adv-x="722" 
d="M702 249q-33 -127 -126.5 -194t-231.5 -67q-129 0 -202.5 67t-73.5 186q0 215 123 357.5t302 142.5q116 0 188 -58t72 -151q0 -13 -4 -50h-141q0 131 -132 131q-120 0 -189 -109q-70 -109 -70 -234q0 -154 148 -154q152 0 194 133h143z" />
    <glyph glyph-name="D" unicode="D" horiz-adv-x="722" 
d="M736 479q0 -184 -112 -339q-55 -76 -124 -108t-178 -32h-285l155 729h285q136 0 197.5 -59.5t61.5 -190.5zM587 469q0 135 -137 135h-135l-101 -479h134q65 0 106 23.5t73 79.5q26 44 43 113t17 128z" />
    <glyph glyph-name="E" unicode="E" horiz-adv-x="667" 
d="M611 125l-27 -125h-545l155 729h528l-27 -125h-378l-35 -165h349l-26 -125h-349l-40 -189h395z" />
    <glyph glyph-name="F" unicode="F" horiz-adv-x="611" 
d="M701 729l-27 -125h-362l-35 -165h320l-27 -125h-319l-67 -314h-150l155 729h512z" />
    <glyph glyph-name="G" unicode="G" horiz-adv-x="778" 
d="M755 392l-84 -392h-90l8 94q-55 -58 -108 -82t-124 -24q-133 0 -211 75t-78 205q0 122 57 230.5t159 175.5t223 67q122 0 197 -58.5t75 -153.5q0 -5 -2 -33h-138q-6 56 -47.5 86.5t-112.5 30.5q-114 0 -188 -93t-74 -230q0 -77 48.5 -125.5t122.5 -48.5q72 0 131.5 38.5
t82.5 112.5h-166l27 125h292z" />
    <glyph glyph-name="H" unicode="H" horiz-adv-x="722" 
d="M772 729l-155 -729h-150l70 331h-289l-70 -331h-150l155 729h150l-58 -273h288l58 273h151z" />
    <glyph glyph-name="I" unicode="I" horiz-adv-x="278" 
d="M328 729l-155 -729h-150l155 729h150z" />
    <glyph glyph-name="J" unicode="J" 
d="M601 729l-113 -528q-45 -213 -279 -213q-88 0 -138 41.5t-50 114.5q0 34 7 65l13 61h150l-14 -66q-4 -17 -4 -34q0 -24 18.5 -39t47.5 -15q80 0 99 85l113 528h150z" />
    <glyph glyph-name="K" unicode="K" horiz-adv-x="722" 
d="M677 0h-179l-173 314l-91 -80l-50 -234h-150l155 729h150l-68 -320l354 320h178l-361 -319z" />
    <glyph glyph-name="L" unicode="L" horiz-adv-x="611" 
d="M566 125l-27 -125h-499l155 729h150l-128 -604h349z" />
    <glyph glyph-name="M" unicode="M" horiz-adv-x="833" 
d="M891 729l-155 -729h-142l132 619l-269 -619h-157v619l-132 -619h-142l155 729h237v-560l254 560h219z" />
    <glyph glyph-name="N" unicode="N" horiz-adv-x="722" 
d="M776 729l-155 -729h-148l-192 523l-111 -523h-142l155 729h150l192 -515l109 515h142z" />
    <glyph glyph-name="O" unicode="O" horiz-adv-x="778" 
d="M788 455q0 -181 -122 -325q-64 -76 -138 -109t-171 -33q-134 0 -212 74t-78 205q0 86 32.5 171.5t91.5 155.5q123 147 307 147q137 0 213.5 -75.5t76.5 -210.5zM639 437q0 83 -42.5 129.5t-117.5 46.5q-110 0 -186.5 -96.5t-76.5 -228.5q0 -81 44.5 -126.5t120.5 -45.5
q109 0 183.5 93.5t74.5 227.5z" />
    <glyph glyph-name="P" unicode="P" horiz-adv-x="667" 
d="M707 560q0 -120 -81 -210t-198 -90h-187l-55 -260h-150l155 729h308q101 0 154.5 -47t53.5 -122zM558 525q0 35 -25 57t-65 22h-154l-46 -219h153q64 0 100.5 38t36.5 102z" />
    <glyph glyph-name="Q" unicode="Q" horiz-adv-x="778" 
d="M712 38l-93 -81l-69 81q-90 -50 -191 -50q-133 0 -211 74.5t-78 205.5q0 86 32.5 171.5t89.5 154.5q122 147 306 147q137 0 215 -77t78 -211q0 -92 -39.5 -184.5t-103.5 -154.5zM642 436q0 83 -43.5 130t-120.5 47q-108 0 -183.5 -96.5t-75.5 -228.5q0 -81 43 -126.5
t118 -45.5q49 0 89 19l-62 73l94 81l65 -78q76 96 76 225z" />
    <glyph glyph-name="R" unicode="R" horiz-adv-x="722" 
d="M643 27l-6 -27h-159q-8 25 -8 41q-1 33 26 132q12 48 12 61q0 55 -85 55h-172l-61 -289h-150l155 729h377q78 0 125.5 -42t47.5 -108q0 -75 -39.5 -129.5t-127.5 -97.5q78 -26 78 -82q0 -33 -28 -183q-3 -15 -3 -26q0 -20 18 -34zM596 534q0 70 -110 70h-168l-40 -190
h181q62 0 99.5 33t37.5 87z" />
    <glyph glyph-name="S" unicode="S" horiz-adv-x="667" 
d="M648 271q0 -128 -91 -205.5t-250 -77.5q-125 0 -197 52t-72 145q0 17 4 44h146q-2 -18 -2 -23q0 -43 37.5 -66.5t105.5 -23.5q79 0 124.5 28t45.5 78q0 34 -24.5 49t-96.5 30l-98 20q-89 18 -129 53.5t-40 97.5q0 114 89 191.5t233 77.5q119 0 185.5 -45.5t66.5 -126.5
q0 -25 -8 -62h-140q2 18 2 23q0 83 -132 83q-68 0 -107.5 -28t-39.5 -76q0 -28 25 -43.5t96 -29.5l109 -22q158 -33 158 -143z" />
    <glyph glyph-name="T" unicode="T" horiz-adv-x="611" 
d="M713 729l-27 -125h-212l-129 -604h-150l129 604h-222l27 125h584z" />
    <glyph glyph-name="U" unicode="U" horiz-adv-x="722" 
d="M666 246q-27 -125 -117.5 -191.5t-220.5 -66.5q-113 0 -180 51.5t-67 138.5q0 36 11 88l99 463h150l-103 -483q-5 -20 -5 -45q0 -40 32.5 -62.5t90.5 -22.5q68 0 107 31.5t53 98.5l103 483h150z" />
    <glyph glyph-name="V" unicode="V" horiz-adv-x="667" 
d="M762 729l-402 -729h-127l-94 729h151l45 -549l276 549h151z" />
    <glyph glyph-name="W" unicode="W" horiz-adv-x="944" 
d="M1047 729l-357 -729h-139v555l-237 -555h-135l-51 729h156v-546l224 546h155v-548l225 548h159z" />
    <glyph glyph-name="X" unicode="X" horiz-adv-x="667" 
d="M615 0h-179l-90 249l-189 -249h-175l310 367l-145 362h178l79 -236l183 236h175l-303 -357z" />
    <glyph glyph-name="Y" unicode="Y" horiz-adv-x="667" 
d="M765 729l-328 -459l-58 -270h-150l58 270l-145 459h167l82 -315l207 315h167z" />
    <glyph glyph-name="Z" unicode="Z" horiz-adv-x="611" 
d="M565 125l-27 -125h-548l27 125l474 479h-373l27 125h548l-27 -125l-474 -479h373z" />
    <glyph glyph-name="bracketleft" unicode="[" horiz-adv-x="333" 
d="M226 -200h-243l197 929h243l-22 -100h-113l-154 -729h113z" />
    <glyph glyph-name="backslash" unicode="\" horiz-adv-x="278" 
d="M245 -23h-75l-72 732h74z" />
    <glyph glyph-name="bracketright" unicode="]" horiz-adv-x="333" 
d="M178 -200h-243l22 100h113l154 729h-113l21 100h243z" />
    <glyph glyph-name="asciicircum" unicode="^" horiz-adv-x="584" 
d="M540 270h-113l-58 300l-178 -300h-112l255 425h125z" />
    <glyph glyph-name="underscore" unicode="_" 
d="M501 -120l-15 -69h-600l15 69h600z" />
    <glyph glyph-name="grave" unicode="`" horiz-adv-x="333" 
d="M304 598h-100l-93 154h156z" />
    <glyph glyph-name="a" unicode="a" 
d="M487 17l-4 -17h-153q-7 15 -7 27q0 14 4 34q-43 -39 -81.5 -54.5t-83.5 -15.5q-70 0 -110.5 34t-40.5 90q0 74 53.5 127.5t147.5 68.5l58 9q12 2 26.5 4t20 3t13.5 2.5t10.5 2t7 2t7 3l7.5 4.5q34 17 34 53q0 43 -73 43q-48 0 -73.5 -17t-38.5 -58h-131q21 98 84.5 142.5
t181.5 44.5q93 0 142.5 -32t49.5 -89q0 -18 -6 -45l-63 -300q-3 -12 -3 -21q0 -21 21 -45zM363 231l5 24q-14 -8 -18.5 -9t-28.5 -5l-66 -11q-101 -17 -101 -84q0 -43 75 -43q51 0 86 33.5t48 94.5z" />
    <glyph glyph-name="b" unicode="b" horiz-adv-x="611" 
d="M600 342q0 -141 -89 -246t-205 -105q-97 0 -134 71l-13 -62h-140l155 729h140l-55 -259q66 79 166 79q79 0 127 -56.5t48 -150.5zM457 319q0 55 -23.5 86.5t-64.5 31.5q-65 0 -112.5 -67.5t-47.5 -160.5q0 -50 24.5 -78t65.5 -28q64 0 111 62.5t47 153.5z" />
    <glyph glyph-name="c" unicode="c" 
d="M521 187q-61 -196 -266 -196q-103 0 -160 51.5t-57 136.5q0 71 27.5 146t72.5 129q78 95 220 95q88 0 143.5 -48t55.5 -120q0 -11 -4 -43h-134q-1 58 -20 78.5t-62 20.5q-71 0 -113.5 -71.5t-42.5 -166.5q0 -51 22.5 -73.5t68.5 -22.5q43 0 68 16.5t47 67.5h134z" />
    <glyph glyph-name="d" unicode="d" horiz-adv-x="611" 
d="M660 729l-155 -729h-140l13 62q-68 -71 -164 -71q-79 0 -126.5 54t-47.5 147q0 137 85 247t207 110q99 0 133 -79l55 259h140zM428 323q0 52 -23.5 83t-64.5 31q-63 0 -110 -67t-47 -157q0 -53 24 -81.5t65 -28.5q65 0 110.5 63.5t45.5 156.5z" />
    <glyph glyph-name="e" unicode="e" 
d="M534 233h-363q-1 -9 -1 -38q0 -41 26 -66.5t69 -25.5q34 0 64.5 15t44.5 34h138q-40 -74 -112.5 -117.5t-161.5 -43.5q-95 0 -154 54.5t-59 146.5q0 95 36.5 175t109.5 131t168 51q98 0 155 -56.5t57 -141.5q0 -54 -17 -118zM409 326v15q0 51 -22 73.5t-65 22.5
q-102 0 -133 -111h220z" />
    <glyph glyph-name="f" unicode="f" horiz-adv-x="333" 
d="M385 529l-20 -93h-82l-93 -436h-140l93 436h-77l20 93h76l14 65q15 70 56.5 102.5t114.5 32.5l77 -3l-22 -105q-36 4 -42 4q-37 0 -46 -43l-12 -53h83z" />
    <glyph glyph-name="g" unicode="g" horiz-adv-x="611" 
d="M616 540l-119 -558q-20 -96 -98.5 -148t-203.5 -52q-98 0 -153.5 32.5t-55.5 89.5q0 13 3 31h144l-1 -12q0 -22 24.5 -36.5t61.5 -14.5q55 0 95 30.5t51 79.5l17 80q-47 -40 -82.5 -55.5t-81.5 -15.5q-77 0 -127 50.5t-50 132.5q0 97 38.5 183t107.5 139t152 53
q87 0 127 -92l18 83h133zM431 315q0 56 -25 89t-67 33q-62 0 -109 -68.5t-47 -160.5q0 -51 23 -78t63 -27q67 0 114.5 60.5t47.5 151.5z" />
    <glyph glyph-name="h" unicode="h" horiz-adv-x="611" 
d="M583 362l-77 -362h-140l67 313q4 20 6 48q0 76 -73 76q-48 0 -84.5 -36t-49.5 -97l-65 -304h-140l155 729h140l-58 -271q77 91 180 91q65 0 105 -36.5t40 -95.5q0 -27 -6 -55z" />
    <glyph glyph-name="i" unicode="i" horiz-adv-x="278" 
d="M282 540l-115 -540h-140l115 540h140zM297 610h-140l27 131h140z" />
    <glyph glyph-name="j" unicode="j" horiz-adv-x="278" 
d="M285 540l-135 -634q-14 -65 -58.5 -94.5t-129.5 -29.5q-28 0 -45 5l24 111q5 -4 25 -4q23 0 34.5 10t16.5 34l128 602h140zM300 610h-140l27 131h140z" />
    <glyph glyph-name="k" unicode="k" 
d="M508 0h-164l-79 239l-68 -62l-38 -177h-140l155 729h140l-85 -399l223 210h159l-232 -206z" />
    <glyph glyph-name="l" unicode="l" horiz-adv-x="278" 
d="M322 729l-155 -729h-140l155 729h140z" />
    <glyph glyph-name="m" unicode="m" horiz-adv-x="889" 
d="M863 362l-77 -362h-140l72 340q5 23 5 41q0 56 -58 56q-47 0 -79.5 -29.5t-43.5 -83.5l-69 -324h-140l74 346q3 17 3 33q0 26 -17 42t-46 16q-44 0 -75.5 -30.5t-42.5 -82.5l-69 -324h-140l115 540h139l-17 -81q44 49 83 69.5t88 20.5q46 0 79.5 -22t44.5 -60
q79 82 177 82q67 0 104.5 -33.5t37.5 -92.5q0 -22 -8 -61z" />
    <glyph glyph-name="n" unicode="n" horiz-adv-x="611" 
d="M583 362l-77 -362h-140l67 313q3 15 6 49q0 75 -74 75q-51 0 -87.5 -35.5t-49.5 -97.5l-65 -304h-140l115 540h140l-18 -82q41 48 83.5 69.5t98.5 21.5q67 0 107 -36t40 -96q0 -27 -6 -55z" />
    <glyph glyph-name="o" unicode="o" horiz-adv-x="611" 
d="M594 349q0 -159 -92 -258.5t-240 -99.5q-100 0 -159.5 51.5t-59.5 141.5q0 157 92.5 261t237.5 104q103 0 162 -53.5t59 -146.5zM451 320q0 53 -27 85t-73 32q-68 0 -116.5 -65t-48.5 -160q0 -52 27.5 -80.5t73.5 -28.5q69 0 116.5 63t47.5 154z" />
    <glyph glyph-name="p" unicode="p" horiz-adv-x="611" 
d="M597 342q0 -150 -84 -250.5t-206 -100.5q-100 0 -134 81l-62 -290h-140l161 758h140l-17 -80q69 89 169 89q80 0 126.5 -56t46.5 -151zM454 323q0 52 -24 83t-64 31q-65 0 -111.5 -67t-46.5 -161q0 -50 24 -78t65 -28q65 0 111 63t46 157z" />
    <glyph glyph-name="q" unicode="q" horiz-adv-x="611" 
d="M458 -218h-140l62 290q-69 -81 -169 -81q-80 0 -128.5 53t-48.5 144q0 142 85 251.5t210 109.5q103 0 133 -89l17 80h140zM426 324q0 52 -24 82.5t-65 30.5q-65 0 -112.5 -67t-47.5 -160q0 -51 24.5 -79t65.5 -28q66 0 112.5 63.5t46.5 157.5z" />
    <glyph glyph-name="r" unicode="r" horiz-adv-x="389" 
d="M417 406q-24 4 -43 4q-124 0 -150 -123l-61 -287h-140l115 540h140l-23 -106q35 55 81 85t94 30q9 0 17 -1z" />
    <glyph glyph-name="s" unicode="s" 
d="M520 194q0 -95 -74 -149t-202 -54q-99 0 -160 41t-61 109q0 10 4 30h137q3 -68 106 -68q102 0 102 48q-1 12 -16 21t-61 24l-79 25q-129 41 -129 124q0 84 70.5 144t189.5 60q94 0 148 -38.5t54 -106.5q0 -16 -5 -38h-135q3 13 3 19q0 24 -23.5 38t-64.5 14
q-40 0 -64 -14.5t-24 -38.5q0 -15 13.5 -24.5t51.5 -20.5l96 -28q63 -18 93 -46t30 -71z" />
    <glyph glyph-name="t" unicode="t" horiz-adv-x="333" 
d="M374 529l-20 -93h-78l-59 -282q-6 -25 -6 -34q0 -25 38 -25q12 0 33 3l-20 -98q-54 -4 -84 -4q-114 0 -114 79q0 18 5 41l67 320h-69l20 93h69l31 145h140l-31 -145h78z" />
    <glyph glyph-name="u" unicode="u" horiz-adv-x="611" 
d="M616 540l-115 -540h-140l16 75q-77 -84 -180 -84q-66 0 -106 36t-40 96q0 27 6 55l77 362h140l-67 -313q-4 -17 -6 -49q0 -75 76 -75q49 0 85 36t49 97l65 304h140z" />
    <glyph glyph-name="v" unicode="v" 
d="M611 540l-301 -540h-147l-74 540h148l30 -395l196 395h148z" />
    <glyph glyph-name="w" unicode="w" horiz-adv-x="778" 
d="M841 540l-264 -540h-150v380l-166 -380h-144l-37 540h150v-378l159 378h144v-378l163 378h145z" />
    <glyph glyph-name="x" unicode="x" 
d="M494 0h-168l-59 168l-123 -168h-168l233 274l-111 266h168l51 -163l123 163h168l-237 -266z" />
    <glyph glyph-name="y" unicode="y" 
d="M613 540l-358 -638q-42 -75 -86 -98t-128 -23q-27 0 -44 4l23 109q11 -2 28 -2q52 0 82.5 25t30.5 68l-77 555h154l36 -393l195 393h144z" />
    <glyph glyph-name="z" unicode="z" horiz-adv-x="500" 
d="M429 0h-448l24 113l334 314h-249l24 113h421l-24 -113l-332 -314h274z" />
    <glyph glyph-name="braceleft" unicode="{" horiz-adv-x="389" 
d="M235 -200h-77q-43 0 -70 28t-27 73q0 22 4 39l45 210q5 25 5 34q0 35 -54 38l-17 1l20 92h16q64 0 78 63l45 211q14 67 54 103.5t99 36.5h76l-21 -99h-37q-28 0 -39 -11t-18 -46l-41 -195q-11 -54 -39 -78.5t-82 -30.5q42 -7 60.5 -22t18.5 -47q0 -16 -5 -41l-42 -195
q-5 -21 -5 -40q0 -25 39 -25h35z" />
    <glyph glyph-name="bar" unicode="|" horiz-adv-x="280" 
d="M204 -200h-100v929h100v-929z" />
    <glyph glyph-name="braceright" unicode="}" horiz-adv-x="389" 
d="M379 306l-20 -92h-17q-64 0 -78 -63l-45 -211q-14 -67 -54 -103.5t-99 -36.5h-77l21 99h38q28 0 39 11t18 46l41 195q11 54 39 78.5t82 30.5q-42 6 -60.5 21.5t-18.5 47.5q0 16 5 41l42 195q2 7 5 40q0 25 -39 25h-36l21 99h78q43 0 70 -28t27 -73q0 -22 -4 -39l-45 -210
q-5 -25 -5 -34q0 -35 54 -38z" />
    <glyph glyph-name="asciitilde" unicode="~" horiz-adv-x="584" 
d="M541 288q-17 -71 -57.5 -108.5t-100.5 -37.5q-48 0 -77 26l-48 42q-28 24 -56 24q-29 0 -43 -14t-24 -51h-78q39 145 159 145q47 0 76 -25l49 -42q29 -26 56 -25q28 0 42 14t25 52h77z" />
    <glyph glyph-name="uni00A0" unicode="&#xa0;" horiz-adv-x="278" 
 />
    <glyph glyph-name="exclamdown" unicode="&#xa1;" horiz-adv-x="333" 
d="M206 24l-45 -210h-150l45 210l107 309h67zM285 394h-150l31 146h150z" />
    <glyph glyph-name="cent" unicode="&#xa2;" 
d="M522 187q-27 -92 -94 -148.5t-155 -60.5l-21 -102h-66l22 104q-78 13 -123.5 63t-45.5 129q0 63 23.5 135.5t60.5 125.5q73 105 205 115l19 86h66l-19 -87q72 -9 118 -55t46 -111q0 -11 -4 -43h-134q0 45 -11 66.5t-39 30.5l-73 -346q31 7 52 30t39 68h134zM232 93
l72 342q-56 -15 -89 -87.5t-33 -156.5q0 -41 11.5 -63.5t38.5 -34.5z" />
    <glyph glyph-name="sterling" unicode="&#xa3;" 
d="M503 22q-87 -45 -155 -45q-16 0 -93.5 15t-97.5 15q-50 0 -115 -28l-33 101q78 46 111 87.5t33 93.5q0 20 -5 55h-89l12 55h60q-26 76 -26 107q0 94 81.5 165.5t198.5 71.5q204 0 204 -176q0 -22 -4 -55h-131q1 10 1 26q0 93 -93 93q-46 0 -80 -32t-34 -75q0 -3 6 -29.5
t13.5 -57.5t8.5 -38h139l-12 -55h-122q2 -13 2 -26q0 -53 -34.5 -99.5t-116.5 -104.5q48 22 66.5 27.5t41.5 5.5q19 0 65 -9q42 -8 66 -8q49 0 114 29z" />
    <glyph glyph-name="currency" unicode="&#xa4;" 
d="M418 357q10 48 -12.5 79.5t-68.5 31.5t-80.5 -31.5t-44.5 -79.5q-11 -48 10.5 -80.5t67.5 -32.5t81.5 32.5t46.5 80.5zM549 142l-80 -66l-77 98q-57 -33 -124 -33q-63 0 -110 33l-119 -98l-52 66l119 98q-20 52 -6 117q13 63 55 115l-77 98l80 66l77 -98q61 33 124 33
q67 0 110 -33l119 98l52 -66l-119 -98q22 -50 9 -115q-14 -66 -58 -117z" />
    <glyph glyph-name="yen" unicode="&#xa5;" 
d="M662 704l-267 -352h139l-13 -60h-144l-11 -52h144l-13 -60h-144l-38 -180h-140l38 180h-146l13 60h146l11 52h-146l12 60h140l-128 352h139l85 -254l187 254h136z" />
    <glyph glyph-name="brokenbar" unicode="&#xa6;" horiz-adv-x="280" 
d="M204 357h-100v372h100v-372zM204 -200h-100v372h100v-372z" />
    <glyph glyph-name="section" unicode="&#xa7;" 
d="M538 302q0 -67 -30 -108.5t-100 -67.5q48 -39 48 -99q0 -93 -77 -160.5t-187 -67.5q-81 0 -128.5 38.5t-47.5 103.5q0 26 9 59h131q-3 -26 -3 -34q0 -55 65 -55q38 0 64 21.5t26 52.5q0 20 -9 30.5t-46 33.5l-150 100q-54 37 -54 98q0 59 25.5 96.5t101.5 84.5
q-38 39 -38 96q0 80 71 139.5t176 59.5q80 0 125.5 -34t45.5 -95q0 -15 -7 -50h-127q1 7 1 18q0 59 -62 59q-32 0 -53.5 -18t-21.5 -44q0 -30 71 -74l112 -70q69 -43 69 -113zM408 247q0 18 -10 30.5t-36 28.5l-127 76q-56 -29 -56 -81q0 -30 39 -54l125 -77q65 30 65 77z
" />
    <glyph glyph-name="dieresis" unicode="&#xa8;" horiz-adv-x="333" 
d="M223 618h-126l25 115h126zM418 618h-126l25 115h126z" />
    <glyph glyph-name="copyright" unicode="&#xa9;" horiz-adv-x="737" 
d="M732 340q0 -144 -102.5 -246t-246.5 -102t-246 102t-102 246t102 246.5t246 102.5t246.5 -102.5t102.5 -246.5zM673 340q0 120 -85 205t-205 85t-204.5 -85t-84.5 -205t84.5 -204.5t204.5 -84.5t205 84.5t85 204.5zM576 425q0 -4 -3 -34h-91q1 33 -16.5 48.5t-50.5 15.5
q-61 0 -94 -49q-36 -51 -34 -111q1 -70 76 -70q80 0 97 66h93q-16 -70 -69 -107.5t-134 -37.5q-74 0 -116.5 35t-43.5 96q-2 111 66 184t170 73q66 0 107 -30.5t43 -78.5z" />
    <glyph glyph-name="ordfeminine" unicode="&#xaa;" horiz-adv-x="370" 
d="M340 262h-284l17 80h283zM378 399h-92q-4 8 -4 16q0 6 2 16q-52 -46 -107 -46q-38 0 -60.5 21t-22.5 57q0 48 33 80.5t89 42.5l34 6q50 7 63 15.5t13 28.5q0 25 -44 25q-29 0 -44.5 -10t-22.5 -34h-79q25 112 161 112q53 0 83.5 -19t30.5 -53q0 -11 -3 -28l-39 -180
q-1 -5 -1 -13q0 -12 12 -27zM309 552q-10 -4 -16 -6l-12 -2l-40 -7q-60 -11 -60 -54q0 -30 42 -30q31 0 52.5 20t28.5 56z" />
    <glyph glyph-name="guillemotleft" unicode="&#xab;" 
d="M318 481l-25 -117l-120 -89l82 -89l-24 -114l-136 146l24 114zM531 481l-25 -117l-120 -89l82 -89l-24 -114l-136 146l24 114z" />
    <glyph glyph-name="logicalnot" unicode="&#xac;" horiz-adv-x="584" 
d="M538 159h-100v132h-364v100h464v-232z" />
    <glyph glyph-name="uni00AD" unicode="&#xad;" horiz-adv-x="333" 
d="M331 342l-29 -135h-272l29 135h272z" />
    <glyph glyph-name="registered" unicode="&#xae;" horiz-adv-x="737" 
d="M732 340q0 -144 -102.5 -246t-246.5 -102t-246 102t-102 246t102 246.5t246 102.5t246.5 -102.5t102.5 -246.5zM673 340q0 120 -85 205t-205 85t-204.5 -85t-84.5 -205t84.5 -204.5t204.5 -84.5t205 84.5t85 204.5zM581 448q1 -71 -77 -113q30 -13 32 -40q0 -20 -14 -92
q-1 -4 -1 -11q0 -8 11 -15l-6 -25h-98q-7 18 -7 26q-1 17 13 68q6 24 6 28q-1 21 -41 21h-86l-30 -143h-97l80 376h213q46 0 73.5 -22.5t28.5 -57.5zM485 422q-2 29 -55 29h-84l-16 -79h91q29 0 46.5 14t17.5 36z" />
    <glyph glyph-name="macron" unicode="&#xaf;" horiz-adv-x="333" 
d="M409 635h-300l17 80h300z" />
    <glyph glyph-name="degree" unicode="&#xb0;" horiz-adv-x="400" 
d="M424 569q-13 -59 -63.5 -101t-109.5 -42t-92.5 42t-20.5 101t63.5 101t109.5 42t92.5 -42t20.5 -101zM368 569q7 36 -13 61.5t-56 25.5t-66.5 -25.5t-38.5 -61.5t12 -61.5t56 -25.5t67.5 25.5t38.5 61.5z" />
    <glyph glyph-name="plusminus" unicode="&#xb1;" horiz-adv-x="584" 
d="M538 300h-182v-110h-100v110h-182v100h182v182h100v-182h182v-100zM538 0h-464v100h464v-100z" />
    <glyph glyph-name="two.superior" unicode="&#xb2;" horiz-adv-x="333" 
d="M391 600q-9 -40 -32.5 -65.5t-85.5 -63.5l-25 -15q-38 -22 -54 -39q-2 -1 -5 -4l-6 -6h165l-16 -71h-273q13 54 39 84.5t85 64.5q73 42 95 62t28 49q11 57 -42 57q-52 0 -66 -63l-2 -14h-81q2 12 3 16q13 61 56 93.5t109 32.5q64 0 92 -30.5t16 -87.5z" />
    <glyph glyph-name="three.superior" unicode="&#xb3;" horiz-adv-x="333" 
d="M362 446q-12 -55 -57.5 -88.5t-108.5 -33.5q-65 0 -93.5 33t-16.5 93h81q-9 -58 44 -58q24 0 43 15t24 38q5 26 -11 40.5t-52 14.5h-14l12 55h10q66 0 77 51q4 22 -6 35t-31 13q-27 0 -41.5 -15.5t-22.5 -50.5h-78q33 130 159 130q58 0 86.5 -28t18.5 -75
q-12 -51 -63 -78q54 -29 40 -91z" />
    <glyph glyph-name="acute" unicode="&#xb4;" horiz-adv-x="333" 
d="M462 752l-158 -154h-100l102 154h156z" />
    <glyph glyph-name="mu" unicode="&#xb5;" horiz-adv-x="611" 
d="M549 -5q-36 -18 -74 -18q-34 0 -52.5 12t-30.5 43q-36 -31 -67 -43t-74 -12q-61 0 -95 38l-50 -235h-135l162 760h140l-71 -333q-7 -33 -7 -46q0 -29 20.5 -45.5t55.5 -16.5q50 0 85.5 28t46.5 75l72 338h140l-83 -390q-7 -29 -7 -50q0 -23 21 -23q8 0 21 4z" />
    <glyph glyph-name="paragraph" unicode="&#xb6;" 
d="M629 656h-44l-180 -847h-98l180 847h-62l-180 -847h-98l97 458q-75 4 -119 49t-44 119q0 109 78.5 201.5t182.5 92.5h302z" />
    <glyph glyph-name="periodcentered" unicode="&#xb7;" horiz-adv-x="278" 
d="M228 250q0 -31 -22 -53t-53 -22t-53 22t-22 53t22 53t53 22t53 -22t22 -53z" />
    <glyph glyph-name="cedilla" unicode="&#xb8;" horiz-adv-x="333" 
d="M230 -123q0 -49 -41 -78t-109 -29q-59 0 -133 29l30 51q51 -25 98 -25q29 0 48.5 10.5t19.5 28.5q0 16 -12.5 27.5t-31.5 11.5h-50l60 99h60l-36 -58h33q29 0 46.5 -19.5t17.5 -47.5z" />
    <glyph glyph-name="one.superior" unicode="&#xb9;" horiz-adv-x="333" 
d="M262 335h-84l54 254h-94l12 54q102 0 136 66h56z" />
    <glyph glyph-name="ordmasculine" unicode="&#xba;" horiz-adv-x="365" 
d="M353 262h-301l17 80h301zM431 610q0 -97 -57 -160.5t-145 -63.5q-59 0 -94 32.5t-35 87.5q0 94 56 158.5t143 64.5q62 0 97 -32t35 -87zM344 590q0 32 -16 51.5t-42 19.5q-41 0 -70 -41.5t-29 -99.5q0 -32 16 -51.5t42 -19.5q40 0 69.5 42t29.5 99z" />
    <glyph glyph-name="guillemotright" unicode="&#xbb;" 
d="M262 220l-199 -148l25 117l120 89l-82 89l24 114l136 -146zM469 220l-199 -148l25 117l120 89l-82 89l24 114l136 -146z" />
    <glyph glyph-name="onequarter" unicode="&#xbc;" horiz-adv-x="834" 
d="M273 335h-84l54 254h-94l12 54q101 0 136 66h56zM782 715l-580 -740h-87l580 740h87zM735 82h-40l-17 -82h-84l17 82h-158l14 65l194 227h96l-48 -226h40zM625 148l31 144l-124 -144h93z" />
    <glyph glyph-name="onehalf" unicode="&#xbd;" horiz-adv-x="834" 
d="M273 335h-84l54 254h-94l12 54q101 0 136 66h56zM756 715l-580 -740h-87l580 740h87zM790 264q-8 -40 -32 -66t-84 -62q-50 -30 -58.5 -36t-32.5 -29h165l-15 -71h-273q13 53 38.5 84t84.5 65q73 42 95 62t28 49q6 27 -5 42t-37 15q-53 0 -66 -63l-1 -14h-81q2 14 2 16
q13 61 56 93.5t109 32.5q64 0 91.5 -30.5t15.5 -87.5z" />
    <glyph glyph-name="threequarters" unicode="&#xbe;" horiz-adv-x="834" 
d="M395 446q-12 -55 -57.5 -88.5t-108.5 -33.5q-65 0 -93.5 33t-16.5 93h81q-9 -58 44 -58q24 0 43 15t24 38q5 26 -11 40.5t-52 14.5h-14l12 55h10q66 0 77 51q4 22 -6 35t-31 13q-27 0 -41.5 -15.5t-22.5 -50.5h-78q33 130 159 130q58 0 86.5 -28t18.5 -75
q-12 -51 -63 -78q54 -29 40 -91zM814 715l-580 -740h-87l580 740h87zM735 82h-40l-17 -82h-84l17 82h-158l14 65l194 227h96l-48 -226h40zM625 148l31 144l-124 -144h93z" />
    <glyph glyph-name="questiondown" unicode="&#xbf;" horiz-adv-x="611" 
d="M524 59q-59 -263 -288 -263q-102 0 -159 49t-57 129q0 87 51 153q33 42 116 93q51 32 66 51t25 68h122q-5 -57 -37.5 -103t-102.5 -95q-63 -44 -80 -71t-17 -63q0 -38 25.5 -62.5t65.5 -24.5q51 0 86 36.5t48 102.5h136zM424 394h-150l31 146h150z" />
    <glyph glyph-name="Agrave" unicode="&#xc0;" horiz-adv-x="722" 
d="M663 0h-153l-18 147h-272l-81 -147h-153l407 729h173zM478 272l-35 283l-154 -283h189zM544 786h-104l-132 135h172z" />
    <glyph glyph-name="Aacute" unicode="&#xc1;" horiz-adv-x="722" 
d="M663 0h-153l-18 147h-272l-81 -147h-153l407 729h173zM478 272l-35 283l-154 -283h189zM733 921l-190 -135h-104l122 135h172z" />
    <glyph glyph-name="Acircumflex" unicode="&#xc2;" horiz-adv-x="722" 
d="M663 0h-153l-18 147h-272l-81 -147h-153l407 729h173zM478 272l-35 283l-154 -283h189zM683 788h-86l-82 53l-123 -53h-91l167 132h129z" />
    <glyph glyph-name="Atilde" unicode="&#xc3;" horiz-adv-x="722" 
d="M663 0h-153l-18 147h-272l-81 -147h-153l407 729h173zM478 272l-35 283l-154 -283h189zM695 915q-17 -62 -52.5 -92t-80.5 -30q-32 0 -51 11l-50 25q-30 14 -44 14q-26 0 -51 -48h-54q17 56 48.5 86.5t72.5 30.5q31 0 71 -17l50 -21q25 -11 33 -10q33 0 54 51h54z" />
    <glyph glyph-name="Adieresis" unicode="&#xc4;" horiz-adv-x="722" 
d="M663 0h-153l-18 147h-272l-81 -147h-153l407 729h173zM478 272l-35 283l-154 -283h189zM460 797h-126l25 115h126zM655 797h-126l25 115h126z" />
    <glyph glyph-name="Aring" unicode="&#xc5;" horiz-adv-x="722" 
d="M663 0h-153l-18 147h-272l-81 -147h-153l407 729h173zM478 272l-35 283l-154 -283h189zM610 884q0 -47 -37.5 -83.5t-85.5 -36.5q-34 0 -56.5 22t-22.5 56q0 47 37.5 83.5t85.5 36.5q34 0 56.5 -22t22.5 -56zM556 873q0 15 -10 24.5t-26 9.5q-23 0 -41 -16t-18 -37
q0 -15 11 -25t27 -10q22 0 39.5 16.5t17.5 37.5z" />
    <glyph glyph-name="AE" unicode="&#xc6;" horiz-adv-x="1000" 
d="M955 125l-27 -125h-536l32 152h-219l-85 -152h-159l420 729h683l-26 -125h-367l-36 -165h339l-26 -125h-339l-40 -189h386zM521 604h-66l-185 -327h181z" />
    <glyph glyph-name="Ccedilla" unicode="&#xc7;" horiz-adv-x="722" 
d="M702 249q-30 -118 -113.5 -184.5t-207.5 -75.5l-28 -45h33q29 0 46.5 -19.5t17.5 -47.5q0 -49 -41 -78t-109 -29q-59 0 -133 29l30 51q51 -25 98 -25q29 0 48.5 10.5t19.5 28.5q0 16 -12.5 27.5t-31.5 11.5h-50l52 86q-119 6 -186 72t-67 180q0 215 123 357.5t302 142.5
q116 0 188 -58t72 -151q0 -13 -4 -50h-141q0 131 -132 131q-120 0 -189 -109q-70 -109 -70 -234q0 -154 148 -154q152 0 194 133h143z" />
    <glyph glyph-name="Egrave" unicode="&#xc8;" horiz-adv-x="667" 
d="M611 125l-27 -125h-545l155 729h528l-27 -125h-378l-35 -165h349l-26 -125h-349l-40 -189h395zM522 786h-104l-132 135h172z" />
    <glyph glyph-name="Eacute" unicode="&#xc9;" horiz-adv-x="667" 
d="M611 125l-27 -125h-545l155 729h528l-27 -125h-378l-35 -165h349l-26 -125h-349l-40 -189h395zM711 921l-190 -135h-104l122 135h172z" />
    <glyph glyph-name="Ecircumflex" unicode="&#xca;" horiz-adv-x="667" 
d="M611 125l-27 -125h-545l155 729h528l-27 -125h-378l-35 -165h349l-26 -125h-349l-40 -189h395zM661 788h-86l-82 53l-123 -53h-91l167 132h129z" />
    <glyph glyph-name="Edieresis" unicode="&#xcb;" horiz-adv-x="667" 
d="M611 125l-27 -125h-545l155 729h528l-27 -125h-378l-35 -165h349l-26 -125h-349l-40 -189h395zM438 797h-126l25 115h126zM633 797h-126l25 115h126z" />
    <glyph glyph-name="Igrave" unicode="&#xcc;" horiz-adv-x="278" 
d="M328 729l-155 -729h-150l155 729h150zM340 786h-104l-132 135h172z" />
    <glyph glyph-name="Iacute" unicode="&#xcd;" horiz-adv-x="278" 
d="M328 729l-155 -729h-150l155 729h150zM484 921l-190 -135h-104l122 135h172z" />
    <glyph glyph-name="Icircumflex" unicode="&#xce;" horiz-adv-x="278" 
d="M328 729l-155 -729h-150l155 729h150zM456 788h-86l-82 53l-123 -53h-91l167 132h129z" />
    <glyph glyph-name="Idieresis" unicode="&#xcf;" horiz-adv-x="278" 
d="M328 729l-155 -729h-150l155 729h150zM233 797h-126l25 115h126zM428 797h-126l25 115h126z" />
    <glyph glyph-name="Eth" unicode="&#xd0;" horiz-adv-x="722" 
d="M736 479q0 -184 -112 -339q-55 -76 -124 -108t-178 -32h-285l73 341h-77l17 80h76l66 308h285q136 0 197.5 -59.5t61.5 -190.5zM587 469q0 135 -137 135h-135l-39 -183h174l-17 -80h-173l-46 -216h134q65 0 106 23.5t73 79.5q26 44 43 113t17 128z" />
    <glyph glyph-name="Ntilde" unicode="&#xd1;" horiz-adv-x="722" 
d="M776 729l-155 -729h-148l-192 523l-111 -523h-142l155 729h150l192 -515l109 515h142zM695 915q-17 -62 -52.5 -92t-80.5 -30q-32 0 -51 11l-50 25q-30 14 -44 14q-26 0 -51 -48h-54q17 56 48.5 86.5t72.5 30.5q31 0 71 -17l50 -21q25 -11 33 -10q33 0 54 51h54z" />
    <glyph glyph-name="Ograve" unicode="&#xd2;" horiz-adv-x="778" 
d="M788 455q0 -181 -122 -325q-64 -76 -138 -109t-171 -33q-134 0 -212 74t-78 205q0 86 32.5 171.5t91.5 155.5q123 147 307 147q137 0 213.5 -75.5t76.5 -210.5zM639 437q0 83 -42.5 129.5t-117.5 46.5q-110 0 -186.5 -96.5t-76.5 -228.5q0 -81 44.5 -126.5t120.5 -45.5
q109 0 183.5 93.5t74.5 227.5zM559 786h-104l-132 135h172z" />
    <glyph glyph-name="Oacute" unicode="&#xd3;" horiz-adv-x="778" 
d="M788 455q0 -181 -122 -325q-64 -76 -138 -109t-171 -33q-134 0 -212 74t-78 205q0 86 32.5 171.5t91.5 155.5q123 147 307 147q137 0 213.5 -75.5t76.5 -210.5zM639 437q0 83 -42.5 129.5t-117.5 46.5q-110 0 -186.5 -96.5t-76.5 -228.5q0 -81 44.5 -126.5t120.5 -45.5
q109 0 183.5 93.5t74.5 227.5zM749 921l-190 -135h-104l122 135h172z" />
    <glyph glyph-name="Ocircumflex" unicode="&#xd4;" horiz-adv-x="778" 
d="M788 455q0 -181 -122 -325q-64 -76 -138 -109t-171 -33q-134 0 -212 74t-78 205q0 86 32.5 171.5t91.5 155.5q123 147 307 147q137 0 213.5 -75.5t76.5 -210.5zM639 437q0 83 -42.5 129.5t-117.5 46.5q-110 0 -186.5 -96.5t-76.5 -228.5q0 -81 44.5 -126.5t120.5 -45.5
q109 0 183.5 93.5t74.5 227.5zM699 788h-86l-82 53l-123 -53h-91l167 132h129z" />
    <glyph glyph-name="Otilde" unicode="&#xd5;" horiz-adv-x="778" 
d="M788 455q0 -181 -122 -325q-64 -76 -138 -109t-171 -33q-134 0 -212 74t-78 205q0 86 32.5 171.5t91.5 155.5q123 147 307 147q137 0 213.5 -75.5t76.5 -210.5zM639 437q0 83 -42.5 129.5t-117.5 46.5q-110 0 -186.5 -96.5t-76.5 -228.5q0 -81 44.5 -126.5t120.5 -45.5
q109 0 183.5 93.5t74.5 227.5zM710 915q-17 -62 -52.5 -92t-80.5 -30q-32 0 -51 11l-50 25q-30 14 -44 14q-26 0 -51 -48h-54q17 56 48.5 86.5t72.5 30.5q31 0 71 -17l50 -21q25 -11 33 -10q33 0 54 51h54z" />
    <glyph glyph-name="Odieresis" unicode="&#xd6;" horiz-adv-x="778" 
d="M788 455q0 -181 -122 -325q-64 -76 -138 -109t-171 -33q-134 0 -212 74t-78 205q0 86 32.5 171.5t91.5 155.5q123 147 307 147q137 0 213.5 -75.5t76.5 -210.5zM639 437q0 83 -42.5 129.5t-117.5 46.5q-110 0 -186.5 -96.5t-76.5 -228.5q0 -81 44.5 -126.5t120.5 -45.5
q109 0 183.5 93.5t74.5 227.5zM475 797h-126l25 115h126zM670 797h-126l25 115h126z" />
    <glyph glyph-name="multiply" unicode="&#xd7;" horiz-adv-x="584" 
d="M505 121l-70 -70l-129 128l-129 -128l-70 70l128 129l-128 129l70 70l129 -128l129 128l70 -70l-128 -129z" />
    <glyph glyph-name="Oslash" unicode="&#xd8;" horiz-adv-x="778" 
d="M844 674l-85 -75q29 -63 29 -144q0 -181 -122 -325q-64 -76 -138 -109t-171 -33q-132 0 -210 73l-79 -70l-55 64l84 74q-30 62 -30 138q0 86 32.5 171.5t91.5 155.5q123 147 307 147q135 0 212 -74l79 71zM639 437q0 25 -5 52l-373 -328q45 -45 120 -45q109 0 183.5 93.5
t74.5 227.5zM596 567q-43 46 -117 46q-110 0 -186.5 -96.5t-76.5 -228.5q0 -25 5 -50z" />
    <glyph glyph-name="Ugrave" unicode="&#xd9;" horiz-adv-x="722" 
d="M666 246q-27 -125 -117.5 -191.5t-220.5 -66.5q-113 0 -180 51.5t-67 138.5q0 36 11 88l99 463h150l-103 -483q-5 -20 -5 -45q0 -40 32.5 -62.5t90.5 -22.5q68 0 107 31.5t53 98.5l103 483h150zM544 786h-104l-132 135h172z" />
    <glyph glyph-name="Uacute" unicode="&#xda;" horiz-adv-x="722" 
d="M666 246q-27 -125 -117.5 -191.5t-220.5 -66.5q-113 0 -180 51.5t-67 138.5q0 36 11 88l99 463h150l-103 -483q-5 -20 -5 -45q0 -40 32.5 -62.5t90.5 -22.5q68 0 107 31.5t53 98.5l103 483h150zM733 921l-190 -135h-104l122 135h172z" />
    <glyph glyph-name="Ucircumflex" unicode="&#xdb;" horiz-adv-x="722" 
d="M666 246q-27 -125 -117.5 -191.5t-220.5 -66.5q-113 0 -180 51.5t-67 138.5q0 36 11 88l99 463h150l-103 -483q-5 -20 -5 -45q0 -40 32.5 -62.5t90.5 -22.5q68 0 107 31.5t53 98.5l103 483h150zM683 788h-86l-82 53l-123 -53h-91l167 132h129z" />
    <glyph glyph-name="Udieresis" unicode="&#xdc;" horiz-adv-x="722" 
d="M666 246q-27 -125 -117.5 -191.5t-220.5 -66.5q-113 0 -180 51.5t-67 138.5q0 36 11 88l99 463h150l-103 -483q-5 -20 -5 -45q0 -40 32.5 -62.5t90.5 -22.5q68 0 107 31.5t53 98.5l103 483h150zM460 797h-126l25 115h126zM655 797h-126l25 115h126z" />
    <glyph glyph-name="Yacute" unicode="&#xdd;" horiz-adv-x="667" 
d="M765 729l-328 -459l-58 -270h-150l58 270l-145 459h167l82 -315l207 315h167zM713 921l-190 -135h-104l122 135h172z" />
    <glyph glyph-name="Thorn" unicode="&#xde;" horiz-adv-x="667" 
d="M681 440q0 -120 -81 -210t-197 -90h-187l-30 -140h-150l155 729h150l-26 -120h159q99 0 153 -47t54 -122zM532 405q0 35 -25 57t-65 22h-153l-47 -219h153q64 0 100.5 37.5t36.5 102.5z" />
    <glyph glyph-name="germandbls" unicode="&#xdf;" horiz-adv-x="611" 
d="M590 277q0 -120 -86 -210t-195 -90q-23 0 -68 7l24 112h14q79 0 123.5 45.5t44.5 109.5q0 98 -113 98h-15l20 95q62 0 97 31t35 77q0 31 -24 48t-65 17q-84 0 -101 -80l-114 -537h-140l119 558q17 78 89 124.5t177 46.5q91 0 146.5 -40.5t55.5 -106.5q0 -58 -33 -104.5
t-89 -66.5q47 -11 72.5 -46t25.5 -88z" />
    <glyph glyph-name="agrave" unicode="&#xe0;" 
d="M487 17l-4 -17h-153q-7 15 -7 27q0 14 4 34q-43 -39 -81.5 -54.5t-83.5 -15.5q-70 0 -110.5 34t-40.5 90q0 74 53.5 127.5t147.5 68.5l58 9q12 2 26.5 4t20 3t13.5 2.5t10.5 2t7 2t7 3l7.5 4.5q34 17 34 53q0 43 -73 43q-48 0 -73.5 -17t-38.5 -58h-131q21 98 84.5 142.5
t181.5 44.5q93 0 142.5 -32t49.5 -89q0 -18 -6 -45l-63 -300q-3 -12 -3 -21q0 -21 21 -45zM363 231l5 24q-14 -8 -18.5 -9t-28.5 -5l-66 -11q-101 -17 -101 -84q0 -43 75 -43q51 0 86 33.5t48 94.5zM407 598h-100l-93 154h156z" />
    <glyph glyph-name="aacute" unicode="&#xe1;" 
d="M487 17l-4 -17h-153q-7 15 -7 27q0 14 4 34q-43 -39 -81.5 -54.5t-83.5 -15.5q-70 0 -110.5 34t-40.5 90q0 74 53.5 127.5t147.5 68.5l58 9q12 2 26.5 4t20 3t13.5 2.5t10.5 2t7 2t7 3l7.5 4.5q34 17 34 53q0 43 -73 43q-48 0 -73.5 -17t-38.5 -58h-131q21 98 84.5 142.5
t181.5 44.5q93 0 142.5 -32t49.5 -89q0 -18 -6 -45l-63 -300q-3 -12 -3 -21q0 -21 21 -45zM363 231l5 24q-14 -8 -18.5 -9t-28.5 -5l-66 -11q-101 -17 -101 -84q0 -43 75 -43q51 0 86 33.5t48 94.5zM564 752l-158 -154h-100l102 154h156z" />
    <glyph glyph-name="acircumflex" unicode="&#xe2;" 
d="M487 17l-4 -17h-153q-7 15 -7 27q0 14 4 34q-43 -39 -81.5 -54.5t-83.5 -15.5q-70 0 -110.5 34t-40.5 90q0 74 53.5 127.5t147.5 68.5l58 9q12 2 26.5 4t20 3t13.5 2.5t10.5 2t7 2t7 3l7.5 4.5q34 17 34 53q0 43 -73 43q-48 0 -73.5 -17t-38.5 -58h-131q21 98 84.5 142.5
t181.5 44.5q93 0 142.5 -32t49.5 -89q0 -18 -6 -45l-63 -300q-3 -12 -3 -21q0 -21 21 -45zM363 231l5 24q-14 -8 -18.5 -9t-28.5 -5l-66 -11q-101 -17 -101 -84q0 -43 75 -43q51 0 86 33.5t48 94.5zM525 598h-88l-66 77l-98 -77h-86l140 154h127z" />
    <glyph glyph-name="atilde" unicode="&#xe3;" 
d="M487 17l-4 -17h-153q-7 15 -7 27q0 14 4 34q-43 -39 -81.5 -54.5t-83.5 -15.5q-70 0 -110.5 34t-40.5 90q0 74 53.5 127.5t147.5 68.5l58 9q12 2 26.5 4t20 3t13.5 2.5t10.5 2t7 2t7 3l7.5 4.5q34 17 34 53q0 43 -73 43q-48 0 -73.5 -17t-38.5 -58h-131q21 98 84.5 142.5
t181.5 44.5q93 0 142.5 -32t49.5 -89q0 -18 -6 -45l-63 -300q-3 -12 -3 -21q0 -21 21 -45zM363 231l5 24q-14 -8 -18.5 -9t-28.5 -5l-66 -11q-101 -17 -101 -84q0 -43 75 -43q51 0 86 33.5t48 94.5zM560 736q-17 -62 -52.5 -92t-80.5 -30q-32 0 -51 11l-50 25q-30 14 -44 14
q-26 0 -51 -48h-54q17 56 48.5 86.5t72.5 30.5q31 0 71 -17l50 -21q25 -11 33 -10q33 0 54 51h54z" />
    <glyph glyph-name="adieresis" unicode="&#xe4;" 
d="M487 17l-4 -17h-153q-7 15 -7 27q0 14 4 34q-43 -39 -81.5 -54.5t-83.5 -15.5q-70 0 -110.5 34t-40.5 90q0 74 53.5 127.5t147.5 68.5l58 9q12 2 26.5 4t20 3t13.5 2.5t10.5 2t7 2t7 3l7.5 4.5q34 17 34 53q0 43 -73 43q-48 0 -73.5 -17t-38.5 -58h-131q21 98 84.5 142.5
t181.5 44.5q93 0 142.5 -32t49.5 -89q0 -18 -6 -45l-63 -300q-3 -12 -3 -21q0 -21 21 -45zM363 231l5 24q-14 -8 -18.5 -9t-28.5 -5l-66 -11q-101 -17 -101 -84q0 -43 75 -43q51 0 86 33.5t48 94.5zM325 618h-126l25 115h126zM520 618h-126l25 115h126z" />
    <glyph glyph-name="aring" unicode="&#xe5;" 
d="M487 17l-4 -17h-153q-7 15 -7 27q0 14 4 34q-43 -39 -81.5 -54.5t-83.5 -15.5q-70 0 -110.5 34t-40.5 90q0 74 53.5 127.5t147.5 68.5l58 9q12 2 26.5 4t20 3t13.5 2.5t10.5 2t7 2t7 3l7.5 4.5q34 17 34 53q0 43 -73 43q-48 0 -73.5 -17t-38.5 -58h-131q21 98 84.5 142.5
t181.5 44.5q93 0 142.5 -32t49.5 -89q0 -18 -6 -45l-63 -300q-3 -12 -3 -21q0 -21 21 -45zM363 231l5 24q-14 -8 -18.5 -9t-28.5 -5l-66 -11q-101 -17 -101 -84q0 -43 75 -43q51 0 86 33.5t48 94.5zM473 696q0 -47 -37.5 -83.5t-85.5 -36.5q-34 0 -56.5 22t-22.5 56
q0 47 37.5 83.5t85.5 36.5q34 0 56.5 -22t22.5 -56zM419 685q0 15 -10 24.5t-26 9.5q-23 0 -40.5 -16t-17.5 -37q0 -15 10.5 -25t26.5 -10q22 0 39.5 16.5t17.5 37.5z" />
    <glyph glyph-name="ae" unicode="&#xe6;" horiz-adv-x="889" 
d="M869 226h-362q-7 -30 -7 -51q2 -29 30 -50.5t69 -21.5q35 0 66 15t45 34h138q-38 -71 -114.5 -116t-164.5 -45q-137 0 -181 100q-52 -56 -99.5 -78t-116.5 -22q-74 0 -115.5 31t-41.5 91q0 76 53.5 129.5t147.5 68.5l57 9q12 2 26.5 4t20 3t13.5 2.5t10.5 2t7 2t7.5 3
t8 4.5q34 17 34 53q0 43 -73 43q-48 0 -73.5 -17t-38.5 -58h-131q21 101 85.5 144t182.5 43q113 0 161 -49q73 49 165 49q94 0 151.5 -57t57.5 -141q0 -57 -18 -125zM367 230l5 24q-22 -11 -47 -13l-66 -11q-101 -17 -101 -84q0 -43 73 -43q52 0 87.5 33t48.5 94zM744 319
v27q0 43 -22 67t-63 24q-99 0 -131 -118h216z" />
    <glyph glyph-name="ccedilla" unicode="&#xe7;" 
d="M521 187q-56 -177 -228 -194l-30 -49h33q29 0 46.5 -19.5t17.5 -47.5q0 -49 -41 -78t-109 -29q-59 0 -133 29l30 51q51 -25 98 -25q29 0 48.5 10.5t19.5 28.5q0 16 -12.5 27.5t-31.5 11.5h-50l54 89q-93 6 -144 56.5t-51 130.5q0 71 27.5 146t72.5 129q78 95 220 95
q88 0 143.5 -48t55.5 -120q0 -11 -4 -43h-134q-1 58 -20 78.5t-62 20.5q-71 0 -113.5 -71.5t-42.5 -166.5q0 -51 22.5 -73.5t68.5 -22.5q43 0 68 16.5t47 67.5h134z" />
    <glyph glyph-name="egrave" unicode="&#xe8;" 
d="M534 233h-363q-1 -9 -1 -38q0 -41 26 -66.5t69 -25.5q34 0 64.5 15t44.5 34h138q-40 -74 -112.5 -117.5t-161.5 -43.5q-95 0 -154 54.5t-59 146.5q0 95 36.5 175t109.5 131t168 51q98 0 155 -56.5t57 -141.5q0 -54 -17 -118zM409 326v15q0 51 -22 73.5t-65 22.5
q-102 0 -133 -111h220zM416 598h-100l-93 154h156z" />
    <glyph glyph-name="eacute" unicode="&#xe9;" 
d="M534 233h-363q-1 -9 -1 -38q0 -41 26 -66.5t69 -25.5q34 0 64.5 15t44.5 34h138q-40 -74 -112.5 -117.5t-161.5 -43.5q-95 0 -154 54.5t-59 146.5q0 95 36.5 175t109.5 131t168 51q98 0 155 -56.5t57 -141.5q0 -54 -17 -118zM409 326v15q0 51 -22 73.5t-65 22.5
q-102 0 -133 -111h220zM573 752l-158 -154h-100l102 154h156z" />
    <glyph glyph-name="ecircumflex" unicode="&#xea;" 
d="M534 233h-363q-1 -9 -1 -38q0 -41 26 -66.5t69 -25.5q34 0 64.5 15t44.5 34h138q-40 -74 -112.5 -117.5t-161.5 -43.5q-95 0 -154 54.5t-59 146.5q0 95 36.5 175t109.5 131t168 51q98 0 155 -56.5t57 -141.5q0 -54 -17 -118zM409 326v15q0 51 -22 73.5t-65 22.5
q-102 0 -133 -111h220zM534 598h-88l-66 77l-98 -77h-86l140 154h127z" />
    <glyph glyph-name="edieresis" unicode="&#xeb;" 
d="M534 233h-363q-1 -9 -1 -38q0 -41 26 -66.5t69 -25.5q34 0 64.5 15t44.5 34h138q-40 -74 -112.5 -117.5t-161.5 -43.5q-95 0 -154 54.5t-59 146.5q0 95 36.5 175t109.5 131t168 51q98 0 155 -56.5t57 -141.5q0 -54 -17 -118zM409 326v15q0 51 -22 73.5t-65 22.5
q-102 0 -133 -111h220zM334 618h-126l25 115h126zM529 618h-126l25 115h126z" />
    <glyph glyph-name="igrave" unicode="&#xec;" horiz-adv-x="278" 
d="M282 540l-115 -540h-140l115 540h140zM295 598h-100l-93 154h156z" />
    <glyph glyph-name="iacute" unicode="&#xed;" horiz-adv-x="278" 
d="M282 540l-115 -540h-140l115 540h140zM413 752l-158 -154h-100l102 154h156z" />
    <glyph glyph-name="icircumflex" unicode="&#xee;" horiz-adv-x="278" 
d="M282 540l-115 -540h-140l115 540h140zM393 598h-88l-66 77l-98 -77h-86l140 154h127z" />
    <glyph glyph-name="idieresis" unicode="&#xef;" horiz-adv-x="278" 
d="M282 540l-115 -540h-140l115 540h140zM193 618h-126l25 115h126zM388 618h-126l25 115h126z" />
    <glyph glyph-name="eth" unicode="&#xf0;" horiz-adv-x="611" 
d="M593 345q0 -152 -89 -253t-236 -101q-104 0 -163 53.5t-59 147.5q-2 83 30.5 159.5t98 127.5t147.5 51q41 0 90 -27q-37 63 -97 106l-97 -45l-41 43l88 41l-70 46l70 50q7 -3 18 -7.5t15.5 -7t14 -7t20.5 -11.5t27 -18l104 45l43 -43l-93 -41q97 -72 138 -142.5
t41 -166.5zM451 326q0 52 -30 78.5t-74 26.5q-70 0 -113.5 -61t-43.5 -150q0 -60 27.5 -88.5t71.5 -28.5q71 0 116.5 61t45.5 162z" />
    <glyph glyph-name="ntilde" unicode="&#xf1;" horiz-adv-x="611" 
d="M583 362l-77 -362h-140l67 313q3 15 6 49q0 75 -74 75q-51 0 -87.5 -35.5t-49.5 -97.5l-65 -304h-140l115 540h140l-18 -82q41 48 83.5 69.5t98.5 21.5q67 0 107 -36t40 -96q0 -27 -6 -55zM597 736q-17 -62 -52.5 -92t-80.5 -30q-32 0 -51 11l-50 25q-30 14 -44 14
q-26 0 -51 -48h-54q17 56 48.5 86.5t72.5 30.5q31 0 71 -17l50 -21q25 -11 33 -10q33 0 54 51h54z" />
    <glyph glyph-name="ograve" unicode="&#xf2;" horiz-adv-x="611" 
d="M594 349q0 -159 -92 -258.5t-240 -99.5q-100 0 -159.5 51.5t-59.5 141.5q0 157 92.5 261t237.5 104q103 0 162 -53.5t59 -146.5zM451 320q0 53 -27 85t-73 32q-68 0 -116.5 -65t-48.5 -160q0 -52 27.5 -80.5t73.5 -28.5q69 0 116.5 63t47.5 154zM443 598h-100l-93 154
h156z" />
    <glyph glyph-name="oacute" unicode="&#xf3;" horiz-adv-x="611" 
d="M594 349q0 -159 -92 -258.5t-240 -99.5q-100 0 -159.5 51.5t-59.5 141.5q0 157 92.5 261t237.5 104q103 0 162 -53.5t59 -146.5zM451 320q0 53 -27 85t-73 32q-68 0 -116.5 -65t-48.5 -160q0 -52 27.5 -80.5t73.5 -28.5q69 0 116.5 63t47.5 154zM601 752l-158 -154h-100
l102 154h156z" />
    <glyph glyph-name="ocircumflex" unicode="&#xf4;" horiz-adv-x="611" 
d="M594 349q0 -159 -92 -258.5t-240 -99.5q-100 0 -159.5 51.5t-59.5 141.5q0 157 92.5 261t237.5 104q103 0 162 -53.5t59 -146.5zM451 320q0 53 -27 85t-73 32q-68 0 -116.5 -65t-48.5 -160q0 -52 27.5 -80.5t73.5 -28.5q69 0 116.5 63t47.5 154zM562 598h-88l-66 77
l-98 -77h-86l140 154h127z" />
    <glyph glyph-name="otilde" unicode="&#xf5;" horiz-adv-x="611" 
d="M594 349q0 -159 -92 -258.5t-240 -99.5q-100 0 -159.5 51.5t-59.5 141.5q0 157 92.5 261t237.5 104q103 0 162 -53.5t59 -146.5zM451 320q0 53 -27 85t-73 32q-68 0 -116.5 -65t-48.5 -160q0 -52 27.5 -80.5t73.5 -28.5q69 0 116.5 63t47.5 154zM597 736
q-17 -62 -52.5 -92t-80.5 -30q-32 0 -51 11l-50 25q-30 14 -44 14q-26 0 -51 -48h-54q17 56 48.5 86.5t72.5 30.5q31 0 71 -17l50 -21q25 -11 33 -10q33 0 54 51h54z" />
    <glyph glyph-name="odieresis" unicode="&#xf6;" horiz-adv-x="611" 
d="M594 349q0 -159 -92 -258.5t-240 -99.5q-100 0 -159.5 51.5t-59.5 141.5q0 157 92.5 261t237.5 104q103 0 162 -53.5t59 -146.5zM451 320q0 53 -27 85t-73 32q-68 0 -116.5 -65t-48.5 -160q0 -52 27.5 -80.5t73.5 -28.5q69 0 116.5 63t47.5 154zM362 618h-126l25 115h126
zM557 618h-126l25 115h126z" />
    <glyph glyph-name="divide" unicode="&#xf7;" horiz-adv-x="584" 
d="M538 200h-464v100h464v-100zM381 432q0 -31 -22 -53t-53 -22t-53 22t-22 53t22 53t53 22t53 -22t22 -53zM381 68q0 -31 -22 -53t-53 -22t-53 22t-22 53t22 53t53 22t53 -22t22 -53z" />
    <glyph glyph-name="oslash" unicode="&#xf8;" horiz-adv-x="611" 
d="M629 485l-53 -45q18 -40 18 -91q0 -159 -92 -258.5t-240 -99.5q-95 0 -155 47l-48 -41l-49 58l51 43q-18 41 -18 86q0 157 92.5 261t237.5 104q99 0 157 -49l50 43zM451 320v12l-236 -202q25 -27 72 -27q69 0 116.5 63t47.5 154zM422 407q-27 30 -71 30q-68 0 -116.5 -65
t-48.5 -160l1 -6z" />
    <glyph glyph-name="ugrave" unicode="&#xf9;" horiz-adv-x="611" 
d="M616 540l-115 -540h-140l16 75q-77 -84 -180 -84q-66 0 -106 36t-40 96q0 27 6 55l77 362h140l-67 -313q-4 -17 -6 -49q0 -75 76 -75q49 0 85 36t49 97l65 304h140zM443 598h-100l-93 154h156z" />
    <glyph glyph-name="uacute" unicode="&#xfa;" horiz-adv-x="611" 
d="M616 540l-115 -540h-140l16 75q-77 -84 -180 -84q-66 0 -106 36t-40 96q0 27 6 55l77 362h140l-67 -313q-4 -17 -6 -49q0 -75 76 -75q49 0 85 36t49 97l65 304h140zM601 752l-158 -154h-100l102 154h156z" />
    <glyph glyph-name="ucircumflex" unicode="&#xfb;" horiz-adv-x="611" 
d="M616 540l-115 -540h-140l16 75q-77 -84 -180 -84q-66 0 -106 36t-40 96q0 27 6 55l77 362h140l-67 -313q-4 -17 -6 -49q0 -75 76 -75q49 0 85 36t49 97l65 304h140zM562 598h-88l-66 77l-98 -77h-86l140 154h127z" />
    <glyph glyph-name="udieresis" unicode="&#xfc;" horiz-adv-x="611" 
d="M616 540l-115 -540h-140l16 75q-77 -84 -180 -84q-66 0 -106 36t-40 96q0 27 6 55l77 362h140l-67 -313q-4 -17 -6 -49q0 -75 76 -75q49 0 85 36t49 97l65 304h140zM362 618h-126l25 115h126zM557 618h-126l25 115h126z" />
    <glyph glyph-name="yacute" unicode="&#xfd;" 
d="M613 540l-358 -638q-42 -75 -86 -98t-128 -23q-27 0 -44 4l23 109q11 -2 28 -2q52 0 82.5 25t30.5 68l-77 555h154l36 -393l195 393h144zM573 752l-158 -154h-100l102 154h156z" />
    <glyph glyph-name="thorn" unicode="&#xfe;" horiz-adv-x="611" 
d="M597 343q2 -141 -84 -246.5t-206 -105.5q-102 0 -133 87l-63 -296h-140l201 947h140l-57 -269q69 89 169 89q79 0 126 -56t47 -150zM454 323q0 52 -24 83t-64 31q-65 0 -111 -64t-46 -157q0 -51 24 -82t64 -31q64 0 111.5 67.5t45.5 152.5z" />
    <glyph glyph-name="ydieresis" unicode="&#xff;" 
d="M613 540l-358 -638q-42 -75 -86 -98t-128 -23q-27 0 -44 4l23 109q11 -2 28 -2q52 0 82.5 25t30.5 68l-77 555h154l36 -393l195 393h144zM334 618h-126l25 115h126zM529 618h-126l25 115h126z" />
    <glyph glyph-name="Amacron" unicode="&#x100;" horiz-adv-x="722" 
d="M663 0h-153l-18 147h-272l-81 -147h-153l407 729h173zM478 272l-35 283l-154 -283h189zM645 814h-300l17 80h300z" />
    <glyph glyph-name="amacron" unicode="&#x101;" 
d="M487 17l-4 -17h-153q-7 15 -7 27q0 14 4 34q-43 -39 -81.5 -54.5t-83.5 -15.5q-70 0 -110.5 34t-40.5 90q0 74 53.5 127.5t147.5 68.5l58 9q12 2 26.5 4t20 3t13.5 2.5t10.5 2t7 2t7 3l7.5 4.5q34 17 34 53q0 43 -73 43q-48 0 -73.5 -17t-38.5 -58h-131q21 98 84.5 142.5
t181.5 44.5q93 0 142.5 -32t49.5 -89q0 -18 -6 -45l-63 -300q-3 -12 -3 -21q0 -21 21 -45zM363 231l5 24q-14 -8 -18.5 -9t-28.5 -5l-66 -11q-101 -17 -101 -84q0 -43 75 -43q51 0 86 33.5t48 94.5zM511 635h-300l17 80h300z" />
    <glyph glyph-name="Abreve" unicode="&#x102;" horiz-adv-x="722" 
d="M663 0h-153l-18 147h-272l-81 -147h-153l407 729h173zM478 272l-35 283l-154 -283h189zM677 919q-12 -56 -67 -92.5t-126 -36.5t-106.5 39t-13.5 90h51q-4 -24 8 -36t26.5 -13.5t48.5 -1.5h6q97 0 123 51h50z" />
    <glyph glyph-name="abreve" unicode="&#x103;" 
d="M487 17l-4 -17h-153q-7 15 -7 27q0 14 4 34q-43 -39 -81.5 -54.5t-83.5 -15.5q-70 0 -110.5 34t-40.5 90q0 74 53.5 127.5t147.5 68.5l58 9q12 2 26.5 4t20 3t13.5 2.5t10.5 2t7 2t7 3l7.5 4.5q34 17 34 53q0 43 -73 43q-48 0 -73.5 -17t-38.5 -58h-131q21 98 84.5 142.5
t181.5 44.5q93 0 142.5 -32t49.5 -89q0 -18 -6 -45l-63 -300q-3 -12 -3 -21q0 -21 21 -45zM363 231l5 24q-14 -8 -18.5 -9t-28.5 -5l-66 -11q-101 -17 -101 -84q0 -43 75 -43q51 0 86 33.5t48 94.5zM516 752q-11 -63 -58 -108t-105 -45q-46 0 -75 33t-29 81q0 17 6 39h42v-8
q0 -27 19.5 -42t54.5 -15q77 0 103 65h42z" />
    <glyph glyph-name="Aogonek" unicode="&#x104;" horiz-adv-x="722" 
d="M614 -230h-67q-128 0 -128 80q0 43 25 83.5t66 66.5l-18 147h-272l-81 -147h-153l407 729h173l97 -729q-62 0 -116 -52q-28 -28 -28 -52q0 -36 47 -36h63zM478 272l-35 283l-154 -283h189z" />
    <glyph glyph-name="aogonek" unicode="&#x105;" 
d="M434 -230h-67q-128 0 -128 80q0 43 25 83.5t66 66.5q-7 15 -7 27q0 14 4 34q-43 -39 -81.5 -54.5t-83.5 -15.5q-70 0 -110.5 34t-40.5 90q0 74 53.5 127.5t147.5 68.5l58 9q12 2 26.5 4t20 3t13.5 2.5t10.5 2t7 2t7 3l7.5 4.5q34 17 34 53q0 43 -73 43q-48 0 -73.5 -17
t-38.5 -58h-131q21 98 84.5 142.5t181.5 44.5q93 0 142.5 -32t49.5 -89q0 -18 -6 -45l-63 -300q-3 -12 -3 -21q0 -21 21 -45l-4 -17q-56 -2 -104 -42q-40 -34 -40 -62q0 -36 47 -36h63zM363 231l5 24q-14 -8 -18.5 -9t-28.5 -5l-66 -11q-101 -17 -101 -84q0 -43 75 -43
q51 0 86 33.5t48 94.5z" />
    <glyph glyph-name="Cacute" unicode="&#x106;" horiz-adv-x="722" 
d="M702 249q-33 -127 -126.5 -194t-231.5 -67q-129 0 -202.5 67t-73.5 186q0 215 123 357.5t302 142.5q116 0 188 -58t72 -151q0 -13 -4 -50h-141q0 131 -132 131q-120 0 -189 -109q-70 -109 -70 -234q0 -154 148 -154q152 0 194 133h143zM744 921l-190 -135h-104l122 135
h172z" />
    <glyph glyph-name="cacute" unicode="&#x107;" 
d="M521 187q-61 -196 -266 -196q-103 0 -160 51.5t-57 136.5q0 71 27.5 146t72.5 129q78 95 220 95q88 0 143.5 -48t55.5 -120q0 -11 -4 -43h-134q-1 58 -20 78.5t-62 20.5q-71 0 -113.5 -71.5t-42.5 -166.5q0 -51 22.5 -73.5t68.5 -22.5q43 0 68 16.5t47 67.5h134zM573 752
l-158 -154h-100l102 154h156z" />
    <glyph glyph-name="Ccircumflex" unicode="&#x108;" horiz-adv-x="722" 
d="M702 249q-33 -127 -126.5 -194t-231.5 -67q-129 0 -202.5 67t-73.5 186q0 215 123 357.5t302 142.5q116 0 188 -58t72 -151q0 -13 -4 -50h-141q0 131 -132 131q-120 0 -189 -109q-70 -109 -70 -234q0 -154 148 -154q152 0 194 133h143zM694 788h-86l-82 53l-123 -53h-91
l167 132h129z" />
    <glyph glyph-name="ccircumflex" unicode="&#x109;" 
d="M521 187q-61 -196 -266 -196q-103 0 -160 51.5t-57 136.5q0 71 27.5 146t72.5 129q78 95 220 95q88 0 143.5 -48t55.5 -120q0 -11 -4 -43h-134q-1 58 -20 78.5t-62 20.5q-71 0 -113.5 -71.5t-42.5 -166.5q0 -51 22.5 -73.5t68.5 -22.5q43 0 68 16.5t47 67.5h134zM534 598
h-88l-66 77l-98 -77h-86l140 154h127z" />
    <glyph glyph-name="Cdotaccent" unicode="&#x10a;" horiz-adv-x="722" 
d="M702 249q-33 -127 -126.5 -194t-231.5 -67q-129 0 -202.5 67t-73.5 186q0 215 123 357.5t302 142.5q116 0 188 -58t72 -151q0 -13 -4 -50h-141q0 131 -132 131q-120 0 -189 -109q-70 -109 -70 -234q0 -154 148 -154q152 0 194 133h143zM574 789h-140l27 131h140z" />
    <glyph glyph-name="cdotaccent" unicode="&#x10b;" 
d="M521 187q-61 -196 -266 -196q-103 0 -160 51.5t-57 136.5q0 71 27.5 146t72.5 129q78 95 220 95q88 0 143.5 -48t55.5 -120q0 -11 -4 -43h-134q-1 58 -20 78.5t-62 20.5q-71 0 -113.5 -71.5t-42.5 -166.5q0 -51 22.5 -73.5t68.5 -22.5q43 0 68 16.5t47 67.5h134zM438 610
h-140l27 131h140z" />
    <glyph glyph-name="Ccaron" unicode="&#x10c;" horiz-adv-x="722" 
d="M702 249q-33 -127 -126.5 -194t-231.5 -67q-129 0 -202.5 67t-73.5 186q0 215 123 357.5t302 142.5q116 0 188 -58t72 -151q0 -13 -4 -50h-141q0 131 -132 131q-120 0 -189 -109q-70 -109 -70 -234q0 -154 148 -154q152 0 194 133h143zM722 920l-167 -132h-129l-86 132
h86l82 -53l123 53h91z" />
    <glyph glyph-name="ccaron" unicode="&#x10d;" 
d="M521 187q-61 -196 -266 -196q-103 0 -160 51.5t-57 136.5q0 71 27.5 146t72.5 129q78 95 220 95q88 0 143.5 -48t55.5 -120q0 -11 -4 -43h-134q-1 58 -20 78.5t-62 20.5q-71 0 -113.5 -71.5t-42.5 -166.5q0 -51 22.5 -73.5t68.5 -22.5q43 0 68 16.5t47 67.5h134zM566 752
l-140 -154h-127l-71 154h88l66 -77l98 77h86z" />
    <glyph glyph-name="Dcaron" unicode="&#x10e;" horiz-adv-x="722" 
d="M736 479q0 -184 -112 -339q-55 -76 -124 -108t-178 -32h-285l155 729h285q136 0 197.5 -59.5t61.5 -190.5zM587 469q0 135 -137 135h-135l-101 -479h134q65 0 106 23.5t73 79.5q26 44 43 113t17 128zM708 920l-167 -132h-129l-86 132h86l82 -53l123 53h91z" />
    <glyph glyph-name="dcaron" unicode="&#x10f;" horiz-adv-x="611" 
d="M660 729l-155 -729h-140l13 62q-68 -71 -164 -71q-79 0 -126.5 54t-47.5 147q0 137 85 247t207 110q99 0 133 -79l55 259h140zM428 323q0 52 -23.5 83t-64.5 31q-63 0 -110 -67t-47 -157q0 -53 24 -81.5t65 -28.5q65 0 110.5 63.5t45.5 156.5zM842 729l-21 -96
q-8 -59 -52 -103t-101 -48l10 46q33 6 57 30.5t28 58.5h-67l24 112h122z" />
    <glyph glyph-name="Dcroat" unicode="&#x110;" horiz-adv-x="722" 
d="M736 479q0 -184 -112 -339q-55 -76 -124 -108t-178 -32h-285l73 341h-77l17 80h76l66 308h285q136 0 197.5 -59.5t61.5 -190.5zM587 469q0 135 -137 135h-135l-39 -183h174l-17 -80h-173l-46 -216h134q65 0 106 23.5t73 79.5q26 44 43 113t17 128z" />
    <glyph glyph-name="dcroat" unicode="&#x111;" horiz-adv-x="611" 
d="M692 596h-60l-127 -596h-140l15 69q-68 -78 -166 -78q-79 0 -126.5 54t-47.5 147q0 124 77 236q40 56 97 88.5t118 32.5q99 0 133 -79l27 126h-140l14 67h140l14 66h140l-14 -66h60zM428 323q0 52 -24 83t-64 31q-63 0 -110 -67t-47 -157q0 -53 24 -81.5t65 -28.5
q65 0 110.5 63.5t45.5 156.5z" />
    <glyph glyph-name="Emacron" unicode="&#x112;" horiz-adv-x="667" 
d="M611 125l-27 -125h-545l155 729h528l-27 -125h-378l-35 -165h349l-26 -125h-349l-40 -189h395zM623 814h-300l17 80h300z" />
    <glyph glyph-name="emacron" unicode="&#x113;" 
d="M534 233h-363q-1 -9 -1 -38q0 -41 26 -66.5t69 -25.5q34 0 64.5 15t44.5 34h138q-40 -74 -112.5 -117.5t-161.5 -43.5q-95 0 -154 54.5t-59 146.5q0 95 36.5 175t109.5 131t168 51q98 0 155 -56.5t57 -141.5q0 -54 -17 -118zM409 326v15q0 51 -22 73.5t-65 22.5
q-102 0 -133 -111h220zM520 635h-300l17 80h300z" />
    <glyph glyph-name="Ebreve" unicode="&#x114;" horiz-adv-x="667" 
d="M611 125l-27 -125h-545l155 729h528l-27 -125h-378l-35 -165h349l-26 -125h-349l-40 -189h395zM655 919q-12 -56 -67 -92.5t-126 -36.5t-106.5 39t-13.5 90h51q-4 -24 8 -36t26.5 -13.5t48.5 -1.5h6q97 0 123 51h50z" />
    <glyph glyph-name="ebreve" unicode="&#x115;" 
d="M534 233h-363q-1 -9 -1 -38q0 -41 26 -66.5t69 -25.5q34 0 64.5 15t44.5 34h138q-40 -74 -112.5 -117.5t-161.5 -43.5q-95 0 -154 54.5t-59 146.5q0 95 36.5 175t109.5 131t168 51q98 0 155 -56.5t57 -141.5q0 -54 -17 -118zM409 326v15q0 51 -22 73.5t-65 22.5
q-102 0 -133 -111h220zM525 752q-11 -63 -58 -108t-105 -45q-46 0 -75 33t-29 81q0 17 6 39h42v-8q0 -27 19.5 -42t54.5 -15q77 0 103 65h42z" />
    <glyph glyph-name="Edotaccent" unicode="&#x116;" horiz-adv-x="667" 
d="M611 125l-27 -125h-545l155 729h528l-27 -125h-378l-35 -165h349l-26 -125h-349l-40 -189h395zM542 789h-140l27 131h140z" />
    <glyph glyph-name="edotaccent" unicode="&#x117;" 
d="M534 233h-363q-1 -9 -1 -38q0 -41 26 -66.5t69 -25.5q34 0 64.5 15t44.5 34h138q-40 -74 -112.5 -117.5t-161.5 -43.5q-95 0 -154 54.5t-59 146.5q0 95 36.5 175t109.5 131t168 51q98 0 155 -56.5t57 -141.5q0 -54 -17 -118zM409 326v15q0 51 -22 73.5t-65 22.5
q-102 0 -133 -111h220zM438 610h-140l27 131h140z" />
    <glyph glyph-name="Eogonek" unicode="&#x118;" horiz-adv-x="667" 
d="M536 -230h-67q-128 0 -128 80q0 81 108 150h-410l155 729h528l-27 -125h-378l-35 -165h349l-26 -125h-349l-40 -189h395l-27 -125q-61 0 -115 -52q-28 -28 -28 -52q0 -36 47 -36h63z" />
    <glyph glyph-name="eogonek" unicode="&#x119;" 
d="M534 233h-363q-1 -9 -1 -38q0 -41 26 -66.5t69 -25.5q34 0 64.5 15t44.5 34h138q-49 -91 -140 -132q-48 -23 -80 -55t-32 -69q0 -36 47 -36h63l-15 -90h-67q-128 0 -128 80q0 76 95 141h-17q-95 0 -154 54.5t-59 146.5q0 95 36.5 175t109.5 131t168 51q98 0 155 -56.5
t57 -141.5q0 -54 -17 -118zM409 326v15q0 51 -22 73.5t-65 22.5q-102 0 -133 -111h220z" />
    <glyph glyph-name="Ecaron" unicode="&#x11a;" horiz-adv-x="667" 
d="M611 125l-27 -125h-545l155 729h528l-27 -125h-378l-35 -165h349l-26 -125h-349l-40 -189h395zM690 920l-167 -132h-129l-86 132h86l82 -53l123 53h91z" />
    <glyph glyph-name="ecaron" unicode="&#x11b;" 
d="M534 233h-363q-1 -9 -1 -38q0 -41 26 -66.5t69 -25.5q34 0 64.5 15t44.5 34h138q-40 -74 -112.5 -117.5t-161.5 -43.5q-95 0 -154 54.5t-59 146.5q0 95 36.5 175t109.5 131t168 51q98 0 155 -56.5t57 -141.5q0 -54 -17 -118zM409 326v15q0 51 -22 73.5t-65 22.5
q-102 0 -133 -111h220zM566 752l-140 -154h-127l-71 154h88l66 -77l98 77h86z" />
    <glyph glyph-name="Gcircumflex" unicode="&#x11c;" horiz-adv-x="778" 
d="M755 392l-84 -392h-90l8 94q-55 -58 -108 -82t-124 -24q-133 0 -211 75t-78 205q0 122 57 230.5t159 175.5t223 67q122 0 197 -58.5t75 -153.5q0 -5 -2 -33h-138q-6 56 -47.5 86.5t-112.5 30.5q-114 0 -188 -93t-74 -230q0 -77 48.5 -125.5t122.5 -48.5q72 0 131.5 38.5
t82.5 112.5h-166l27 125h292zM708 788h-86l-82 53l-123 -53h-91l167 132h129z" />
    <glyph glyph-name="gcircumflex" unicode="&#x11d;" horiz-adv-x="611" 
d="M616 540l-119 -558q-20 -96 -98.5 -148t-203.5 -52q-98 0 -153.5 32.5t-55.5 89.5q0 13 3 31h144l-1 -12q0 -22 24.5 -36.5t61.5 -14.5q55 0 95 30.5t51 79.5l17 80q-47 -40 -82.5 -55.5t-81.5 -15.5q-77 0 -127 50.5t-50 132.5q0 97 38.5 183t107.5 139t152 53
q87 0 127 -92l18 83h133zM431 315q0 56 -25 89t-67 33q-62 0 -109 -68.5t-47 -160.5q0 -51 23 -78t63 -27q67 0 114.5 60.5t47.5 151.5zM562 598h-88l-66 77l-98 -77h-86l140 154h127z" />
    <glyph glyph-name="Gbreve" unicode="&#x11e;" horiz-adv-x="778" 
d="M755 392l-84 -392h-90l8 94q-55 -58 -108 -82t-124 -24q-133 0 -211 75t-78 205q0 122 57 230.5t159 175.5t223 67q122 0 197 -58.5t75 -153.5q0 -5 -2 -33h-138q-6 56 -47.5 86.5t-112.5 30.5q-114 0 -188 -93t-74 -230q0 -77 48.5 -125.5t122.5 -48.5q72 0 131.5 38.5
t82.5 112.5h-166l27 125h292zM702 919q-12 -56 -67 -92.5t-126 -36.5t-106.5 39t-13.5 90h51q-2 -15 1.5 -25t9 -15t19 -7.5t23 -3t30.5 -0.5h6q97 0 123 51h50z" />
    <glyph glyph-name="gbreve" unicode="&#x11f;" horiz-adv-x="611" 
d="M616 540l-119 -558q-20 -96 -98.5 -148t-203.5 -52q-98 0 -153.5 32.5t-55.5 89.5q0 13 3 31h144l-1 -12q0 -22 24.5 -36.5t61.5 -14.5q55 0 95 30.5t51 79.5l17 80q-47 -40 -82.5 -55.5t-81.5 -15.5q-77 0 -127 50.5t-50 132.5q0 97 38.5 183t107.5 139t152 53
q87 0 127 -92l18 83h133zM431 315q0 56 -25 89t-67 33q-62 0 -109 -68.5t-47 -160.5q0 -51 23 -78t63 -27q67 0 114.5 60.5t47.5 151.5zM553 752q-11 -63 -58 -108t-105 -45q-46 0 -75 33t-29 81q0 17 6 39h42v-8q0 -27 19.5 -42t54.5 -15q77 0 103 65h42z" />
    <glyph glyph-name="Gdotaccent" unicode="&#x120;" horiz-adv-x="778" 
d="M755 392l-84 -392h-90l8 94q-55 -58 -108 -82t-124 -24q-133 0 -211 75t-78 205q0 122 57 230.5t159 175.5t223 67q122 0 197 -58.5t75 -153.5q0 -5 -2 -33h-138q-6 56 -47.5 86.5t-112.5 30.5q-114 0 -188 -93t-74 -230q0 -77 48.5 -125.5t122.5 -48.5q72 0 131.5 38.5
t82.5 112.5h-166l27 125h292zM588 789h-140l27 131h140z" />
    <glyph glyph-name="gdotaccent" unicode="&#x121;" horiz-adv-x="611" 
d="M616 540l-119 -558q-20 -96 -98.5 -148t-203.5 -52q-98 0 -153.5 32.5t-55.5 89.5q0 13 3 31h144l-1 -12q0 -22 24.5 -36.5t61.5 -14.5q55 0 95 30.5t51 79.5l17 80q-47 -40 -82.5 -55.5t-81.5 -15.5q-77 0 -127 50.5t-50 132.5q0 97 38.5 183t107.5 139t152 53
q87 0 127 -92l18 83h133zM431 315q0 56 -25 89t-67 33q-62 0 -109 -68.5t-47 -160.5q0 -51 23 -78t63 -27q67 0 114.5 60.5t47.5 151.5zM466 610h-140l27 131h140z" />
    <glyph glyph-name="Gcommaaccent" unicode="&#x122;" horiz-adv-x="778" 
d="M755 392l-84 -392h-90l8 94q-55 -58 -108 -82t-124 -24q-133 0 -211 75t-78 205q0 122 57 230.5t159 175.5t223 67q122 0 197 -58.5t75 -153.5q0 -5 -2 -33h-138q-6 56 -47.5 86.5t-112.5 30.5q-114 0 -188 -93t-74 -230q0 -77 48.5 -125.5t122.5 -48.5q72 0 131.5 38.5
t82.5 112.5h-166l27 125h292zM395 -60l-21 -96q-8 -59 -52 -103t-101 -48l10 46q33 6 57 30.5t28 58.5h-67l24 112h122z" />
    <glyph glyph-name="gcommaaccent" unicode="&#x123;" horiz-adv-x="611" 
d="M475 694l-24 -112h-122l21 96q8 59 52 103t101 48l-10 -46q-33 -6 -57 -30.5t-28 -58.5h67zM616 540l-119 -558q-20 -96 -98.5 -148t-203.5 -52q-98 0 -153.5 32.5t-55.5 89.5q0 13 3 31h144l-1 -12q0 -22 24.5 -36.5t61.5 -14.5q55 0 95 30.5t51 79.5l17 80
q-47 -40 -82.5 -55.5t-81.5 -15.5q-77 0 -127 50.5t-50 132.5q0 97 38.5 183t107.5 139t152 53q87 0 127 -92l18 83h133zM431 315q0 56 -25 89t-67 33q-62 0 -109 -68.5t-47 -160.5q0 -51 23 -78t63 -27q67 0 114.5 60.5t47.5 151.5z" />
    <glyph glyph-name="Hcircumflex" unicode="&#x124;" horiz-adv-x="722" 
d="M772 729l-155 -729h-150l70 331h-289l-70 -331h-150l155 729h150l-58 -273h288l58 273h151zM681 788h-86l-82 53l-123 -53h-91l167 132h129z" />
    <glyph glyph-name="hcircumflex" unicode="&#x125;" horiz-adv-x="611" 
d="M583 362l-77 -362h-140l67 313q4 20 6 48q0 76 -73 76q-48 0 -84.5 -36t-49.5 -97l-65 -304h-140l155 729h140l-58 -271q77 91 180 91q65 0 105 -36.5t40 -95.5q0 -27 -6 -55zM624 788h-86l-82 53l-123 -53h-91l167 132h129z" />
    <glyph glyph-name="Hbar" unicode="&#x126;" horiz-adv-x="722" 
d="M809 549h-75l-117 -549h-150l70 331h-289l-70 -331h-150l117 549h-75l14 68h75l24 112h150l-24 -112h288l24 112h151l-24 -112h75zM563 456l20 93h-288l-20 -93h288z" />
    <glyph glyph-name="hbar" unicode="&#x127;" horiz-adv-x="669" 
d="M646 362l-77 -362h-140l67 313q4 20 6 48q0 76 -73 76q-48 0 -84.5 -36t-49.5 -97l-65 -304h-140l112 526l-75 -22l15 72l75 21l28 132h140l-19 -89l105 30l-15 -71l-105 -31l-24 -110q77 91 180 91q65 0 105 -36.5t40 -95.5q0 -27 -6 -55z" />
    <glyph glyph-name="Itilde" unicode="&#x128;" horiz-adv-x="278" 
d="M328 729l-155 -729h-150l155 729h150zM468 915q-17 -62 -52.5 -92t-80.5 -30q-32 0 -51 11l-50 25q-30 14 -44 14q-26 0 -51 -48h-54q17 56 48.5 86.5t72.5 30.5q31 0 71 -17l50 -21q25 -11 33 -10q33 0 54 51h54z" />
    <glyph glyph-name="itilde" unicode="&#x129;" horiz-adv-x="278" 
d="M282 540l-115 -540h-140l115 540h140zM428 736q-17 -62 -52.5 -92t-80.5 -30q-32 0 -51 11l-50 25q-30 14 -44 14q-26 0 -51 -48h-54q17 56 48.5 86.5t72.5 30.5q31 0 71 -17l50 -21q25 -11 33 -10q33 0 54 51h54z" />
    <glyph glyph-name="Imacron" unicode="&#x12a;" horiz-adv-x="278" 
d="M328 729l-155 -729h-150l155 729h150zM418 814h-300l17 80h300z" />
    <glyph glyph-name="imacron" unicode="&#x12b;" horiz-adv-x="278" 
d="M282 540l-115 -540h-140l115 540h140zM379 635h-300l17 80h300z" />
    <glyph glyph-name="Ibreve" unicode="&#x12c;" horiz-adv-x="278" 
d="M328 729l-155 -729h-150l155 729h150zM450 919q-12 -56 -67 -92.5t-126 -36.5t-106.5 39t-13.5 90h51q-4 -24 8 -36t26.5 -13.5t48.5 -1.5h6q97 0 123 51h50z" />
    <glyph glyph-name="ibreve" unicode="&#x12d;" horiz-adv-x="278" 
d="M282 540l-115 -540h-140l115 540h140zM384 752q-11 -63 -58 -108t-105 -45q-46 0 -75 33t-29 81q0 17 6 39h42v-8q0 -27 19.5 -42t54.5 -15q77 0 103 65h42z" />
    <glyph glyph-name="Iogonek" unicode="&#x12e;" horiz-adv-x="278" 
d="M144 -230h-67q-128 0 -128 80q0 81 108 150h-34l155 729h150l-155 -729q-53 -11 -96 -52q-28 -28 -28 -52q0 -36 47 -36h63z" />
    <glyph glyph-name="iogonek" unicode="&#x12f;" horiz-adv-x="278" 
d="M148 -230h-67q-128 0 -128 80q0 81 108 150h-34l115 540h140l-115 -540q-49 -16 -85 -52q-29 -29 -29 -52q0 -36 47 -36h63zM299 610h-140l27 131h140z" />
    <glyph glyph-name="Idotaccent" unicode="&#x130;" horiz-adv-x="278" 
d="M328 729l-155 -729h-150l155 729h150zM337 789h-140l27 131h140z" />
    <glyph glyph-name="dotlessi" unicode="&#x131;" horiz-adv-x="278" 
d="M282 540l-115 -540h-140l115 540h140z" />
    <glyph glyph-name="Jcircumflex" unicode="&#x134;" 
d="M601 729l-113 -528q-45 -213 -279 -213q-88 0 -138 41.5t-50 114.5q0 34 7 65l13 61h150l-14 -66q-4 -17 -4 -34q0 -24 18.5 -39t47.5 -15q80 0 99 85l113 528h150zM729 788h-86l-82 53l-123 -53h-91l167 132h129z" />
    <glyph glyph-name="jcircumflex" unicode="&#x135;" horiz-adv-x="278" 
d="M285 540l-135 -634q-14 -65 -58.5 -94.5t-129.5 -29.5q-28 0 -45 5l24 111q5 -4 25 -4q23 0 34.5 10t16.5 34l128 602h140zM396 598h-88l-66 77l-98 -77h-86l140 154h127z" />
    <glyph glyph-name="Kcommaaccent" unicode="&#x136;" horiz-adv-x="722" 
d="M677 0h-179l-173 314l-91 -80l-50 -234h-150l155 729h150l-68 -320l354 320h178l-361 -319zM353 -60l-21 -96q-8 -59 -52 -103t-101 -48l10 46q33 6 57 30.5t28 58.5h-67l24 112h122z" />
    <glyph glyph-name="kcommaaccent" unicode="&#x137;" 
d="M508 0h-164l-79 239l-68 -62l-38 -177h-140l155 729h140l-85 -399l223 210h159l-232 -206zM284 -60l-21 -96q-8 -59 -52 -103t-101 -48l10 46q33 6 57 30.5t28 58.5h-67l24 112h122z" />
    <glyph glyph-name="Lacute" unicode="&#x139;" horiz-adv-x="611" 
d="M566 125l-27 -125h-499l155 729h150l-128 -604h349zM501 921l-190 -135h-104l122 135h172z" />
    <glyph glyph-name="lacute" unicode="&#x13a;" horiz-adv-x="278" 
d="M322 729l-155 -729h-140l155 729h140zM488 921l-190 -135h-104l122 135h172z" />
    <glyph glyph-name="Lcommaaccent" unicode="&#x13b;" horiz-adv-x="611" 
d="M566 125l-27 -125h-499l155 729h150l-128 -604h349zM336 -60l-21 -96q-8 -59 -52 -103t-101 -48l10 46q33 6 57 30.5t28 58.5h-67l24 112h122z" />
    <glyph glyph-name="lcommaaccent" unicode="&#x13c;" horiz-adv-x="278" 
d="M322 729l-155 -729h-140l155 729h140zM145 -60l-21 -96q-8 -59 -52 -103t-101 -48l10 46q33 6 57 30.5t28 58.5h-67l24 112h122z" />
    <glyph glyph-name="Lcaron" unicode="&#x13d;" horiz-adv-x="611" 
d="M566 125l-27 -125h-499l155 729h150l-128 -604h349zM527 729l-21 -96q-8 -59 -52 -103t-101 -48l10 46q33 6 57 30.5t28 58.5h-67l24 112h122z" />
    <glyph glyph-name="lcaron" unicode="&#x13e;" horiz-adv-x="278" 
d="M322 729l-155 -729h-140l155 729h140zM504 729l-21 -96q-8 -59 -52 -103t-101 -48l10 46q33 6 57 30.5t28 58.5h-67l24 112h122z" />
    <glyph glyph-name="Ldot" unicode="&#x13f;" horiz-adv-x="611" 
d="M566 125l-27 -125h-499l155 729h150l-128 -604h349zM557 309h-140l27 131h140z" />
    <glyph glyph-name="ldot" unicode="&#x140;" horiz-adv-x="401" 
d="M322 729l-155 -729h-140l155 729h140zM433 309h-140l27 131h140z" />
    <glyph glyph-name="Lslash" unicode="&#x141;" horiz-adv-x="716" 
d="M636 125l-27 -125h-499l46 217l-131 -70l29 133l131 71l80 378h150l-63 -297l237 128l-28 -134l-237 -127l-37 -174h349z" />
    <glyph glyph-name="lslash" unicode="&#x142;" horiz-adv-x="418" 
d="M448 464l-130 -82l-81 -382h-140l57 269l-121 -77l26 123l121 77l72 337h140l-48 -224l130 82z" />
    <glyph glyph-name="Nacute" unicode="&#x143;" horiz-adv-x="722" 
d="M776 729l-155 -729h-148l-192 523l-111 -523h-142l155 729h150l192 -515l109 515h142zM733 921l-190 -135h-104l122 135h172z" />
    <glyph glyph-name="nacute" unicode="&#x144;" horiz-adv-x="611" 
d="M583 362l-77 -362h-140l67 313q3 15 6 49q0 75 -74 75q-51 0 -87.5 -35.5t-49.5 -97.5l-65 -304h-140l115 540h140l-18 -82q41 48 83.5 69.5t98.5 21.5q67 0 107 -36t40 -96q0 -27 -6 -55zM601 752l-158 -154h-100l102 154h156z" />
    <glyph glyph-name="Ncommaaccent" unicode="&#x145;" horiz-adv-x="722" 
d="M776 729l-155 -729h-148l-192 523l-111 -523h-142l155 729h150l192 -515l109 515h142zM371 -60l-21 -96q-8 -59 -52 -103t-101 -48l10 46q33 6 57 30.5t28 58.5h-67l24 112h122z" />
    <glyph glyph-name="ncommaaccent" unicode="&#x146;" horiz-adv-x="611" 
d="M583 362l-77 -362h-140l67 313q3 15 6 49q0 75 -74 75q-51 0 -87.5 -35.5t-49.5 -97.5l-65 -304h-140l115 540h140l-18 -82q41 48 83.5 69.5t98.5 21.5q67 0 107 -36t40 -96q0 -27 -6 -55zM312 -60l-21 -96q-8 -59 -52 -103t-101 -48l10 46q33 6 57 30.5t28 58.5h-67
l24 112h122z" />
    <glyph glyph-name="Ncaron" unicode="&#x147;" horiz-adv-x="722" 
d="M776 729l-155 -729h-148l-192 523l-111 -523h-142l155 729h150l192 -515l109 515h142zM712 920l-167 -132h-129l-86 132h86l82 -53l123 53h91z" />
    <glyph glyph-name="ncaron" unicode="&#x148;" horiz-adv-x="611" 
d="M583 362l-77 -362h-140l67 313q3 15 6 49q0 75 -74 75q-51 0 -87.5 -35.5t-49.5 -97.5l-65 -304h-140l115 540h140l-18 -82q41 48 83.5 69.5t98.5 21.5q67 0 107 -36t40 -96q0 -27 -6 -55zM594 752l-140 -154h-127l-71 154h88l66 -77l98 77h86z" />
    <glyph glyph-name="Eng" unicode="&#x14a;" horiz-adv-x="722" 
d="M776 729l-163 -769q-45 -213 -279 -213q-88 0 -138 41.5t-50 114.5l152 26q0 -24 18.5 -39t47.5 -15q37 0 66 14t35 41l12 58l-196 535l-111 -523h-142l155 729h150l192 -515l109 515h142z" />
    <glyph glyph-name="eng" unicode="&#x14b;" horiz-adv-x="611" 
d="M486 -94q-14 -65 -58.5 -94.5t-129.5 -29.5q-28 0 -45 5l24 111q5 -4 25 -4q23 0 34.5 10t16.5 34l80 375q3 15 6 49q0 75 -74 75q-51 0 -87.5 -35.5t-49.5 -97.5l-65 -304h-140l115 540h140l-18 -82q41 48 83.5 69.5t98.5 21.5q67 0 107 -36t40 -96q0 -27 -6 -55z" />
    <glyph glyph-name="Omacron" unicode="&#x14c;" horiz-adv-x="778" 
d="M788 455q0 -181 -122 -325q-64 -76 -138 -109t-171 -33q-134 0 -212 74t-78 205q0 86 32.5 171.5t91.5 155.5q123 147 307 147q137 0 213.5 -75.5t76.5 -210.5zM639 437q0 83 -42.5 129.5t-117.5 46.5q-110 0 -186.5 -96.5t-76.5 -228.5q0 -81 44.5 -126.5t120.5 -45.5
q109 0 183.5 93.5t74.5 227.5zM660 814h-300l17 80h300z" />
    <glyph glyph-name="omacron" unicode="&#x14d;" horiz-adv-x="611" 
d="M594 349q0 -159 -92 -258.5t-240 -99.5q-100 0 -159.5 51.5t-59.5 141.5q0 157 92.5 261t237.5 104q103 0 162 -53.5t59 -146.5zM451 320q0 53 -27 85t-73 32q-68 0 -116.5 -65t-48.5 -160q0 -52 27.5 -80.5t73.5 -28.5q69 0 116.5 63t47.5 154zM548 635h-300l17 80h300z
" />
    <glyph glyph-name="Obreve" unicode="&#x14e;" horiz-adv-x="778" 
d="M788 455q0 -181 -122 -325q-64 -76 -138 -109t-171 -33q-134 0 -212 74t-78 205q0 86 32.5 171.5t91.5 155.5q123 147 307 147q137 0 213.5 -75.5t76.5 -210.5zM639 437q0 83 -42.5 129.5t-117.5 46.5q-110 0 -186.5 -96.5t-76.5 -228.5q0 -81 44.5 -126.5t120.5 -45.5
q109 0 183.5 93.5t74.5 227.5zM693 919q-12 -56 -67 -92.5t-126 -36.5t-106.5 39t-13.5 90h51q-2 -15 1.5 -25t9 -15t19 -7.5t23 -3t30.5 -0.5h6q97 0 123 51h50z" />
    <glyph glyph-name="obreve" unicode="&#x14f;" horiz-adv-x="611" 
d="M594 349q0 -159 -92 -258.5t-240 -99.5q-100 0 -159.5 51.5t-59.5 141.5q0 157 92.5 261t237.5 104q103 0 162 -53.5t59 -146.5zM451 320q0 53 -27 85t-73 32q-68 0 -116.5 -65t-48.5 -160q0 -52 27.5 -80.5t73.5 -28.5q69 0 116.5 63t47.5 154zM553 752
q-11 -63 -58 -108t-105 -45q-46 0 -75 33t-29 81q0 17 6 39h42v-8q0 -27 19.5 -42t54.5 -15q77 0 103 65h42z" />
    <glyph glyph-name="Ohungarumlaut" unicode="&#x150;" horiz-adv-x="778" 
d="M788 455q0 -181 -122 -325q-64 -76 -138 -109t-171 -33q-134 0 -212 74t-78 205q0 86 32.5 171.5t91.5 155.5q123 147 307 147q137 0 213.5 -75.5t76.5 -210.5zM639 437q0 83 -42.5 129.5t-117.5 46.5q-110 0 -186.5 -96.5t-76.5 -228.5q0 -81 44.5 -126.5t120.5 -45.5
q109 0 183.5 93.5t74.5 227.5zM592 941l-144 -154h-85l103 154h126zM790 941l-144 -154h-85l103 154h126z" />
    <glyph glyph-name="ohungarumlaut" unicode="&#x151;" horiz-adv-x="611" 
d="M594 349q0 -159 -92 -258.5t-240 -99.5q-100 0 -159.5 51.5t-59.5 141.5q0 157 92.5 261t237.5 104q103 0 162 -53.5t59 -146.5zM451 320q0 53 -27 85t-73 32q-68 0 -116.5 -65t-48.5 -160q0 -52 27.5 -80.5t73.5 -28.5q69 0 116.5 63t47.5 154zM477 752l-144 -154h-85
l103 154h126zM675 752l-144 -154h-85l103 154h126z" />
    <glyph glyph-name="OE" unicode="&#x152;" horiz-adv-x="1000" 
d="M931 0h-490l15 73q-42 -45 -79.5 -63.5t-87.5 -18.5q-108 0 -173.5 67.5t-65.5 186.5q0 126 53.5 240.5t144.5 185t194 70.5q49 0 82 -14.5t61 -49.5l11 52h471l-27 -125h-326l-35 -165h298l-27 -125h-298l-40 -189h345zM550 540q-27 73 -108 73q-98 0 -170.5 -102.5
t-72.5 -236.5q0 -78 38.5 -116.5t108.5 -38.5q75 0 130 73z" />
    <glyph glyph-name="oe" unicode="&#x153;" horiz-adv-x="944" 
d="M928 226h-362q-7 -30 -7 -52q2 -28 30 -49.5t69 -21.5q35 0 66 15t45 34h138q-38 -71 -114 -116t-164 -45q-55 0 -101 20t-67 53q-83 -73 -210 -73q-101 0 -159 53.5t-58 145.5q-2 149 92.5 254t236.5 105q59 0 106.5 -19t73.5 -53q74 72 195 72q94 0 151 -57t57 -141
q0 -57 -18 -125zM440 320q0 53 -27 85t-73 32q-68 0 -115.5 -62t-47.5 -156q0 -53 27 -84.5t72 -31.5q69 0 116.5 63t47.5 154zM803 319v28q0 43 -22.5 66.5t-62.5 23.5q-99 0 -131 -118h216z" />
    <glyph glyph-name="Racute" unicode="&#x154;" horiz-adv-x="722" 
d="M643 27l-6 -27h-159q-8 25 -8 41q-1 33 26 132q12 48 12 61q0 55 -85 55h-172l-61 -289h-150l155 729h377q78 0 125.5 -42t47.5 -108q0 -75 -39.5 -129.5t-127.5 -97.5q78 -26 78 -82q0 -33 -28 -183q-3 -15 -3 -26q0 -20 18 -34zM596 534q0 70 -110 70h-168l-40 -190
h181q62 0 99.5 33t37.5 87zM710 921l-190 -135h-104l122 135h172z" />
    <glyph glyph-name="racute" unicode="&#x155;" horiz-adv-x="389" 
d="M417 406q-24 4 -43 4q-124 0 -150 -123l-61 -287h-140l115 540h140l-23 -106q35 55 81 85t94 30q9 0 17 -1zM498 752l-158 -154h-100l102 154h156z" />
    <glyph glyph-name="Rcommaaccent" unicode="&#x156;" horiz-adv-x="722" 
d="M643 27l-6 -27h-159q-8 25 -8 41q-1 33 26 132q12 48 12 61q0 55 -85 55h-172l-61 -289h-150l155 729h377q78 0 125.5 -42t47.5 -108q0 -75 -39.5 -129.5t-127.5 -97.5q78 -26 78 -82q0 -33 -28 -183q-3 -15 -3 -26q0 -20 18 -34zM596 534q0 70 -110 70h-168l-40 -190
h181q62 0 99.5 33t37.5 87zM348 -60l-21 -96q-8 -59 -52 -103t-101 -48l10 46q33 6 57 30.5t28 58.5h-67l24 112h122z" />
    <glyph glyph-name="rcommaaccent" unicode="&#x157;" horiz-adv-x="389" 
d="M417 406q-24 4 -43 4q-124 0 -150 -123l-61 -287h-140l115 540h140l-23 -106q35 55 81 85t94 30q9 0 17 -1zM139 -60l-21 -96q-8 -59 -52 -103t-101 -48l10 46q33 6 57 30.5t28 58.5h-67l24 112h122z" />
    <glyph glyph-name="Rcaron" unicode="&#x158;" horiz-adv-x="722" 
d="M643 27l-6 -27h-159q-8 25 -8 41q-1 33 26 132q12 48 12 61q0 55 -85 55h-172l-61 -289h-150l155 729h377q78 0 125.5 -42t47.5 -108q0 -75 -39.5 -129.5t-127.5 -97.5q78 -26 78 -82q0 -33 -28 -183q-3 -15 -3 -26q0 -20 18 -34zM596 534q0 70 -110 70h-168l-40 -190
h181q62 0 99.5 33t37.5 87zM689 920l-167 -132h-129l-86 132h86l82 -53l123 53h91z" />
    <glyph glyph-name="rcaron" unicode="&#x159;" horiz-adv-x="389" 
d="M417 406q-24 4 -43 4q-124 0 -150 -123l-61 -287h-140l115 540h140l-23 -106q35 55 81 85t94 30q9 0 17 -1zM491 752l-140 -154h-127l-71 154h88l66 -77l98 77h86z" />
    <glyph glyph-name="Sacute" unicode="&#x15a;" horiz-adv-x="667" 
d="M648 271q0 -128 -91 -205.5t-250 -77.5q-125 0 -197 52t-72 145q0 17 4 44h146q-2 -18 -2 -23q0 -43 37.5 -66.5t105.5 -23.5q79 0 124.5 28t45.5 78q0 34 -24.5 49t-96.5 30l-98 20q-89 18 -129 53.5t-40 97.5q0 114 89 191.5t233 77.5q119 0 185.5 -45.5t66.5 -126.5
q0 -25 -8 -62h-140q2 18 2 23q0 83 -132 83q-68 0 -107.5 -28t-39.5 -76q0 -28 25 -43.5t96 -29.5l109 -22q158 -33 158 -143zM684 921l-190 -135h-104l122 135h172z" />
    <glyph glyph-name="sacute" unicode="&#x15b;" 
d="M520 194q0 -95 -74 -149t-202 -54q-99 0 -160 41t-61 109q0 10 4 30h137q3 -68 106 -68q102 0 102 48q-1 12 -16 21t-61 24l-79 25q-129 41 -129 124q0 84 70.5 144t189.5 60q94 0 148 -38.5t54 -106.5q0 -16 -5 -38h-135q3 13 3 19q0 24 -23.5 38t-64.5 14
q-40 0 -64 -14.5t-24 -38.5q0 -15 13.5 -24.5t51.5 -20.5l96 -28q63 -18 93 -46t30 -71zM573 752l-158 -154h-100l102 154h156z" />
    <glyph glyph-name="Scircumflex" unicode="&#x15c;" horiz-adv-x="667" 
d="M648 271q0 -128 -91 -205.5t-250 -77.5q-125 0 -197 52t-72 145q0 17 4 44h146q-2 -18 -2 -23q0 -43 37.5 -66.5t105.5 -23.5q79 0 124.5 28t45.5 78q0 34 -24.5 49t-96.5 30l-98 20q-89 18 -129 53.5t-40 97.5q0 114 89 191.5t233 77.5q119 0 185.5 -45.5t66.5 -126.5
q0 -25 -8 -62h-140q2 18 2 23q0 83 -132 83q-68 0 -107.5 -28t-39.5 -76q0 -28 25 -43.5t96 -29.5l109 -22q158 -33 158 -143zM634 788h-86l-82 53l-123 -53h-91l167 132h129z" />
    <glyph glyph-name="scircumflex" unicode="&#x15d;" 
d="M520 194q0 -95 -74 -149t-202 -54q-99 0 -160 41t-61 109q0 10 4 30h137q3 -68 106 -68q102 0 102 48q-1 12 -16 21t-61 24l-79 25q-129 41 -129 124q0 84 70.5 144t189.5 60q94 0 148 -38.5t54 -106.5q0 -16 -5 -38h-135q3 13 3 19q0 24 -23.5 38t-64.5 14
q-40 0 -64 -14.5t-24 -38.5q0 -15 13.5 -24.5t51.5 -20.5l96 -28q63 -18 93 -46t30 -71zM534 598h-88l-66 77l-98 -77h-86l140 154h127z" />
    <glyph glyph-name="Scedilla" unicode="&#x15e;" horiz-adv-x="667" 
d="M648 271q0 -121 -81.5 -197.5t-225.5 -84.5l-28 -45h33q29 0 46.5 -19.5t17.5 -47.5q0 -49 -41 -78t-109 -29q-59 0 -133 29l30 51q51 -25 98 -25q29 0 48.5 10.5t19.5 28.5q0 16 -12.5 27.5t-31.5 11.5h-50l52 86q-114 5 -178.5 56.5t-64.5 139.5q0 17 4 44h146
q-2 -18 -2 -23q0 -43 37.5 -66.5t105.5 -23.5q79 0 124.5 28t45.5 78q0 34 -24.5 49t-96.5 30l-98 20q-89 18 -129 53.5t-40 97.5q0 114 89 191.5t233 77.5q119 0 185.5 -45.5t66.5 -126.5q0 -25 -8 -62h-140q2 18 2 23q0 83 -132 83q-68 0 -107.5 -28t-39.5 -76
q0 -28 25 -43.5t96 -29.5l109 -22q158 -33 158 -143z" />
    <glyph glyph-name="scedilla" unicode="&#x15f;" 
d="M520 194q0 -89 -64.5 -142t-177.5 -60l-30 -48h33q29 0 46.5 -19.5t17.5 -47.5q0 -49 -41 -78t-109 -29q-59 0 -133 29l30 51q51 -25 98 -25q29 0 48.5 10.5t19.5 28.5q0 16 -12.5 27.5t-31.5 11.5h-50l54 89q-89 5 -142 45.5t-53 103.5q0 10 4 30h137q3 -68 106 -68
q102 0 102 48q-1 12 -16 21t-61 24l-79 25q-129 41 -129 124q0 84 70.5 144t189.5 60q94 0 148 -38.5t54 -106.5q0 -16 -5 -38h-135q3 13 3 19q0 24 -23.5 38t-64.5 14q-40 0 -64 -14.5t-24 -38.5q0 -15 13.5 -24.5t51.5 -20.5l96 -28q63 -18 93 -46t30 -71z" />
    <glyph glyph-name="Scaron" unicode="&#x160;" horiz-adv-x="667" 
d="M648 271q0 -128 -91 -205.5t-250 -77.5q-125 0 -197 52t-72 145q0 17 4 44h146q-2 -18 -2 -23q0 -43 37.5 -66.5t105.5 -23.5q79 0 124.5 28t45.5 78q0 34 -24.5 49t-96.5 30l-98 20q-89 18 -129 53.5t-40 97.5q0 114 89 191.5t233 77.5q119 0 185.5 -45.5t66.5 -126.5
q0 -25 -8 -62h-140q2 18 2 23q0 83 -132 83q-68 0 -107.5 -28t-39.5 -76q0 -28 25 -43.5t96 -29.5l109 -22q158 -33 158 -143zM662 920l-167 -132h-129l-86 132h86l82 -53l123 53h91z" />
    <glyph glyph-name="scaron" unicode="&#x161;" 
d="M520 194q0 -95 -74 -149t-202 -54q-99 0 -160 41t-61 109q0 10 4 30h137q3 -68 106 -68q102 0 102 48q-1 12 -16 21t-61 24l-79 25q-129 41 -129 124q0 84 70.5 144t189.5 60q94 0 148 -38.5t54 -106.5q0 -16 -5 -38h-135q3 13 3 19q0 24 -23.5 38t-64.5 14
q-40 0 -64 -14.5t-24 -38.5q0 -15 13.5 -24.5t51.5 -20.5l96 -28q63 -18 93 -46t30 -71zM566 752l-140 -154h-127l-71 154h88l66 -77l98 77h86z" />
    <glyph glyph-name="Tcedilla" unicode="&#x162;" horiz-adv-x="611" 
d="M713 729l-27 -125h-212l-129 -604h-47l-35 -56h33q29 0 46.5 -19.5t17.5 -47.5q0 -49 -41 -78t-109 -29q-59 0 -133 29l30 51q51 -25 98 -25q29 0 48.5 10.5t19.5 28.5q0 16 -12.5 27.5t-31.5 11.5h-50l59 97h-43l129 604h-222l27 125h584z" />
    <glyph glyph-name="tcedilla" unicode="&#x163;" horiz-adv-x="333" 
d="M250 -123q0 -49 -41 -78t-109 -29q-59 0 -133 29l30 51q51 -25 98 -25q29 0 48.5 10.5t19.5 28.5q0 16 -12.5 27.5t-31.5 11.5h-50l59 98q-64 14 -64 74q0 18 5 41l67 320h-69l20 93h69l31 145h140l-31 -145h78l-20 -93h-78l-59 -282q-6 -25 -6 -34q0 -25 38 -25
q12 0 33 3l-20 -98q-50 -4 -77 -4l-32 -52h33q29 0 46.5 -19.5t17.5 -47.5z" />
    <glyph glyph-name="Tcaron" unicode="&#x164;" horiz-adv-x="611" 
d="M713 729l-27 -125h-212l-129 -604h-150l129 604h-222l27 125h584zM657 920l-167 -132h-129l-86 132h86l82 -53l123 53h91z" />
    <glyph glyph-name="tcaron" unicode="&#x165;" horiz-adv-x="333" 
d="M374 529l-20 -93h-78l-59 -282q-6 -25 -6 -34q0 -25 38 -25q12 0 33 3l-20 -98q-54 -4 -84 -4q-114 0 -114 79q0 18 5 41l67 320h-69l20 93h69l31 145h140l-31 -145h78zM510 817l-21 -96q-8 -59 -52 -103t-101 -48l10 46q33 6 57 30.5t28 58.5h-67l24 112h122z" />
    <glyph glyph-name="Utilde" unicode="&#x168;" horiz-adv-x="722" 
d="M666 246q-27 -125 -117.5 -191.5t-220.5 -66.5q-113 0 -180 51.5t-67 138.5q0 36 11 88l99 463h150l-103 -483q-5 -20 -5 -45q0 -40 32.5 -62.5t90.5 -22.5q68 0 107 31.5t53 98.5l103 483h150zM695 915q-17 -62 -52.5 -92t-80.5 -30q-32 0 -51 11l-50 25q-30 14 -44 14
q-26 0 -51 -48h-54q17 56 48.5 86.5t72.5 30.5q31 0 71 -17l50 -21q25 -11 33 -10q33 0 54 51h54z" />
    <glyph glyph-name="utilde" unicode="&#x169;" horiz-adv-x="611" 
d="M616 540l-115 -540h-140l16 75q-77 -84 -180 -84q-66 0 -106 36t-40 96q0 27 6 55l77 362h140l-67 -313q-4 -17 -6 -49q0 -75 76 -75q49 0 85 36t49 97l65 304h140zM597 736q-17 -62 -52.5 -92t-80.5 -30q-32 0 -51 11l-50 25q-30 14 -44 14q-26 0 -51 -48h-54
q17 56 48.5 86.5t72.5 30.5q31 0 71 -17l50 -21q25 -11 33 -10q33 0 54 51h54z" />
    <glyph glyph-name="Umacron" unicode="&#x16a;" horiz-adv-x="722" 
d="M666 246q-27 -125 -117.5 -191.5t-220.5 -66.5q-113 0 -180 51.5t-67 138.5q0 36 11 88l99 463h150l-103 -483q-5 -20 -5 -45q0 -40 32.5 -62.5t90.5 -22.5q68 0 107 31.5t53 98.5l103 483h150zM645 814h-300l17 80h300z" />
    <glyph glyph-name="umacron" unicode="&#x16b;" horiz-adv-x="611" 
d="M616 540l-115 -540h-140l16 75q-77 -84 -180 -84q-66 0 -106 36t-40 96q0 27 6 55l77 362h140l-67 -313q-4 -17 -6 -49q0 -75 76 -75q49 0 85 36t49 97l65 304h140zM548 635h-300l17 80h300z" />
    <glyph glyph-name="Ubreve" unicode="&#x16c;" horiz-adv-x="722" 
d="M666 246q-27 -125 -117.5 -191.5t-220.5 -66.5q-113 0 -180 51.5t-67 138.5q0 36 11 88l99 463h150l-103 -483q-5 -20 -5 -45q0 -40 32.5 -62.5t90.5 -22.5q68 0 107 31.5t53 98.5l103 483h150zM677 919q-12 -56 -67 -92.5t-126 -36.5t-106.5 39t-13.5 90h51
q-4 -24 8 -36t26.5 -13.5t48.5 -1.5h6q97 0 123 51h50z" />
    <glyph glyph-name="ubreve" unicode="&#x16d;" horiz-adv-x="611" 
d="M616 540l-115 -540h-140l16 75q-77 -84 -180 -84q-66 0 -106 36t-40 96q0 27 6 55l77 362h140l-67 -313q-4 -17 -6 -49q0 -75 76 -75q49 0 85 36t49 97l65 304h140zM553 752q-11 -63 -58 -108t-105 -45q-46 0 -75 33t-29 81q0 17 6 39h42v-8q0 -27 19.5 -42t54.5 -15
q77 0 103 65h42z" />
    <glyph glyph-name="Uring" unicode="&#x16e;" horiz-adv-x="722" 
d="M666 246q-27 -125 -117.5 -191.5t-220.5 -66.5q-113 0 -180 51.5t-67 138.5q0 36 11 88l99 463h150l-103 -483q-5 -20 -5 -45q0 -40 32.5 -62.5t90.5 -22.5q68 0 107 31.5t53 98.5l103 483h150zM610 884q0 -47 -37.5 -83.5t-85.5 -36.5q-34 0 -56.5 22t-22.5 56
q0 47 37.5 83.5t85.5 36.5q34 0 56.5 -22t22.5 -56zM556 873q0 15 -10 24.5t-26 9.5q-23 0 -41 -16t-18 -37q0 -15 11 -25t27 -10q22 0 39.5 16.5t17.5 37.5z" />
    <glyph glyph-name="uring" unicode="&#x16f;" horiz-adv-x="611" 
d="M616 540l-115 -540h-140l16 75q-77 -84 -180 -84q-66 0 -106 36t-40 96q0 27 6 55l77 362h140l-67 -313q-4 -17 -6 -49q0 -75 76 -75q49 0 85 36t49 97l65 304h140zM510 696q0 -47 -37.5 -83.5t-85.5 -36.5q-34 0 -56.5 22t-22.5 56q0 47 37.5 83.5t85.5 36.5
q34 0 56.5 -22t22.5 -56zM456 685q0 15 -10 24.5t-26 9.5q-23 0 -40.5 -16t-17.5 -37q0 -15 10.5 -25t26.5 -10q22 0 39.5 16.5t17.5 37.5z" />
    <glyph glyph-name="Uhungarumlaut" unicode="&#x170;" horiz-adv-x="722" 
d="M666 246q-27 -125 -117.5 -191.5t-220.5 -66.5q-113 0 -180 51.5t-67 138.5q0 36 11 88l99 463h150l-103 -483q-5 -20 -5 -45q0 -40 32.5 -62.5t90.5 -22.5q68 0 107 31.5t53 98.5l103 483h150zM576 941l-144 -154h-85l103 154h126zM774 941l-144 -154h-85l103 154h126z
" />
    <glyph glyph-name="uhungarumlaut" unicode="&#x171;" horiz-adv-x="611" 
d="M616 540l-115 -540h-140l16 75q-77 -84 -180 -84q-66 0 -106 36t-40 96q0 27 6 55l77 362h140l-67 -313q-4 -17 -6 -49q0 -75 76 -75q49 0 85 36t49 97l65 304h140zM477 752l-144 -154h-85l103 154h126zM675 752l-144 -154h-85l103 154h126z" />
    <glyph glyph-name="Uogonek" unicode="&#x172;" horiz-adv-x="722" 
d="M666 246q-20 -94 -77 -155.5t-142 -86.5q-41 -12 -70.5 -42t-29.5 -66t47 -36h63l-15 -90h-67q-128 0 -128 80q0 74 90 138h-9q-113 0 -180 51.5t-67 138.5q0 36 11 88l99 463h150l-103 -483q-5 -20 -5 -45q0 -40 32.5 -62.5t90.5 -22.5q68 0 107 31.5t53 98.5l103 483
h150z" />
    <glyph glyph-name="uogonek" unicode="&#x173;" horiz-adv-x="611" 
d="M462 -230h-67q-128 0 -128 80q0 36 23 70q29 45 71 80l16 75q-77 -84 -180 -84q-66 0 -106 36t-40 96q0 27 6 55l77 362h140l-67 -313q-4 -17 -6 -49q0 -75 76 -75q49 0 85 36t49 97l65 304h140l-115 -540q-61 -8 -105 -52q-29 -29 -29 -52q0 -36 47 -36h63z" />
    <glyph glyph-name="Wcircumflex" unicode="&#x174;" horiz-adv-x="944" 
d="M1047 729l-357 -729h-139v555l-237 -555h-135l-51 729h156v-546l224 546h155v-548l225 548h159zM789 788h-86l-82 53l-123 -53h-91l167 132h129z" />
    <glyph glyph-name="wcircumflex" unicode="&#x175;" horiz-adv-x="778" 
d="M841 540l-264 -540h-150v380l-166 -380h-144l-37 540h150v-378l159 378h144v-378l163 378h145zM645 598h-88l-66 77l-98 -77h-86l140 154h127z" />
    <glyph glyph-name="Ycircumflex" unicode="&#x176;" horiz-adv-x="667" 
d="M765 729l-328 -459l-58 -270h-150l58 270l-145 459h167l82 -315l207 315h167zM663 788h-86l-82 53l-123 -53h-91l167 132h129z" />
    <glyph glyph-name="ycircumflex" unicode="&#x177;" 
d="M613 540l-358 -638q-42 -75 -86 -98t-128 -23q-27 0 -44 4l23 109q11 -2 28 -2q52 0 82.5 25t30.5 68l-77 555h154l36 -393l195 393h144zM534 598h-88l-66 77l-98 -77h-86l140 154h127z" />
    <glyph glyph-name="Ydieresis" unicode="&#x178;" horiz-adv-x="667" 
d="M765 729l-328 -459l-58 -270h-150l58 270l-145 459h167l82 -315l207 315h167zM440 797h-126l25 115h126zM635 797h-126l25 115h126z" />
    <glyph glyph-name="Zacute" unicode="&#x179;" horiz-adv-x="611" 
d="M565 125l-27 -125h-548l27 125l474 479h-373l27 125h548l-27 -125l-474 -479h373zM672 921l-190 -135h-104l122 135h172z" />
    <glyph glyph-name="zacute" unicode="&#x17a;" horiz-adv-x="500" 
d="M429 0h-448l24 113l334 314h-249l24 113h421l-24 -113l-332 -314h274zM545 752l-158 -154h-100l102 154h156z" />
    <glyph glyph-name="Zdotaccent" unicode="&#x17b;" horiz-adv-x="611" 
d="M565 125l-27 -125h-548l27 125l474 479h-373l27 125h548l-27 -125l-474 -479h373zM503 789h-140l27 131h140z" />
    <glyph glyph-name="zdotaccent" unicode="&#x17c;" horiz-adv-x="500" 
d="M429 0h-448l24 113l334 314h-249l24 113h421l-24 -113l-332 -314h274zM410 610h-140l27 131h140z" />
    <glyph glyph-name="Zcaron" unicode="&#x17d;" horiz-adv-x="611" 
d="M565 125l-27 -125h-548l27 125l474 479h-373l27 125h548l-27 -125l-474 -479h373zM651 920l-167 -132h-129l-86 132h86l82 -53l123 53h91z" />
    <glyph glyph-name="zcaron" unicode="&#x17e;" horiz-adv-x="500" 
d="M429 0h-448l24 113l334 314h-249l24 113h421l-24 -113l-332 -314h274zM538 752l-140 -154h-127l-71 154h88l66 -77l98 77h86z" />
    <glyph glyph-name="longs" unicode="&#x17f;" horiz-adv-x="333" 
d="M402 621q-36 4 -42 4q-37 0 -46 -43l-124 -582h-140l126 594q15 70 56.5 102.5t114.5 32.5l77 -3z" />
    <glyph glyph-name="Ereversed" unicode="&#x18e;" horiz-adv-x="667" 
d="M584 0h-545l27 125h395l40 189h-349l27 125h349l35 165h-378l26 125h528z" />
    <glyph glyph-name="florin" unicode="&#x192;" 
d="M650 727l-44 -114q-31 16 -52 16q-60 0 -99 -105l-15 -41h123l-21 -100h-137l-140 -382q-43 -117 -100 -169t-140 -52q-46 0 -86 22l49 115q27 -21 52 -21q27 0 47 24.5t43 86.5l139 376h-123l21 100h138l23 59q41 104 96 153t134 49q40 0 92 -17z" />
    <glyph glyph-name="Ohorn" unicode="&#x1a0;" horiz-adv-x="800" 
d="M894 745q-26 -120 -127 -168q21 -53 21 -122q0 -177 -120 -317q-64 -76 -139 -111.5t-171 -35.5q-134 0 -211.5 76.5t-77.5 207.5q-2 76 31 163t91 156q122 147 307 147q170 0 244 -113q63 33 82 101h-70l27 125h136zM639 437q0 83 -42.5 129.5t-117.5 46.5
q-116 0 -192 -104q-33 -46 -52 -105.5t-17 -107.5q0 -82 44 -129.5t120 -47.5q115 0 190 105q67 93 67 213z" />
    <glyph glyph-name="ohorn" unicode="&#x1a1;" horiz-adv-x="678" 
d="M728 556q-28 -126 -137 -172q3 -18 3 -35q0 -133 -76 -235q-93 -123 -256 -123q-99 0 -158 54.5t-59 145.5q-2 55 19 121.5t57 113.5q92 123 252 123q152 0 203 -111q64 35 82 102h-70l27 125h136zM451 320q0 53 -27 85t-73 32q-67 0 -116 -66.5t-47 -151.5
q0 -53 27 -84.5t72 -31.5q81 0 129 87q35 61 35 130z" />
    <glyph glyph-name="Uhorn" unicode="&#x1af;" horiz-adv-x="836" 
d="M936 745q-34 -158 -205 -193l-64 -303q-26 -120 -107 -184q-94 -74 -231 -74q-113 0 -180 51.5t-67 138.5q0 36 11 88l98 460h150l-102 -480q-5 -27 -5 -45q0 -40 32.5 -62.5t90.5 -22.5q68 0 107 31.5t53 98.5l102 480h150l-25 -118q98 30 122 118h-70l27 125h136z" />
    <glyph glyph-name="uhorn" unicode="&#x1b0;" horiz-adv-x="722" 
d="M779 556q-35 -157 -201 -192l-77 -364h-140l18 82q-41 -48 -84 -69.5t-98 -21.5q-66 0 -106 36t-40 96q0 27 6 55l77 362h140l-67 -313q-6 -35 -6 -49q0 -75 76 -75q49 0 85 36t49 97l65 304h140l-25 -117q94 29 118 117h-70l27 125h136z" />
    <glyph glyph-name="eturned" unicode="&#x1dd;" 
d="M550 348q0 -95 -36.5 -175t-109.5 -131t-168 -51q-98 0 -155 56.5t-57 141.5q0 54 17 118h363q1 9 1 38q0 41 -26 66.5t-69 25.5q-34 0 -64.5 -15t-44.5 -34h-138q40 74 112.5 117.5t161.5 43.5q95 0 154 -54.5t59 -146.5zM386 214h-220v-15q0 -51 22 -73.5t65 -22.5
q102 0 133 111z" />
    <glyph glyph-name="Gcaron" unicode="&#x1e6;" horiz-adv-x="778" 
d="M755 392l-84 -392h-90l8 94q-55 -58 -108 -82t-124 -24q-133 0 -211 75t-78 205q0 122 57 230.5t159 175.5t223 67q122 0 197 -58.5t75 -153.5q0 -5 -2 -33h-138q-6 56 -47.5 86.5t-112.5 30.5q-114 0 -188 -93t-74 -230q0 -77 48.5 -125.5t122.5 -48.5q72 0 131.5 38.5
t82.5 112.5h-166l27 125h292zM736 920l-167 -132h-129l-86 132h86l82 -53l123 53h91z" />
    <glyph glyph-name="gcaron" unicode="&#x1e7;" horiz-adv-x="611" 
d="M616 540l-119 -558q-20 -96 -98.5 -148t-203.5 -52q-98 0 -153.5 32.5t-55.5 89.5q0 13 3 31h144l-1 -12q0 -22 24.5 -36.5t61.5 -14.5q55 0 95 30.5t51 79.5l17 80q-47 -40 -82.5 -55.5t-81.5 -15.5q-77 0 -127 50.5t-50 132.5q0 97 38.5 183t107.5 139t152 53
q87 0 127 -92l18 83h133zM431 315q0 56 -25 89t-67 33q-62 0 -109 -68.5t-47 -160.5q0 -51 23 -78t63 -27q67 0 114.5 60.5t47.5 151.5zM594 752l-140 -154h-127l-71 154h88l66 -77l98 77h86z" />
    <glyph glyph-name="Oogonek" unicode="&#x1ea;" horiz-adv-x="778" 
d="M788 455q0 -181 -122 -325q-82 -96 -186 -126q-43 -13 -73.5 -43t-30.5 -65q0 -36 47 -36h63l-15 -90h-67q-128 0 -128 80q0 75 91 138h-10q-134 0 -212 74t-78 205q0 86 32.5 171.5t91.5 155.5q123 147 307 147q137 0 213.5 -75.5t76.5 -210.5zM639 437
q0 83 -42.5 129.5t-117.5 46.5q-110 0 -186.5 -96.5t-76.5 -228.5q0 -81 44.5 -126.5t120.5 -45.5q109 0 183.5 93.5t74.5 227.5z" />
    <glyph glyph-name="oogonek" unicode="&#x1eb;" horiz-adv-x="611" 
d="M594 349q0 -110 -46 -194t-127 -127q-59 -31 -94.5 -61.5t-35.5 -70.5q0 -36 47 -36h63l-15 -90h-67q-128 0 -128 80q0 76 96 142q-8 -1 -25 -1q-100 0 -159.5 51.5t-59.5 141.5q0 157 92.5 261t237.5 104q103 0 162 -53.5t59 -146.5zM451 320q0 53 -27 85t-73 32
q-68 0 -116.5 -65t-48.5 -160q0 -52 27.5 -80.5t73.5 -28.5q69 0 116.5 63t47.5 154z" />
    <glyph glyph-name="Gacute" unicode="&#x1f4;" horiz-adv-x="778" 
d="M755 392l-84 -392h-90l8 94q-55 -58 -108 -82t-124 -24q-133 0 -211 75t-78 205q0 122 57 230.5t159 175.5t223 67q122 0 197 -58.5t75 -153.5q0 -5 -2 -33h-138q-6 56 -47.5 86.5t-112.5 30.5q-114 0 -188 -93t-74 -230q0 -77 48.5 -125.5t122.5 -48.5q72 0 131.5 38.5
t82.5 112.5h-166l27 125h292zM758 921l-190 -135h-104l122 135h172z" />
    <glyph glyph-name="gacute" unicode="&#x1f5;" horiz-adv-x="611" 
d="M616 540l-119 -558q-20 -96 -98.5 -148t-203.5 -52q-98 0 -153.5 32.5t-55.5 89.5q0 13 3 31h144l-1 -12q0 -22 24.5 -36.5t61.5 -14.5q55 0 95 30.5t51 79.5l17 80q-47 -40 -82.5 -55.5t-81.5 -15.5q-77 0 -127 50.5t-50 132.5q0 97 38.5 183t107.5 139t152 53
q87 0 127 -92l18 83h133zM431 315q0 56 -25 89t-67 33q-62 0 -109 -68.5t-47 -160.5q0 -51 23 -78t63 -27q67 0 114.5 60.5t47.5 151.5zM601 752l-158 -154h-100l102 154h156z" />
    <glyph glyph-name="Aringacute" unicode="&#x1fa;" horiz-adv-x="722" 
d="M663 0h-153l-18 147h-272l-81 -147h-153l407 729h173zM478 272l-35 283l-154 -283h189zM776 1117l-190 -135h-104l122 135h172zM610 884q0 -47 -37.5 -83.5t-85.5 -36.5q-34 0 -56.5 22t-22.5 56q0 47 37.5 83.5t85.5 36.5q34 0 56.5 -22t22.5 -56zM556 873
q0 15 -10 24.5t-26 9.5q-23 0 -41 -16t-18 -37q0 -15 11 -25t27 -10q22 0 39.5 16.5t17.5 37.5z" />
    <glyph glyph-name="aringacute" unicode="&#x1fb;" 
d="M487 17l-4 -17h-153q-7 15 -7 27q0 14 4 34q-43 -39 -81.5 -54.5t-83.5 -15.5q-70 0 -110.5 34t-40.5 90q0 74 53.5 127.5t147.5 68.5l58 9q12 2 26.5 4t20 3t13.5 2.5t10.5 2t7 2t7 3l7.5 4.5q34 17 34 53q0 43 -73 43q-48 0 -73.5 -17t-38.5 -58h-131q21 98 84.5 142.5
t181.5 44.5q93 0 142.5 -32t49.5 -89q0 -18 -6 -45l-63 -300q-3 -12 -3 -21q0 -21 21 -45zM363 231l5 24q-14 -8 -18.5 -9t-28.5 -5l-66 -11q-101 -17 -101 -84q0 -43 75 -43q51 0 86 33.5t48 94.5zM640 928l-190 -135h-104l122 135h172zM474 695q0 -47 -37.5 -83.5
t-85.5 -36.5q-34 0 -56.5 22t-22.5 56q0 47 37.5 83.5t85.5 36.5q34 0 56.5 -22t22.5 -56zM420 684q0 15 -10 24.5t-26 9.5q-23 0 -41 -16t-18 -37q0 -15 11 -25t27 -10q22 0 39.5 16.5t17.5 37.5z" />
    <glyph glyph-name="AEacute" unicode="&#x1fc;" horiz-adv-x="1000" 
d="M955 125l-27 -125h-536l32 152h-219l-85 -152h-159l420 729h683l-26 -125h-367l-36 -165h339l-26 -125h-339l-40 -189h386zM521 604h-66l-185 -327h181zM875 921l-190 -135h-104l122 135h172z" />
    <glyph glyph-name="aeacute" unicode="&#x1fd;" horiz-adv-x="889" 
d="M869 226h-362q-7 -30 -7 -51q2 -29 30 -50.5t69 -21.5q35 0 66 15t45 34h138q-38 -71 -114.5 -116t-164.5 -45q-137 0 -181 100q-52 -56 -99.5 -78t-116.5 -22q-74 0 -115.5 31t-41.5 91q0 76 53.5 129.5t147.5 68.5l57 9q12 2 26.5 4t20 3t13.5 2.5t10.5 2t7 2t7.5 3
t8 4.5q34 17 34 53q0 43 -73 43q-48 0 -73.5 -17t-38.5 -58h-131q21 101 85.5 144t182.5 43q113 0 161 -49q73 49 165 49q94 0 151.5 -57t57.5 -141q0 -57 -18 -125zM367 230l5 24q-22 -11 -47 -13l-66 -11q-101 -17 -101 -84q0 -43 73 -43q52 0 87.5 33t48.5 94zM744 319
v27q0 43 -22 67t-63 24q-99 0 -131 -118h216zM740 752l-158 -154h-100l102 154h156z" />
    <glyph glyph-name="Oslashacute" unicode="&#x1fe;" horiz-adv-x="778" 
d="M844 674l-85 -75q29 -63 29 -144q0 -181 -122 -325q-64 -76 -138 -109t-171 -33q-132 0 -210 73l-79 -70l-55 64l84 74q-30 62 -30 138q0 86 32.5 171.5t91.5 155.5q123 147 307 147q135 0 212 -74l79 71zM639 437q0 25 -5 52l-373 -328q45 -45 120 -45q109 0 183.5 93.5
t74.5 227.5zM596 567q-43 46 -117 46q-110 0 -186.5 -96.5t-76.5 -228.5q0 -25 5 -50zM757 921l-190 -135h-104l122 135h172z" />
    <glyph glyph-name="oslashacute" unicode="&#x1ff;" horiz-adv-x="611" 
d="M629 485l-53 -45q18 -40 18 -91q0 -159 -92 -258.5t-240 -99.5q-95 0 -155 47l-48 -41l-49 58l51 43q-18 41 -18 86q0 157 92.5 261t237.5 104q99 0 157 -49l50 43zM451 320v12l-236 -202q25 -27 72 -27q69 0 116.5 63t47.5 154zM422 407q-27 30 -71 30q-68 0 -116.5 -65
t-48.5 -160l1 -6zM601 752l-158 -154h-100l102 154h156z" />
    <glyph glyph-name="Adblgrave" unicode="&#x200;" horiz-adv-x="722" 
d="M663 0h-153l-18 147h-272l-81 -147h-153l407 729h173zM478 272l-35 283l-154 -283h189zM637 787h-85l-79 154h126zM439 787h-85l-79 154h126z" />
    <glyph glyph-name="adblgrave" unicode="&#x201;" 
d="M487 17l-4 -17h-153q-7 15 -7 27q0 14 4 34q-43 -39 -81.5 -54.5t-83.5 -15.5q-70 0 -110.5 34t-40.5 90q0 74 53.5 127.5t147.5 68.5l58 9q12 2 26.5 4t20 3t13.5 2.5t10.5 2t7 2t7 3l7.5 4.5q34 17 34 53q0 43 -73 43q-48 0 -73.5 -17t-38.5 -58h-131q21 98 84.5 142.5
t181.5 44.5q93 0 142.5 -32t49.5 -89q0 -18 -6 -45l-63 -300q-3 -12 -3 -21q0 -21 21 -45zM363 231l5 24q-14 -8 -18.5 -9t-28.5 -5l-66 -11q-101 -17 -101 -84q0 -43 75 -43q51 0 86 33.5t48 94.5zM501 598h-85l-79 154h126zM303 598h-85l-79 154h126z" />
    <glyph glyph-name="Edblgrave" unicode="&#x204;" horiz-adv-x="667" 
d="M611 125l-27 -125h-545l155 729h528l-27 -125h-378l-35 -165h349l-26 -125h-349l-40 -189h395zM615 787h-85l-79 154h126zM417 787h-85l-79 154h126z" />
    <glyph glyph-name="edblgrave" unicode="&#x205;" 
d="M534 233h-363q-1 -9 -1 -38q0 -41 26 -66.5t69 -25.5q34 0 64.5 15t44.5 34h138q-40 -74 -112.5 -117.5t-161.5 -43.5q-95 0 -154 54.5t-59 146.5q0 95 36.5 175t109.5 131t168 51q98 0 155 -56.5t57 -141.5q0 -54 -17 -118zM409 326v15q0 51 -22 73.5t-65 22.5
q-102 0 -133 -111h220zM510 598h-85l-79 154h126zM312 598h-85l-79 154h126z" />
    <glyph glyph-name="Idblgrave" unicode="&#x208;" horiz-adv-x="278" 
d="M328 729l-155 -729h-150l155 729h150zM410 787h-85l-79 154h126zM212 787h-85l-79 154h126z" />
    <glyph glyph-name="idblgrave" unicode="&#x209;" horiz-adv-x="278" 
d="M282 540l-115 -540h-140l115 540h140zM369 598h-85l-79 154h126zM171 598h-85l-79 154h126z" />
    <glyph glyph-name="Odblgrave" unicode="&#x20c;" horiz-adv-x="778" 
d="M788 455q0 -181 -122 -325q-64 -76 -138 -109t-171 -33q-134 0 -212 74t-78 205q0 86 32.5 171.5t91.5 155.5q123 147 307 147q137 0 213.5 -75.5t76.5 -210.5zM639 437q0 83 -42.5 129.5t-117.5 46.5q-110 0 -186.5 -96.5t-76.5 -228.5q0 -81 44.5 -126.5t120.5 -45.5
q109 0 183.5 93.5t74.5 227.5zM652 787h-85l-79 154h126zM454 787h-85l-79 154h126z" />
    <glyph glyph-name="odblgrave" unicode="&#x20d;" horiz-adv-x="611" 
d="M594 349q0 -159 -92 -258.5t-240 -99.5q-100 0 -159.5 51.5t-59.5 141.5q0 157 92.5 261t237.5 104q103 0 162 -53.5t59 -146.5zM451 320q0 53 -27 85t-73 32q-68 0 -116.5 -65t-48.5 -160q0 -52 27.5 -80.5t73.5 -28.5q69 0 116.5 63t47.5 154zM537 598h-85l-79 154h126
zM339 598h-85l-79 154h126z" />
    <glyph glyph-name="Rdblgrave" unicode="&#x210;" horiz-adv-x="722" 
d="M643 27l-6 -27h-159q-8 25 -8 41q-1 33 26 132q12 48 12 61q0 55 -85 55h-172l-61 -289h-150l155 729h377q78 0 125.5 -42t47.5 -108q0 -75 -39.5 -129.5t-127.5 -97.5q78 -26 78 -82q0 -33 -28 -183q-3 -15 -3 -26q0 -20 18 -34zM596 534q0 70 -110 70h-168l-40 -190
h181q62 0 99.5 33t37.5 87zM614 787h-85l-79 154h126zM416 787h-85l-79 154h126z" />
    <glyph glyph-name="rdblgrave" unicode="&#x211;" horiz-adv-x="389" 
d="M417 406q-24 4 -43 4q-124 0 -150 -123l-61 -287h-140l115 540h140l-23 -106q35 55 81 85t94 30q9 0 17 -1zM434 598h-85l-79 154h126zM236 598h-85l-79 154h126z" />
    <glyph glyph-name="Udblgrave" unicode="&#x214;" horiz-adv-x="722" 
d="M666 246q-27 -125 -117.5 -191.5t-220.5 -66.5q-113 0 -180 51.5t-67 138.5q0 36 11 88l99 463h150l-103 -483q-5 -20 -5 -45q0 -40 32.5 -62.5t90.5 -22.5q68 0 107 31.5t53 98.5l103 483h150zM637 787h-85l-79 154h126zM439 787h-85l-79 154h126z" />
    <glyph glyph-name="udblgrave" unicode="&#x215;" horiz-adv-x="611" 
d="M616 540l-115 -540h-140l16 75q-77 -84 -180 -84q-66 0 -106 36t-40 96q0 27 6 55l77 362h140l-67 -313q-4 -17 -6 -49q0 -75 76 -75q49 0 85 36t49 97l65 304h140zM537 598h-85l-79 154h126zM339 598h-85l-79 154h126z" />
    <glyph glyph-name="uni0218" unicode="&#x218;" horiz-adv-x="667" 
d="M648 271q0 -128 -91 -205.5t-250 -77.5q-125 0 -197 52t-72 145q0 17 4 44h146q-2 -18 -2 -23q0 -43 37.5 -66.5t105.5 -23.5q79 0 124.5 28t45.5 78q0 34 -24.5 49t-96.5 30l-98 20q-89 18 -129 53.5t-40 97.5q0 114 89 191.5t233 77.5q119 0 185.5 -45.5t66.5 -126.5
q0 -25 -8 -62h-140q2 18 2 23q0 83 -132 83q-68 0 -107.5 -28t-39.5 -76q0 -28 25 -43.5t96 -29.5l109 -22q158 -33 158 -143zM321 -60l-21 -96q-8 -59 -52 -103t-101 -48l10 46q33 6 57 30.5t28 58.5h-67l24 112h122z" />
    <glyph glyph-name="uni0219" unicode="&#x219;" 
d="M520 194q0 -95 -74 -149t-202 -54q-99 0 -160 41t-61 109q0 10 4 30h137q3 -68 106 -68q102 0 102 48q-1 12 -16 21t-61 24l-79 25q-129 41 -129 124q0 84 70.5 144t189.5 60q94 0 148 -38.5t54 -106.5q0 -16 -5 -38h-135q3 13 3 19q0 24 -23.5 38t-64.5 14
q-40 0 -64 -14.5t-24 -38.5q0 -15 13.5 -24.5t51.5 -20.5l96 -28q63 -18 93 -46t30 -71zM284 -60l-21 -96q-8 -59 -52 -103t-101 -48l10 46q33 6 57 30.5t28 58.5h-67l24 112h122z" />
    <glyph glyph-name="uni021A" unicode="&#x21a;" horiz-adv-x="611" 
d="M713 729l-27 -125h-212l-129 -604h-150l129 604h-222l27 125h584zM316 -60l-21 -96q-8 -59 -52 -103t-101 -48l10 46q33 6 57 30.5t28 58.5h-67l24 112h122z" />
    <glyph glyph-name="uni021B" unicode="&#x21b;" horiz-adv-x="333" 
d="M374 529l-20 -93h-78l-59 -282q-6 -25 -6 -34q0 -25 38 -25q12 0 33 3l-20 -98q-54 -4 -84 -4q-114 0 -114 79q0 18 5 41l67 320h-69l20 93h69l31 145h140l-31 -145h78zM225 -60l-21 -96q-8 -59 -52 -103t-101 -48l10 46q33 6 57 30.5t28 58.5h-67l24 112h122z" />
    <glyph glyph-name="ereversed" unicode="&#x258;" 
d="M517 192q-39 -92 -121 -146.5t-177 -54.5q-89 0 -143.5 43.5t-62.5 117.5h138q6 -19 30 -34t58 -15q43 0 80 25.5t55 66.5q1 2 5 11.5t9 26.5h-363q9 59 34 118q36 85 117 141.5t179 56.5q72 0 119.5 -29.5t65.5 -79.5t12.5 -114t-35.5 -134zM410 326q17 111 -86 111
q-87 0 -128 -96l-6 -15h220z" />
    <glyph glyph-name="schwa" unicode="&#x259;" 
d="M550 348q0 -95 -36.5 -175t-109.5 -131t-168 -51q-98 0 -155 56.5t-57 141.5q0 54 17 118h363q1 9 1 38q0 41 -26 66.5t-69 25.5q-34 0 -64.5 -15t-44.5 -34h-138q40 74 112.5 117.5t161.5 43.5q95 0 154 -54.5t59 -146.5zM386 214h-220v-15q0 -51 22 -73.5t65 -22.5
q102 0 133 111z" />
    <glyph glyph-name="ringhalfright" unicode="&#x2be;" horiz-adv-x="462" 
d="M479 575q0 -48 -19 -100t-50 -89q-55 -67 -154 -67q-61 0 -100 34t-39 84q0 13 3 30q2 9 10 9h89q6 0 6 -6q1 -35 11.5 -47.5t36.5 -12.5q44 0 69 44.5t25 104.5q0 57 -54 57q-25 0 -39.5 -10t-27.5 -39q-4 -7 -10 -7h-89q-10 0 -6 9q43 138 187 138q72 0 111.5 -36
t39.5 -96z" />
    <glyph glyph-name="ringhalfleft" unicode="&#x2bf;" horiz-adv-x="462" 
d="M459 457q-43 -138 -186 -138q-73 0 -112.5 36.5t-38.5 95.5q0 48 19 100t49 89q55 67 154 67q61 0 100 -34t39 -84q1 -6 -2 -30q-2 -9 -10 -9h-89q-5 0 -7 6q-1 35 -11.5 47.5t-36.5 12.5q-44 0 -69 -44.5t-25 -104.5q1 -30 14 -43.5t40 -13.5q25 0 40 10t28 39q2 7 9 7
h89q10 0 6 -9z" />
    <glyph glyph-name="circumflex" unicode="&#x2c6;" horiz-adv-x="333" 
d="M423 598h-88l-66 77l-98 -77h-86l140 154h127z" />
    <glyph glyph-name="caron" unicode="&#x2c7;" horiz-adv-x="333" 
d="M455 752l-140 -154h-127l-71 154h88l66 -77l98 77h86z" />
    <glyph glyph-name="breve" unicode="&#x2d8;" horiz-adv-x="333" 
d="M414 752q-11 -63 -58 -108t-105 -45q-46 0 -75 33t-29 81q0 17 6 39h42v-8q0 -27 19.5 -42t54.5 -15q77 0 103 65h42z" />
    <glyph glyph-name="dotaccent" unicode="&#x2d9;" horiz-adv-x="333" 
d="M327 610h-140l27 131h140z" />
    <glyph glyph-name="ring" unicode="&#x2da;" horiz-adv-x="333" 
d="M371 696q0 -47 -37.5 -83.5t-85.5 -36.5q-34 0 -56.5 22t-22.5 56q0 47 37.5 83.5t85.5 36.5q34 0 56.5 -22t22.5 -56zM317 685q0 15 -10 24.5t-26 9.5q-23 0 -40.5 -16t-17.5 -37q0 -15 10.5 -25t26.5 -10q22 0 39.5 16.5t17.5 37.5z" />
    <glyph glyph-name="ogonek" unicode="&#x2db;" horiz-adv-x="333" 
d="M240 -230h-67q-128 0 -128 80q0 81 108 150h95q-103 -56 -103 -104q0 -36 47 -36h63z" />
    <glyph glyph-name="tilde" unicode="&#x2dc;" horiz-adv-x="333" 
d="M458 736q-17 -62 -52.5 -92t-80.5 -30q-32 0 -51 11l-50 25q-30 14 -44 14q-26 0 -51 -48h-54q17 56 48.5 86.5t72.5 30.5q31 0 71 -17l50 -21q25 -11 33 -10q33 0 54 51h54z" />
    <glyph glyph-name="hungarumlaut" unicode="&#x2dd;" horiz-adv-x="333" 
d="M338 752l-144 -154h-85l103 154h126zM536 752l-144 -154h-85l103 154h126z" />
    <glyph glyph-name="uni0300" unicode="&#x300;" horiz-adv-x="0" 
d="M-140 598h-100l-93 154h156z" />
    <glyph glyph-name="uni0301" unicode="&#x301;" horiz-adv-x="0" 
d="M18 752l-158 -154h-100l102 154h156z" />
    <glyph glyph-name="uni0302" unicode="&#x302;" horiz-adv-x="0" 
d="M-21 598h-88l-66 77l-98 -77h-86l140 154h127z" />
    <glyph glyph-name="uni0303" unicode="&#x303;" horiz-adv-x="0" 
d="M14 736q-17 -62 -52.5 -92t-80.5 -30q-32 0 -51 11l-50 25q-30 14 -44 14q-26 0 -51 -48h-54q17 56 48.5 86.5t72.5 30.5q31 0 71 -17l50 -21q25 -11 33 -10q33 0 54 51h54z" />
    <glyph glyph-name="uni0304" unicode="&#x304;" horiz-adv-x="0" 
d="M-35 635h-300l17 80h300z" />
    <glyph glyph-name="uni0306" unicode="&#x306;" horiz-adv-x="0" 
d="M-30 752q-11 -63 -58 -108t-105 -45q-46 0 -75 33t-29 81q0 17 6 39h42v-8q0 -27 19.5 -42t54.5 -15q77 0 103 65h42z" />
    <glyph glyph-name="uni0307" unicode="&#x307;" horiz-adv-x="0" 
d="M-117 610h-140l27 131h140z" />
    <glyph glyph-name="uni0308" unicode="&#x308;" horiz-adv-x="0" 
d="M-221 618h-126l25 115h126zM-26 618h-126l25 115h126z" />
    <glyph glyph-name="uni0309" unicode="&#x309;" horiz-adv-x="0" 
d="M-52 728q0 -32 -23 -57q-15 -16 -53 -34q-22 -11 -28.5 -17.5t-10.5 -25.5h-60q4 44 64 79q18 9 27.5 17.5t11 13.5t1.5 12q0 27 -36 27q-45 0 -57 -50h-68q16 56 48.5 80t84.5 24q45 0 72 -19t27 -50z" />
    <glyph glyph-name="uni030A" unicode="&#x30a;" horiz-adv-x="0" 
d="M-73 696q0 -47 -37.5 -83.5t-85.5 -36.5q-34 0 -56.5 22t-22.5 56q0 47 37.5 83.5t85.5 36.5q34 0 56.5 -22t22.5 -56zM-127 685q0 15 -10 24.5t-26 9.5q-23 0 -40.5 -16t-17.5 -37q0 -15 10.5 -25t26.5 -10q22 0 39.5 16.5t17.5 37.5z" />
    <glyph glyph-name="uni030B" unicode="&#x30b;" horiz-adv-x="0" 
d="M-106 752l-144 -154h-85l103 154h126zM92 752l-144 -154h-85l103 154h126z" />
    <glyph glyph-name="uni030C" unicode="&#x30c;" horiz-adv-x="0" 
d="M11 752l-140 -154h-127l-71 154h88l66 -77l98 77h86z" />
    <glyph glyph-name="uni030F" unicode="&#x30f;" horiz-adv-x="0" 
d="M-46 598h-85l-79 154h126zM-244 598h-85l-79 154h126z" />
    <glyph glyph-name="uni0311" unicode="&#x311;" horiz-adv-x="0" 
d="M-62 599h-42v8q0 27 -19.5 42t-54.5 15q-77 0 -103 -65h-42q11 63 58 108t105 45q46 0 75 -33t29 -81q0 -17 -6 -39z" />
    <glyph glyph-name="uni0323" unicode="&#x323;" horiz-adv-x="0" 
d="M-289 -200h-140l27 131h140z" />
    <glyph glyph-name="uni0326" unicode="&#x326;" horiz-adv-x="0" 
d="M-269 -60l-21 -96q-8 -59 -52 -103t-101 -48l10 46q33 6 57 30.5t28 58.5h-67l24 112h122z" />
    <glyph glyph-name="uni032E" unicode="&#x32e;" horiz-adv-x="0" 
d="M-175 -70q-12 -56 -67 -92.5t-126 -36.5t-106.5 39t-13.5 90h51q-4 -24 8 -36t26.5 -13.5t48.5 -1.5h6q97 0 123 51h50z" />
    <glyph glyph-name="uni032F" unicode="&#x32f;" horiz-adv-x="0" 
d="M-204 -199h-51q4 24 -8 36t-27 13.5t-49 1.5h-6q-96 0 -122 -51h-50q12 56 67 92.5t126 36.5t106.5 -39t13.5 -90z" />
    <glyph glyph-name="uni0330" unicode="&#x330;" horiz-adv-x="0" 
d="M-158 -74q-17 -62 -52.5 -92t-80.5 -30q-32 0 -51 11l-50 25q-30 14 -44 14q-26 0 -51 -48h-54q17 56 48.5 86.5t72.5 30.5q31 0 71 -17l50 -21q25 -11 33 -10q33 0 54 51h54z" />
    <glyph glyph-name="uni0331" unicode="&#x331;" horiz-adv-x="0" 
d="M-208 -175h-300l17 80h300z" />
    <glyph glyph-name="uni0332" unicode="&#x332;" horiz-adv-x="0" 
d="M-208 -175h-300l17 80h300z" />
    <glyph glyph-name="Alpha" unicode="&#x391;" horiz-adv-x="722" 
d="M663 0h-153l-18 147h-272l-81 -147h-153l407 729h173zM478 272l-35 283l-154 -283h189z" />
    <glyph glyph-name="Beta" unicode="&#x392;" horiz-adv-x="722" 
d="M676 255q0 -44 -22 -92.5t-59 -84.5q-81 -78 -225 -78h-328l155 729h325q95 0 147.5 -42.5t52.5 -115.5q0 -106 -117 -183q38 -30 54.5 -61t16.5 -72zM573 542q0 32 -21.5 47t-67.5 15h-164l-35 -165h164q63 0 93.5 29t30.5 74zM528 245q0 69 -91 69h-178l-40 -189h178
q64 0 97.5 33t33.5 87z" />
    <glyph glyph-name="Gamma" unicode="&#x393;" horiz-adv-x="611" 
d="M701 729l-27 -125h-362l-128 -604h-150l155 729h512z" />
    <glyph glyph-name="Delta" unicode="&#x394;" horiz-adv-x="729" 
d="M696 0h-743l458 707h128zM512 140l-81 363l-235 -363h316z" />
    <glyph glyph-name="Epsilon" unicode="&#x395;" horiz-adv-x="667" 
d="M611 125l-27 -125h-545l155 729h528l-27 -125h-378l-35 -165h349l-26 -125h-349l-40 -189h395z" />
    <glyph glyph-name="Zeta" unicode="&#x396;" horiz-adv-x="611" 
d="M565 125l-27 -125h-548l27 125l474 479h-373l27 125h548l-27 -125l-474 -479h373z" />
    <glyph glyph-name="Eta" unicode="&#x397;" horiz-adv-x="722" 
d="M772 729l-155 -729h-150l70 331h-289l-70 -331h-150l155 729h150l-58 -273h288l58 273h151z" />
    <glyph glyph-name="Theta" unicode="&#x398;" horiz-adv-x="778" 
d="M788 455q0 -181 -122 -325q-64 -76 -138 -109t-171 -33q-134 0 -212 74t-78 205q0 86 32.5 171.5t91.5 155.5q123 147 307 147q137 0 213.5 -75.5t76.5 -210.5zM639 437q0 83 -42.5 129.5t-117.5 46.5q-110 0 -186.5 -96.5t-76.5 -228.5q0 -81 44.5 -126.5t120.5 -45.5
q109 0 183.5 93.5t74.5 227.5zM546 295h-265l30 140h265z" />
    <glyph glyph-name="Iota" unicode="&#x399;" horiz-adv-x="278" 
d="M328 729l-155 -729h-150l155 729h150z" />
    <glyph glyph-name="Kappa" unicode="&#x39a;" horiz-adv-x="722" 
d="M677 0h-179l-173 314l-91 -80l-50 -234h-150l155 729h150l-68 -320l354 320h178l-361 -319z" />
    <glyph glyph-name="Lambda" unicode="&#x39b;" horiz-adv-x="722" 
d="M663 0h-153l-67 555l-304 -555h-153l407 729h173z" />
    <glyph glyph-name="Mu" unicode="&#x39c;" horiz-adv-x="833" 
d="M891 729l-155 -729h-142l132 619l-269 -619h-157v619l-132 -619h-142l155 729h237v-560l254 560h219z" />
    <glyph glyph-name="Nu" unicode="&#x39d;" horiz-adv-x="722" 
d="M776 729l-155 -729h-148l-192 523l-111 -523h-142l155 729h150l192 -515l109 515h142z" />
    <glyph glyph-name="Xi" unicode="&#x39e;" horiz-adv-x="722" 
d="M736 579h-584l32 150h584zM523 295h-278l29 140h278zM613 0h-584l31 150h585z" />
    <glyph glyph-name="Omicron" unicode="&#x39f;" horiz-adv-x="778" 
d="M788 455q0 -181 -122 -325q-64 -76 -138 -109t-171 -33q-134 0 -212 74t-78 205q0 86 32.5 171.5t91.5 155.5q123 147 307 147q137 0 213.5 -75.5t76.5 -210.5zM639 437q0 83 -42.5 129.5t-117.5 46.5q-110 0 -186.5 -96.5t-76.5 -228.5q0 -81 44.5 -126.5t120.5 -45.5
q109 0 183.5 93.5t74.5 227.5z" />
    <glyph glyph-name="Pi" unicode="&#x3a0;" horiz-adv-x="659" 
d="M739 729l-155 -729h-150l128 604h-289l-128 -604h-150l155 729h589z" />
    <glyph glyph-name="Rho" unicode="&#x3a1;" horiz-adv-x="667" 
d="M707 560q0 -120 -81 -210t-198 -90h-187l-55 -260h-150l155 729h308q101 0 154.5 -47t53.5 -122zM558 525q0 35 -25 57t-65 22h-154l-46 -219h153q64 0 100.5 38t36.5 102z" />
    <glyph glyph-name="Sigma" unicode="&#x3a3;" horiz-adv-x="612" 
d="M537 0h-542l29 135l278 230l-181 229l29 135h541l-26 -125h-375l189 -239l-291 -240h375z" />
    <glyph glyph-name="Tau" unicode="&#x3a4;" horiz-adv-x="611" 
d="M713 729l-27 -125h-212l-129 -604h-150l129 604h-222l27 125h584z" />
    <glyph glyph-name="Upsilon" unicode="&#x3a5;" horiz-adv-x="667" 
d="M765 729l-328 -459l-58 -270h-150l58 270l-145 459h167l82 -315l207 315h167z" />
    <glyph glyph-name="Phi" unicode="&#x3a6;" horiz-adv-x="761" 
d="M739 365q-13 -61 -57.5 -111t-105.5 -80.5t-132 -41.5l-28 -132h-150l28 132q-102 17 -158.5 79.5t-37.5 153.5t102.5 153t192.5 79l28 132h150l-28 -132q102 -17 158.5 -79t37.5 -153zM599 365q9 42 -13.5 71t-67.5 43l-49 -229q50 14 85.5 43.5t44.5 71.5zM368 479
q-50 -14 -85.5 -43t-44.5 -71t13.5 -71.5t67.5 -43.5z" />
    <glyph glyph-name="Chi" unicode="&#x3a7;" horiz-adv-x="667" 
d="M615 0h-179l-90 249l-189 -249h-175l310 367l-145 362h178l79 -236l183 236h175l-303 -357z" />
    <glyph glyph-name="Psi" unicode="&#x3a8;" horiz-adv-x="744" 
d="M759 540q-24 -113 -109.5 -202t-195.5 -116l-47 -222h-150l47 222q-98 27 -146 116t-23 202l40 189h140l-40 -189q-14 -61 1.5 -114t54.5 -79l81 382h150l-81 -382q50 26 87.5 79t50.5 114l40 189h140z" />
    <glyph glyph-name="Omega" unicode="&#x3a9;" horiz-adv-x="770" 
d="M722 125l-27 -125h-292l53 247q63 25 106.5 89t43.5 134q0 63 -35.5 104.5t-94.5 41.5q-82 0 -146 -74t-64 -162q0 -46 19 -81.5t54 -51.5l-52 -247h-292l27 125h141l14 64q-63 69 -63 170q0 98 56.5 187.5t146 142t185.5 52.5q112 0 184 -71.5t72 -178.5
q0 -87 -45 -166.5t-119 -135.5l-14 -64h142z" />
    <glyph glyph-name="alpha" unicode="&#x3b1;" horiz-adv-x="776" 
d="M684 36l-127 -72q-19 44 -29 131q-108 -91 -219 -91q-116 0 -188 66.5t-50 169.5q26 122 128.5 209t222.5 87q116 0 175 -115q45 104 90 155l96 -72q-40 -47 -85.5 -148.5t-54.5 -117.5q12 -134 41 -202zM512 241q-3 38 -9 66.5t-18 56.5t-34 43t-53 15q-65 0 -118 -54
t-69 -128q-12 -53 25 -87.5t97 -34.5q50 0 97 34.5t82 88.5z" />
    <glyph glyph-name="beta" unicode="&#x3b2;" horiz-adv-x="681" 
d="M625 277q0 -119 -84 -202.5t-194 -83.5q-80 0 -137 46l-57 -267h-140l168 788q17 78 89 124.5t177 46.5q91 0 146.5 -40.5t55.5 -106.5q0 -58 -33 -104.5t-89 -66.5q47 -11 72.5 -46t25.5 -88zM482 251q0 98 -113 98h-15l20 95q62 0 97 31t35 77q0 31 -24 48t-65 17
q-84 0 -101 -80l-76 -360q2 -29 23 -48t52 -19q81 0 124 39t43 102z" />
    <glyph glyph-name="gamma" unicode="&#x3b3;" horiz-adv-x="683" 
d="M697 540l-328 -549l-47 -221h-140l47 221l-95 549h147l60 -349l209 349h147z" />
    <glyph glyph-name="delta" unicode="&#x3b4;" horiz-adv-x="608" 
d="M580 226q-21 -102 -114 -168.5t-204 -66.5q-99 0 -162.5 49t-63.5 133t55.5 144.5t145.5 94.5q-50 52 -50 120q0 88 78.5 142.5t180.5 54.5q111 0 171 -83l-84 -76q-41 46 -111 46q-93 0 -93 -63q0 -14 6.5 -27t14 -21.5t25 -18.5t26 -14.5t32 -14t29.5 -12.5
q56 -25 89 -73t33 -107q0 -18 -4 -39zM427 226q1 4 1 17q0 55 -41 82q-36 0 -68.5 -6.5t-61.5 -20t-46 -37t-17 -55.5q0 -36 27.5 -55.5t70.5 -19.5q48 0 87 26t48 69z" />
    <glyph glyph-name="epsilon" unicode="&#x3b5;" horiz-adv-x="562" 
d="M464 7q-154 -38 -217 -38q-95 0 -152 57t-39 144q17 76 99 119q-56 38 -42 107q16 75 88 125t156 50q74 0 210 -40l-44 -90q-54 16 -191 16q-27 0 -50 -17.5t-29 -43.5q-3 -14 1.5 -24.5t17.5 -17t25.5 -10t35.5 -5t37 -2t40 -0.5l-19 -91q-39 0 -65 -2t-57 -9t-49.5 -23
t-23.5 -42q-7 -36 15 -61.5t60 -25.5q135 0 188 13z" />
    <glyph glyph-name="zeta" unicode="&#x3b6;" horiz-adv-x="581" 
d="M501 -45q-15 -71 -81 -118.5t-143 -47.5l22 102q22 0 39 19t23 45q5 24 -5.5 41t-31.5 17h-38q-108 0 -169.5 75t-39.5 182q23 108 95.5 201.5t175.5 155.5h-195l20 92h491l-20 -92h-95q-120 -27 -212 -128t-120 -229q-12 -58 14 -100.5t79 -42.5h39q77 0 122.5 -50
t29.5 -122z" />
    <glyph glyph-name="eta" unicode="&#x3b7;" horiz-adv-x="611" 
d="M462 -230h-140l126 590q6 29 -17 45.5t-58 16.5q-80 0 -137 -65l-76 -357h-140l115 540h140l-8 -38q65 34 130 34q92 0 149.5 -49t41.5 -127z" />
    <glyph glyph-name="theta" unicode="&#x3b8;" horiz-adv-x="565" 
d="M536 334q-28 -134 -108 -232t-185 -98q-53 0 -90.5 28t-53.5 74.5t-19.5 106t11.5 121.5q16 76 42 142.5t63 124t89 91t111 33.5q60 0 97.5 -33.5t50 -91t10.5 -124t-18 -142.5zM408 391q10 48 14 82t3 68t-14.5 52t-38.5 18t-45.5 -18t-36 -52t-26 -68t-21.5 -82h165z
M383 277h-164q-6 -35 -8 -60t1 -49.5t17 -37t38 -12.5q46 0 72 42.5t44 116.5z" />
    <glyph glyph-name="iota" unicode="&#x3b9;" horiz-adv-x="437" 
d="M338 4q-67 0 -120 15.5t-84 52.5t-20 90l81 378h140l-81 -378q-3 -16 4.5 -25.5t27 -13t34 -4.5t42.5 -1z" />
    <glyph glyph-name="kappa" unicode="&#x3ba;" 
d="M508 0h-164l-79 239l-68 -62l-38 -177h-140l115 540h140l-45 -210l223 210h159l-232 -206z" />
    <glyph glyph-name="lambda" unicode="&#x3bb;" horiz-adv-x="757" 
d="M658 0h-148l-67 335l-267 -335h-156l393 490l-7 32q-8 39 -37.5 62.5t-71.5 23.5l22 102q87 0 150.5 -39.5t77.5 -112.5z" />
    <glyph glyph-name="mu.greek" unicode="&#x3bc;" horiz-adv-x="731" 
d="M571 0h-140l7 32q-54 -28 -112 -28q-57 0 -99 28l-56 -262h-140l164 770h140l-73 -342q7 -36 30 -58t59 -22q72 0 122 80l73 342h140z" />
    <glyph glyph-name="nu" unicode="&#x3bd;" horiz-adv-x="619" 
d="M626 360q-28 -128 -122 -234.5t-224 -155.5l-83 40l-93 530h147l74 -405q62 40 104.5 99t56.5 126q19 96 29 180h140q-10 -84 -29 -180z" />
    <glyph glyph-name="xi" unicode="&#x3be;" horiz-adv-x="611" 
d="M501 -45q-15 -71 -81 -118.5t-143 -47.5l22 102q22 0 39 19t23 45q5 24 -5.5 41t-31.5 17h-38q-107 0 -171.5 64t-44.5 161q23 102 132 163q-78 51 -58 138q10 52 51 88h-42l20 92h491l-20 -92h-236q-109 -18 -124 -88q-10 -44 30.5 -63.5t104.5 -19.5l-22 -102
q-65 0 -120.5 -31.5t-66.5 -84.5q-10 -47 20 -79t80 -32h39q77 0 122.5 -50t29.5 -122z" />
    <glyph glyph-name="omicron" unicode="&#x3bf;" horiz-adv-x="611" 
d="M594 349q0 -159 -92 -258.5t-240 -99.5q-100 0 -159.5 51.5t-59.5 141.5q0 157 92.5 261t237.5 104q103 0 162 -53.5t59 -146.5zM451 320q0 53 -27 85t-73 32q-68 0 -116.5 -65t-48.5 -160q0 -52 27.5 -80.5t73.5 -28.5q69 0 116.5 63t47.5 154z" />
    <glyph glyph-name="pi" unicode="&#x3c0;" horiz-adv-x="742" 
d="M758 427h-100l-91 -427h-140l91 427h-112l-91 -427h-140l91 427q-41 0 -59.5 -26t-30.5 -81h-113q26 125 93.5 172.5t203.5 47.5h422z" />
    <glyph glyph-name="rho" unicode="&#x3c1;" horiz-adv-x="670" 
d="M627 270q-23 -111 -120.5 -188.5t-210.5 -77.5q-70 0 -128 33l-57 -267h-140l106 500q24 111 121.5 188.5t210.5 77.5t177.5 -77.5t40.5 -188.5zM487 270q14 62 -15.5 107t-86.5 45t-105.5 -45t-62.5 -107l-22 -104q46 -48 125 -48q57 0 105.5 45t61.5 107z" />
    <glyph glyph-name="uni03C2" unicode="&#x3c2;" horiz-adv-x="611" 
d="M501 -45q-15 -71 -81 -118.5t-143 -47.5l22 102q22 0 39 19t23 45q5 24 -5.5 41t-31.5 17h-38q-109 0 -169.5 76.5t-38.5 185.5q23 108 116.5 184.5t202.5 76.5q76 0 127.5 -44t56.5 -116l-127 -34q-2 35 -24.5 57.5t-56.5 22.5q-53 0 -97.5 -43.5t-57.5 -103.5
q-12 -60 13.5 -104t78.5 -44h39q77 0 122.5 -50t29.5 -122z" />
    <glyph glyph-name="sigma" unicode="&#x3c3;" horiz-adv-x="701" 
d="M736 495q-60 -26 -141 -43q25 -45 25 -103q0 -159 -92 -258.5t-240 -99.5q-100 0 -159.5 51.5t-59.5 141.5q0 157 92.5 261t237.5 104q54 0 96 -15q92 17 214 69zM477 320q0 53 -27 85t-73 32q-68 0 -116.5 -65t-48.5 -160q0 -52 27.5 -80.5t73.5 -28.5q69 0 116.5 63
t47.5 154z" />
    <glyph glyph-name="tau" unicode="&#x3c4;" horiz-adv-x="481" 
d="M382 4q-67 0 -120 15.5t-83.5 52.5t-19.5 90l53 251h-104l24 114h349l-24 -114h-105l-53 -251q-2 -11 0.5 -18.5t11.5 -12.5t17 -7.5t24.5 -4t26 -1.5h27.5z" />
    <glyph glyph-name="upsilon" unicode="&#x3c5;" horiz-adv-x="611" 
d="M564 250q-22 -102 -112 -174t-195 -72q-96 0 -156 48.5t-43 127.5l77 360h140l-77 -360q-6 -30 19.5 -46t64.5 -16q49 0 90 39t52 93q31 141 43 290h141q-12 -141 -44 -290z" />
    <glyph glyph-name="phi" unicode="&#x3c6;" horiz-adv-x="898" 
d="M855 270q-23 -110 -129 -178.5t-245 -83.5l-51 -238h-140l51 238q-133 15 -210 83.5t-54 178.5q20 91 96 162.5t175 96.5l6 -100q-51 -14 -87.5 -58.5t-49.5 -100.5q-13 -61 29.5 -98.5t118.5 -48.5l27 127q25 116 107.5 201t182.5 85q98 0 147 -79t26 -187zM715 270
q15 56 1.5 104t-58.5 48q-89 0 -126 -172l-27 -127q81 11 139 48t71 99z" />
    <glyph glyph-name="chi" unicode="&#x3c7;" horiz-adv-x="689" 
d="M540 -230h-153l-80 243l-183 -243h-153l289 385l-126 385h153l80 -243l183 243h153l-290 -385z" />
    <glyph glyph-name="psi" unicode="&#x3c8;" horiz-adv-x="778" 
d="M716 180q-12 -56 -58 -94t-104.5 -55.5t-133.5 -23.5l-50 -237h-140l50 237q-112 9 -175.5 50.5t-46.5 122.5l77 360h140l-77 -360q-6 -31 23.5 -44.5t82.5 -16.5l130 610h140l-130 -610q121 6 132 61l77 360h140z" />
    <glyph glyph-name="omega" unicode="&#x3c9;" horiz-adv-x="789" 
d="M753 301q-26 -121 -98 -209t-167 -88q-85 0 -121 75q-65 -75 -144 -75q-64 0 -102.5 43.5t-44.5 109.5t8 144q27 129 153 239h122q-103 -92 -135 -239q-6 -28 -9 -43.5t-7 -40.5t-3 -39.5t4.5 -30t13 -22.5t24.5 -7q62 0 97 90q0 73 17 152h140q-7 -35 -11.5 -56
t-9.5 -53.5t-5.5 -52.5t2 -40.5t11.5 -30t24 -9.5q18 0 33 12t24 27t18.5 44.5t14 47t11.5 52.5q32 146 -34 239h123q78 -112 51 -239z" />
    <glyph glyph-name="uni03D1" unicode="&#x3d1;" horiz-adv-x="671" 
d="M653 386l-60 1l-44 -207q-17 -84 -101.5 -136.5t-183.5 -52.5t-161 52.5t-45 136.5l39 180h140l-39 -180q-6 -29 21 -39t74 -10q106 0 116 49l45 210q-71 5 -123.5 15t-96 31t-61.5 57.5t-7 87.5q18 82 96 138t168 56q101 0 159 -68.5t37 -166.5l-13 -62h60zM486 540
q12 58 -8 100.5t-67 42.5q-45 0 -84 -29.5t-49 -72.5q-18 -84 195 -99z" />
    <glyph glyph-name="uni03D5" unicode="&#x3d5;" horiz-adv-x="730" 
d="M687 270q-21 -99 -103 -174t-188 -97l-48 -229h-143l48 229q-96 22 -146.5 97t-29.5 174t103.5 174t187.5 97l40 188h144l-40 -188q96 -22 146 -97t29 -174zM547 270q9 42 -9.5 75.5t-56.5 49.5l-54 -250q46 16 78.5 49.5t41.5 75.5zM337 395q-45 -16 -78 -49.5
t-42 -75.5t10 -75.5t57 -49.5z" />
    <glyph glyph-name="uni03D6" unicode="&#x3d6;" horiz-adv-x="789" 
d="M753 301q-26 -121 -98 -209t-167 -88q-85 0 -121 75q-65 -75 -144 -75q-64 0 -102.5 43.5t-44.5 109.5t8 144q27 129 153 239h122q-103 -92 -135 -239q-6 -28 -9 -43.5t-7 -40.5t-3 -39.5t4.5 -30t13 -22.5t24.5 -7q62 0 97 90q0 73 17 152h140q-7 -35 -11.5 -56
t-9.5 -53.5t-5.5 -52.5t2 -40.5t11.5 -30t24 -9.5q18 0 33 12t24 27t18.5 44.5t14 47t11.5 52.5q13 61 20 105t8.5 96t-8 85t-35.5 55.5t-69 22.5q-121 0 -249 -67l-27 73q137 73 293 73q72 0 123 -38t73 -100t26.5 -142t-15.5 -163z" />
    <glyph glyph-name="epsilon.alt" unicode="&#x3f5;" 
d="M500 135q-71 -144 -245 -144q-103 0 -160 51.5t-57 136.5q0 71 27.5 146t72.5 129q78 95 220 95q80 0 134 -40.5t63 -103.5h-149q-15 32 -69 32q-46 0 -80.5 -31.5t-54.5 -84.5h197l-22 -102h-195l-1 -20q0 -51 22.5 -73.5t68.5 -22.5q57 0 85 32h143z" />
    <glyph glyph-name="uni0400" unicode="&#x400;" horiz-adv-x="666" 
d="M505 801h-63l-101 150h119zM611 125l-27 -125h-545l155 729h527l-27 -125h-377l-35 -165h349l-26 -125h-349l-40 -189h395z" />
    <glyph glyph-name="afii10023" unicode="&#x401;" horiz-adv-x="666" 
d="M611 125l-27 -125h-545l155 729h527l-27 -125h-377l-35 -165h349l-26 -125h-349l-40 -189h395zM463 922l-26 -122h-110l26 122h110zM649 922l-26 -122h-110l26 122h110z" />
    <glyph glyph-name="afii10051" unicode="&#x402;" horiz-adv-x="807" 
d="M766 215l-46 -215q-8 -39 -20 -65.5t-34.5 -51.5t-61 -37t-93.5 -12h-104l22 107h55q46 0 63 14.5t23 44.5l48 224q6 34 6 47q0 29 -19 44t-67 15h-163l-70 -330h-150l128 604h-181l27 125h504l-27 -125h-173l-32 -149h164q209 0 209 -166q0 -32 -8 -74z" />
    <glyph glyph-name="afii10052" unicode="&#x403;" horiz-adv-x="611" 
d="M654 951l-158 -150h-70l102 150h126zM701 729l-27 -125h-362l-128 -604h-150l155 729h512z" />
    <glyph glyph-name="afii10053" unicode="&#x404;" horiz-adv-x="737" 
d="M743 469h-146q2 18 2 25q0 58 -34.5 89.5t-97.5 31.5q-78 0 -137 -54.5t-89 -153.5h292l-27 -125h-291v-9q0 -79 39 -123.5t110 -44.5q81 0 134 53q26 26 50 78h143q-27 -90 -80 -144q-112 -115 -279 -115q-127 0 -196.5 70.5t-69.5 197.5q0 132 56.5 246t154.5 182
t213 68q120 0 188.5 -59t68.5 -161q0 -28 -4 -52z" />
    <glyph glyph-name="afii10054" unicode="&#x405;" horiz-adv-x="667" 
d="M562 213q-23 -111 -115.5 -173.5t-233.5 -62.5q-140 0 -204.5 62t-46.5 179h146q-9 -59 26.5 -90t111.5 -31q68 0 113 26t55 72q10 44 -16 68t-98 38l-98 20q-106 21 -143.5 66t-19.5 130q23 107 107.5 165.5t215.5 58.5q160 0 218 -83q39 -58 18 -151h-140
q8 56 -24.5 85t-103.5 29q-58 0 -97.5 -24.5t-47.5 -65.5q-9 -40 15.5 -59.5t101.5 -35.5l110 -22q97 -20 132.5 -67.5t17.5 -133.5z" />
    <glyph glyph-name="afii10055" unicode="&#x406;" horiz-adv-x="278" 
d="M96 0h-150l154 729h150z" />
    <glyph glyph-name="afii10056" unicode="&#x407;" horiz-adv-x="278" 
d="M178 921l-26 -120h-110l26 120h110zM364 921l-26 -120h-110l26 120h110zM96 0h-150l154 729h150z" />
    <glyph glyph-name="afii10057" unicode="&#x408;" 
d="M526 729l-115 -539q-22 -102 -94.5 -157.5t-184.5 -55.5q-103 0 -155 58q-48 57 -26 163l15 72h150l-15 -70q-10 -50 4 -72.5t57 -22.5q82 0 99 85l115 539h150z" />
    <glyph glyph-name="afii10058" unicode="&#x409;" horiz-adv-x="1031" 
d="M1003 296q0 -128 -81 -212t-210 -84h-322l128 604h-222l-40 -190q-88 -414 -327 -414l30 145q51 -1 87.5 77t69.5 239l56 268h523l-55 -260h187q83 0 129.5 -46t46.5 -127zM851 270q0 74 -98 74h-140l-46 -219h140q68 0 106 40.5t38 104.5z" />
    <glyph glyph-name="afii10059" unicode="&#x40a;" horiz-adv-x="1088" 
d="M1003 294q0 -128 -81 -211t-210 -83h-322l73 342h-289l-73 -342h-150l154 729h150l-55 -262h288l55 262h151l-55 -260h187q84 0 130.5 -46.5t46.5 -128.5zM850 270q0 74 -97 74h-140l-47 -219h140q68 0 106 40.5t38 104.5z" />
    <glyph glyph-name="afii10060" unicode="&#x40b;" horiz-adv-x="787" 
d="M746 215l-46 -215h-150l48 224q6 34 6 47q0 29 -19 44t-67 15h-143l-70 -330h-150l128 604h-181l27 125h504l-27 -125h-173l-32 -149h144q209 0 209 -166q0 -32 -8 -74z" />
    <glyph glyph-name="afii10061" unicode="&#x40c;" horiz-adv-x="720" 
d="M704 951l-158 -150h-70l102 150h126zM685 0h-187l-253 285l-61 -285h-150l155 729h150l-59 -279l344 279h177l-441 -351z" />
    <glyph glyph-name="uni040D" unicode="&#x40d;" horiz-adv-x="722" 
d="M527 801h-63l-101 150h119zM776 729l-155 -729h-150l107 504l-400 -504h-150l155 729h150l-105 -496l394 496h154z" />
    <glyph glyph-name="afii10062" unicode="&#x40e;" horiz-adv-x="698" 
d="M629 944q-11 -62 -56.5 -102.5t-104.5 -40.5q-47 0 -76.5 29t-29.5 75q0 17 6 39h42v-8q0 -27 19.5 -42t54.5 -15q77 0 103 65h42zM793 729l-523 -729h-174l162 226l-146 503h163l99 -345l245 345h174z" />
    <glyph glyph-name="afii10145" unicode="&#x40f;" horiz-adv-x="722" 
d="M711 729l-155 -729h-230l-31 -150h-130l31 150h-230l155 729h150l-128 -604h290l128 604h150z" />
    <glyph glyph-name="afii10017" unicode="&#x410;" horiz-adv-x="722" 
d="M663 0h-153l-18 147h-273l-80 -147h-153l414 729h166zM478 272l-35 285l-155 -285h190z" />
    <glyph glyph-name="afii10018" unicode="&#x411;" horiz-adv-x="722" 
d="M675 252q0 -121 -110 -199q-74 -53 -195 -53h-328l155 729h512l-27 -125h-362l-35 -165h163q53 0 94.5 -12t66 -31t40 -44.5t21 -49.5t5.5 -50zM532 245q0 69 -94 69h-179l-40 -189h179q60 0 97 33t37 87z" />
    <glyph glyph-name="afii10019" unicode="&#x412;" horiz-adv-x="723" 
d="M675 247q0 -57 -31 -108.5t-78 -85.5q-74 -53 -196 -53h-328l155 729h325q111 0 161 -53q40 -43 40 -105q0 -63 -36.5 -113.5t-98.5 -70.5q87 -35 87 -140zM575 542q0 62 -91 62h-163l-35 -165h163q57 0 91.5 28.5t34.5 74.5zM532 245q0 69 -94 69h-179l-40 -189h179
q60 0 97 33t37 87z" />
    <glyph glyph-name="afii10020" unicode="&#x413;" horiz-adv-x="611" 
d="M701 729l-27 -125h-362l-128 -604h-150l155 729h512z" />
    <glyph glyph-name="afii10021" unicode="&#x414;" horiz-adv-x="918" 
d="M740 -150h-130l31 150h-570l-31 -150h-130l54 258h102q40 0 87 99.5t79 253.5l57 268h522l-132 -621h115zM635 604h-222l-41 -190q-40 -191 -108 -289h269z" />
    <glyph glyph-name="afii10022" unicode="&#x415;" horiz-adv-x="666" 
d="M611 125l-27 -125h-545l155 729h527l-27 -125h-377l-35 -165h349l-26 -125h-349l-40 -189h395z" />
    <glyph glyph-name="afii10024" unicode="&#x416;" horiz-adv-x="1054" 
d="M1038 0h-179l-213 285l-61 -285h-150l61 285l-335 -285h-179l437 378l-238 351h164l186 -279l59 279h150l-59 -279l304 279h164l-388 -351z" />
    <glyph glyph-name="afii10025" unicode="&#x417;" horiz-adv-x="659" 
d="M637 268q0 -150 -97.5 -220.5t-257.5 -70.5q-124 0 -189.5 50t-65.5 143q0 25 4 48h146q-2 -14 -2 -21q0 -48 37 -74t104 -26q76 0 123 33.5t47 92.5q0 85 -115 85h-102l25 120h76q79 0 120.5 33t41.5 81q0 34 -29.5 56.5t-79.5 22.5q-145 0 -177 -114h-140q20 95 83 151
q92 83 253 83q113 0 173.5 -44t60.5 -126q0 -62 -27.5 -114t-71.5 -80q60 -37 60 -109z" />
    <glyph glyph-name="afii10026" unicode="&#x418;" horiz-adv-x="722" 
d="M776 729l-155 -729h-150l107 504l-400 -504h-150l155 729h150l-105 -496l394 496h154z" />
    <glyph glyph-name="afii10027" unicode="&#x419;" horiz-adv-x="722" 
d="M656 944q-11 -62 -56.5 -102.5t-104.5 -40.5q-47 0 -76.5 29t-29.5 75q0 17 6 39h42v-8q0 -27 19.5 -42t54.5 -15q77 0 103 65h42zM776 729l-155 -729h-150l107 504l-400 -504h-150l155 729h150l-105 -496l394 496h154z" />
    <glyph glyph-name="afii10028" unicode="&#x41a;" horiz-adv-x="720" 
d="M685 0h-187l-253 285l-61 -285h-150l155 729h150l-59 -279l344 279h177l-441 -351z" />
    <glyph glyph-name="afii10029" unicode="&#x41b;" horiz-adv-x="722" 
d="M540 0h-150l128 604h-222l-40 -190q-88 -414 -327 -414l30 145q51 -1 87.5 77t69.5 239l56 268h522z" />
    <glyph glyph-name="afii10030" unicode="&#x41c;" horiz-adv-x="843" 
d="M893 729l-155 -729h-150l121 568l-250 -568h-150l-10 568l-121 -568h-150l155 729h224l9 -580l251 580h226z" />
    <glyph glyph-name="afii10031" unicode="&#x41d;" horiz-adv-x="722" 
d="M772 729l-155 -729h-150l66 311h-289l-66 -311h-150l155 729h150l-62 -293h288l62 293h151z" />
    <glyph glyph-name="afii10032" unicode="&#x41e;" horiz-adv-x="778" 
d="M789 455q0 -227 -172 -377q-116 -101 -271 -101q-156 0 -227 101q-53 73 -53 183q0 228 172 379q116 101 270 101q156 0 228 -101q53 -74 53 -185zM637 438q0 82 -40.5 128.5t-114.5 46.5q-106 0 -185 -100t-79 -233q0 -82 41 -128.5t115 -46.5q104 0 183.5 100t79.5 233
z" />
    <glyph glyph-name="afii10033" unicode="&#x41f;" horiz-adv-x="722" 
d="M772 729l-155 -729h-150l128 604h-289l-128 -604h-150l155 729h589z" />
    <glyph glyph-name="afii10034" unicode="&#x420;" horiz-adv-x="649" 
d="M699 568q0 -125 -83 -216.5t-196 -91.5h-187l-55 -260h-150l155 729h322q95 0 144.5 -41t49.5 -120zM544 529q0 75 -98 75h-140l-47 -219h140q68 0 106.5 40.5t38.5 103.5z" />
    <glyph glyph-name="afii10035" unicode="&#x421;" horiz-adv-x="837" 
d="M697 249q-34 -125 -133.5 -198.5t-235.5 -73.5q-125 0 -193.5 70.5t-68.5 195.5q0 209 124.5 353.5t303.5 144.5q167 0 231 -115q22 -41 22 -91q0 -15 -4 -53h-143q-1 51 -16 78q-32 53 -112 53q-107 0 -181 -103t-74 -246q0 -77 36.5 -119t104.5 -42q70 0 120.5 38
t72.5 108h146z" />
    <glyph glyph-name="afii10036" unicode="&#x422;" horiz-adv-x="611" 
d="M713 729l-27 -125h-213l-128 -604h-150l128 604h-221l27 125h584z" />
    <glyph glyph-name="afii10037" unicode="&#x423;" horiz-adv-x="698" 
d="M793 729l-523 -729h-174l162 226l-146 503h163l99 -345l245 345h174z" />
    <glyph glyph-name="afii10038" unicode="&#x424;" horiz-adv-x="902" 
d="M833 449q0 -99 -33.5 -170.5t-93 -110.5t-129 -56.5t-153.5 -17.5l-20 -94h-150l20 94q-36 0 -60.5 1t-57.5 5.5t-55.5 12t-46.5 22t-38 35.5t-23.5 52t-9.5 70q0 346 406 346l20 91h150l-20 -91q41 0 68.5 -1.5t66 -7t63.5 -18t49 -32.5t35.5 -53t11.5 -77zM294 188
l74 352q-251 0 -251 -235q0 -22 3.5 -39.5t12.5 -29.5t16.5 -20.5t24.5 -14t25.5 -8.5t31 -4t30.5 -1h33zM695 422q0 28 -7 49t-22.5 33.5t-29.5 20t-38.5 11t-39 4t-40.5 0.5l-74 -352q120 0 185.5 53.5t65.5 180.5z" />
    <glyph glyph-name="afii10039" unicode="&#x425;" horiz-adv-x="664" 
d="M582 0h-168l-84 223l-174 -223h-174l289 370l-138 359h178l76 -220l180 220h167l-294 -362z" />
    <glyph glyph-name="afii10040" unicode="&#x426;" horiz-adv-x="730" 
d="M780 108l-55 -258h-130l32 150h-599l155 729h150l-128 -604h289l128 604h150l-132 -621h140z" />
    <glyph glyph-name="afii10041" unicode="&#x427;" horiz-adv-x="671" 
d="M721 729l-155 -729h-150l58 274h-144q-209 0 -209 166q0 32 8 74l46 215h150l-48 -224q-6 -34 -6 -47q0 -29 19 -44t67 -15h143l70 330h151z" />
    <glyph glyph-name="afii10042" unicode="&#x428;" horiz-adv-x="1101" 
d="M1151 729l-155 -729h-968l155 729h150l-128 -604h259l128 604h150l-128 -604h259l128 604h150z" />
    <glyph glyph-name="afii10043" unicode="&#x429;" horiz-adv-x="1179" 
d="M1159 108l-55 -258h-130l32 150h-978l155 729h150l-128 -604h259l128 604h150l-128 -604h259l128 604h150l-132 -621h140z" />
    <glyph glyph-name="afii10044" unicode="&#x42a;" horiz-adv-x="816" 
d="M816 296q0 -128 -81 -212t-210 -84h-322l129 604h-230l26 125h380l-55 -260h187q83 0 129.5 -46t46.5 -127zM664 270q0 74 -98 74h-140l-46 -219h140q68 0 106 40.5t38 104.5z" />
    <glyph glyph-name="afii10045" unicode="&#x42b;" horiz-adv-x="939" 
d="M997 729l-155 -729h-150l155 729h150zM639 296q0 -128 -81 -212t-210 -84h-322l155 729h150l-55 -260h187q83 0 129.5 -46t46.5 -127zM487 270q0 74 -98 74h-140l-46 -219h140q68 0 106 40.5t38 104.5z" />
    <glyph glyph-name="afii10046" unicode="&#x42c;" horiz-adv-x="639" 
d="M639 296q0 -128 -81 -212t-210 -84h-322l155 729h150l-55 -260h187q83 0 129.5 -46t46.5 -127zM487 270q0 74 -98 74h-140l-46 -219h140q68 0 106 40.5t38 104.5z" />
    <glyph glyph-name="afii10047" unicode="&#x42d;" horiz-adv-x="737" 
d="M747 473q0 -132 -56.5 -246t-154.5 -182t-213 -68q-120 0 -188.5 59t-68.5 161q0 28 4 52h146q-2 -18 -2 -25q0 -58 34.5 -89.5t97.5 -31.5q78 0 137 54.5t89 153.5h-292l27 125h291v9q0 79 -39 123.5t-110 44.5q-81 0 -134 -53q-26 -26 -50 -78h-143q27 90 80 144
q112 115 279 115q127 0 196.5 -70.5t69.5 -197.5z" />
    <glyph glyph-name="afii10048" unicode="&#x42e;" horiz-adv-x="1087" 
d="M1098 457q0 -230 -172 -379q-114 -101 -270 -101q-155 0 -228 101q-52 72 -52 180q0 26 3 53h-136l-67 -311h-150l155 729h150l-62 -293h139q47 123 140 204q115 101 269 101q156 0 229 -101q52 -73 52 -183zM947 439q0 82 -41 128t-115 46q-106 0 -185 -100t-79 -233
q0 -82 41 -128.5t115 -46.5q107 0 185.5 100t78.5 234z" />
    <glyph glyph-name="afii10049" unicode="&#x42f;" horiz-adv-x="690" 
d="M748 729l-155 -729h-150l55 260h-33l-304 -260h-179l301 261q-70 7 -109 51.5t-39 122.5q0 127 81 210.5t210 83.5h322zM525 385l46 219h-140q-68 0 -106 -40.5t-38 -104.5q0 -74 98 -74h140z" />
    <glyph glyph-name="afii10065" unicode="&#x430;" horiz-adv-x="554" 
d="M482 0h-152q-9 15 -9 27q0 5 4 27q-91 -77 -180 -77q-57 0 -95.5 31t-38.5 89q0 86 52.5 140.5t147.5 71.5l58 10q72 12 99.5 27t27.5 49q0 41 -71 41q-52 0 -76.5 -16t-38.5 -58h-135q52 187 271 187q190 0 190 -123q0 -18 -5 -43l-64 -300q-2 -16 -2 -20q0 -23 20 -46z
M359 217l8 38q-21 -10 -63 -17l-49 -9q-98 -20 -98 -90q0 -23 17 -36t47 -13q51 0 88 33.5t50 93.5z" />
    <glyph glyph-name="afii10066" unicode="&#x431;" horiz-adv-x="611" 
d="M569 342q0 -152 -95 -258.5t-234 -106.5q-204 0 -204 199q0 80 27.5 178.5t85.5 193.5t132 136q15 8 32.5 14t41.5 10t39.5 6.5t45.5 5.5l40 4q21 3 37 16t21 24l5 12l104 1q-6 -28 -10.5 -43t-16.5 -36t-30 -32q-47 -30 -130 -36t-131 -38q-24 -16 -49 -46.5t-38 -53.5
l-13 -22q66 79 165 79q49 0 90 -23.5t61 -63.5q24 -50 24 -120zM427 319q0 52 -23.5 82.5t-64.5 30.5q-63 0 -112 -69t-49 -157q0 -52 23.5 -82t65.5 -30q63 0 111.5 69.5t48.5 155.5z" />
    <glyph glyph-name="afii10067" unicode="&#x432;" horiz-adv-x="616" 
d="M536 182q0 -78 -64.5 -130t-160.5 -52h-291l115 540h278q72 0 110.5 -30t38.5 -87q0 -105 -90 -137q64 -31 64 -104zM423 393q0 37 -66 37h-106l-20 -97h106q44 0 65 14t21 46zM399 183q0 40 -70 40h-122l-24 -113h122q94 0 94 73z" />
    <glyph glyph-name="afii10068" unicode="&#x433;" horiz-adv-x="475" 
d="M459 427h-208l-91 -427h-140l115 540h348z" />
    <glyph glyph-name="afii10069" unicode="&#x434;" horiz-adv-x="804" 
d="M642 -125h-110l27 125h-484l-27 -125h-110l48 226h96q36 1 72 73.5t49 133.5l50 232h439l-94 -439h92zM528 427h-159l-28 -131q-29 -129 -78 -183h198z" />
    <glyph glyph-name="afii10070" unicode="&#x435;" horiz-adv-x="552" 
d="M535 250q-1 -11 -6 -24h-362q-6 -39 -6 -60q0 -40 24.5 -61t63.5 -21q79 0 122 68h138q-41 -80 -119 -127.5t-169 -47.5q-94 0 -145.5 51t-51.5 144q0 152 94.5 264.5t227.5 112.5q92 0 146.5 -50.5t54.5 -144.5q0 -48 -12 -104zM404 319q2 22 2 30q0 93 -85 93
q-91 0 -132 -123h215z" />
    <glyph glyph-name="afii10072" unicode="&#x436;" horiz-adv-x="775" 
d="M748 0h-179l-95 198l-42 -198h-140l42 198l-179 -198h-179l276 296l-125 244h148l92 -189l40 189h140l-40 -189l172 189h148l-229 -244z" />
    <glyph glyph-name="afii10073" unicode="&#x437;" 
d="M515 196q0 -97 -80 -158t-199 -61q-108 0 -164 36.5t-56 105.5q0 19 4 38h137v-8q0 -27 15.5 -41.5t33.5 -17.5t46 -3q118 0 118 76q0 45 -71 45h-92l24 110h89q81 0 81 73q0 20 -20 34t-52 14q-95 0 -111 -73h-135q20 86 90.5 134.5t178.5 48.5q89 0 138.5 -37
t49.5 -103q0 -46 -17 -82.5t-47 -55.5q39 -29 39 -75z" />
    <glyph glyph-name="afii10074" unicode="&#x438;" horiz-adv-x="636" 
d="M618 540l-115 -540h-140l73 343l-261 -343h-155l115 540h140l-73 -343l261 343h155z" />
    <glyph glyph-name="afii10075" unicode="&#x439;" horiz-adv-x="636" 
d="M551 754q-11 -62 -56.5 -102.5t-104.5 -40.5q-47 0 -76.5 29t-29.5 75q0 17 6 39h42v-8q0 -27 19.5 -42t54.5 -15q77 0 103 65h42zM618 540l-115 -540h-140l73 343l-261 -343h-155l115 540h140l-73 -343l261 343h155z" />
    <glyph glyph-name="afii10076" unicode="&#x43a;" horiz-adv-x="529" 
d="M508 0h-182l-125 198l-42 -198h-140l115 540h140l-40 -189l202 189h148l-266 -244z" />
    <glyph glyph-name="afii10077" unicode="&#x43b;" horiz-adv-x="608" 
d="M446 0h-140l90 427h-159l-27 -131q-27 -131 -98 -213.5t-180 -82.5l28 135q21 0 38.5 11t28 25t20 41t14 45t11.5 51l49 232h439z" />
    <glyph glyph-name="afii10078" unicode="&#x43c;" horiz-adv-x="697" 
d="M679 540l-115 -540h-140l55 257l-136 -183h-70l-58 183l-55 -257h-140l115 540h140l73 -278l191 278h140z" />
    <glyph glyph-name="afii10079" unicode="&#x43d;" horiz-adv-x="636" 
d="M618 540l-115 -540h-140l53 237h-203l-53 -237h-140l115 540h140l-40 -188h203l40 188h140z" />
    <glyph glyph-name="afii10080" unicode="&#x43e;" horiz-adv-x="611" 
d="M595 345q0 -154 -97.5 -261t-239.5 -107q-104 0 -160 53.5t-56 150.5q0 153 98 260.5t238 107.5q105 0 161 -53t56 -151zM451 319q0 55 -25 86t-71 31q-67 0 -118.5 -69.5t-51.5 -159.5q0 -54 26 -85.5t71 -31.5q67 0 118 69.5t51 159.5z" />
    <glyph glyph-name="afii10081" unicode="&#x43f;" horiz-adv-x="636" 
d="M618 540l-115 -540h-140l91 427h-203l-91 -427h-140l115 540h483z" />
    <glyph glyph-name="afii10082" unicode="&#x440;" horiz-adv-x="611" 
d="M564 345q0 -147 -91 -258t-205 -111q-100 0 -132 88l-60 -282h-140l162 758h140l-17 -80q68 89 169 89q49 0 89.5 -23.5t59.5 -61.5q25 -50 25 -119zM421 320q0 52 -23 82t-65 30q-63 0 -112 -70t-49 -157q0 -52 23.5 -82t65.5 -30q62 0 111 69.5t49 157.5z" />
    <glyph glyph-name="afii10083" unicode="&#x441;" horiz-adv-x="554" 
d="M520 187q-30 -97 -105.5 -153.5t-173.5 -56.5t-151 52t-53 144q0 154 94.5 265t232.5 111q91 0 141 -45.5t50 -126.5q0 -18 -3 -39h-134q-1 53 -18.5 75.5t-60.5 22.5q-62 0 -97 -46q-26 -34 -44 -87t-18 -106q0 -107 86 -107q40 0 67.5 22t52.5 75h134z" />
    <glyph glyph-name="afii10084" unicode="&#x442;" horiz-adv-x="454" 
d="M471 427h-135l-91 -427h-140l91 427h-135l24 113h410z" />
    <glyph glyph-name="afii10085" unicode="&#x443;" horiz-adv-x="552" 
d="M599 540l-334 -641q-25 -44 -51.5 -65.5t-63.5 -35.5q-44 -17 -104 -17q-22 0 -49 4l22 105q20 -6 36 -6q37 0 72.5 27t35.5 60l-1 7l-82 562h153l45 -373l189 373h132z" />
    <glyph glyph-name="afii10086" unicode="&#x444;" horiz-adv-x="989" 
d="M942 346q0 -148 -91 -259t-205 -111q-100 0 -131 88l-60 -282h-140l60 282q-69 -88 -169 -88q-79 0 -126.5 58.5t-47.5 146.5q0 94 39 178.5t108 137t149 52.5q100 0 131 -89l55 259h140l-55 -259q70 89 169 89q49 0 90 -23.5t60 -61.5q24 -46 24 -118zM423 319
q0 52 -23 82.5t-65 30.5q-63 0 -111.5 -69.5t-48.5 -157.5q0 -51 23.5 -81.5t64.5 -30.5q63 0 111.5 68.5t48.5 157.5zM799 318q0 53 -23 83.5t-65 30.5q-63 0 -111.5 -69.5t-48.5 -157.5q0 -52 23 -82t65 -30q63 0 111.5 68t48.5 157z" />
    <glyph glyph-name="afii10087" unicode="&#x445;" horiz-adv-x="554" 
d="M601 540l-232 -273l111 -267h-162l-56 148l-118 -148h-168l234 270l-115 270h161l60 -145l118 145h167z" />
    <glyph glyph-name="afii10088" unicode="&#x446;" horiz-adv-x="662" 
d="M596 -125h-110l27 125h-493l115 540h140l-91 -427h203l91 427h140l-94 -439h120z" />
    <glyph glyph-name="afii10089" unicode="&#x447;" horiz-adv-x="606" 
d="M588 540l-115 -540h-140l35 165h-85q-196 0 -196 144q0 29 7 60l36 171h140l-38 -177q-5 -23 -5 -37q0 -24 16 -36t56 -12h93l56 262h140z" />
    <glyph glyph-name="afii10090" unicode="&#x448;" horiz-adv-x="934" 
d="M916 540l-115 -540h-781l115 540h140l-91 -427h179l91 427h140l-91 -427h182l91 427h140z" />
    <glyph glyph-name="afii10091" unicode="&#x449;" horiz-adv-x="960" 
d="M894 -125h-110l27 125h-791l114 540h140l-90 -427h179l90 427h140l-90 -427h182l90 427h140l-93 -439h120z" />
    <glyph glyph-name="afii10092" unicode="&#x44a;" horiz-adv-x="674" 
d="M644 202q0 -91 -61 -146.5t-166 -55.5h-276l90 427h-171l24 113h311l-44 -207h101q192 0 192 -131zM505 181q0 42 -79 42h-98l-24 -113h113q88 0 88 71z" />
    <glyph glyph-name="afii10093" unicode="&#x44b;" horiz-adv-x="814" 
d="M796 540l-115 -540h-140l115 540h140zM512 196q0 -90 -61.5 -143t-164.5 -53h-266l115 540h140l-44 -207h91q190 0 190 -137zM374 188q0 21 -16 28t-53 7h-97l-24 -113h97q45 0 69 21t24 57z" />
    <glyph glyph-name="afii10094" unicode="&#x44c;" horiz-adv-x="557" 
d="M527 196q0 -89 -62.5 -142.5t-163.5 -53.5h-281l115 540h140l-44 -207h106q190 0 190 -137zM389 184q0 22 -17 30.5t-53 8.5h-112l-24 -113h112q94 0 94 74z" />
    <glyph glyph-name="afii10095" unicode="&#x44d;" horiz-adv-x="575" 
d="M557 351q0 -156 -90.5 -265t-232.5 -109q-90 0 -141 47t-51 131q0 10 2 32h134q2 -52 20 -74.5t59 -22.5q44 0 79.5 30.5t56.5 86.5h-176l24 113h174q2 43 -7 70q-15 46 -77 46q-43 0 -70.5 -22.5t-50.5 -75.5h-134q28 99 102.5 155t175.5 56q99 0 151 -51t52 -147z" />
    <glyph glyph-name="afii10096" unicode="&#x44e;" horiz-adv-x="888" 
d="M871 347q0 -154 -97.5 -262t-239.5 -108q-104 0 -159.5 53.5t-55.5 150.5q0 17 1 26h-116l-44 -207h-140l115 540h140l-47 -220h116q38 108 119.5 168.5t191.5 60.5q105 0 160.5 -52.5t55.5 -149.5zM728 321q0 54 -25.5 84.5t-70.5 30.5q-67 0 -118.5 -69.5t-51.5 -159.5
q0 -54 25.5 -85.5t70.5 -31.5q67 0 118.5 70.5t51.5 160.5z" />
    <glyph glyph-name="afii10097" unicode="&#x44f;" horiz-adv-x="636" 
d="M618 540l-115 -540h-140l44 207h-44l-187 -207h-179l202 218q-48 14 -73.5 47t-25.5 79q0 88 62 142t165 54h291zM431 317l24 113h-122q-94 0 -94 -68q0 -45 70 -45h122z" />
    <glyph glyph-name="uni0450" unicode="&#x450;" horiz-adv-x="552" 
d="M390 609h-63l-101 150h119zM535 250q-1 -11 -6 -24h-362q-6 -39 -6 -60q0 -40 24.5 -61t63.5 -21q79 0 122 68h138q-41 -80 -119 -127.5t-169 -47.5q-94 0 -145.5 51t-51.5 144q0 152 94.5 264.5t227.5 112.5q92 0 146.5 -50.5t54.5 -144.5q0 -48 -12 -104zM404 319
q2 22 2 30q0 93 -85 93q-91 0 -132 -123h215z" />
    <glyph glyph-name="afii10071" unicode="&#x451;" horiz-adv-x="552" 
d="M347 729l-26 -120h-110l26 120h110zM533 729l-26 -120h-110l26 120h110zM535 250q-1 -11 -6 -24h-362q-6 -39 -6 -60q0 -40 24.5 -61t63.5 -21q79 0 122 68h138q-41 -80 -119 -127.5t-169 -47.5q-94 0 -145.5 51t-51.5 144q0 152 94.5 264.5t227.5 112.5
q92 0 146.5 -50.5t54.5 -144.5q0 -48 -12 -104zM404 319q2 22 2 30q0 93 -85 93q-91 0 -132 -123h215z" />
    <glyph glyph-name="afii10099" unicode="&#x452;" horiz-adv-x="611" 
d="M579 342l-73 -342q-28 -132 -145 -132h-81l12 58q33 0 49 18.5t24 57.5l64 291q6 31 6 48q0 76 -73 76q-48 0 -84.5 -36t-49.5 -97l-61 -284h-140l124 582h-65l17 80h65l14 67h140l-14 -67h145l-17 -80h-145l-31 -144q77 91 180 91q65 0 105 -36.5t40 -95.5q0 -27 -6 -55
z" />
    <glyph glyph-name="afii10100" unicode="&#x453;" horiz-adv-x="475" 
d="M517 759l-158 -150h-70l102 150h126zM459 427h-208l-91 -427h-140l115 540h348z" />
    <glyph glyph-name="afii10101" unicode="&#x454;" horiz-adv-x="575" 
d="M523 188q-28 -99 -102.5 -155t-175.5 -56q-99 0 -151 51t-52 147q0 156 90.5 265t232.5 109q90 0 141 -47t51 -131q0 -10 -2 -32h-134q-2 52 -20 74.5t-59 22.5q-44 0 -79.5 -30.5t-56.5 -86.5h176l-24 -113h-174q-2 -43 7 -70q15 -46 77 -46q43 0 70.5 22.5t50.5 75.5
h134z" />
    <glyph glyph-name="afii10102" unicode="&#x455;" 
d="M458 160q-17 -83 -93 -135q-69 -48 -182 -48q-123 0 -178 45.5t-39 134.5h137q0 -37 17 -51q24 -19 79 -19q49 0 79.5 14t35.5 39q4 16 -4.5 26t-33.5 18l-156 52q-59 21 -78 45q-23 33 -11 88q17 83 87 131.5t173 48.5q109 0 161 -48.5t35 -134.5h-135q7 37 -14.5 55
t-71.5 18q-37 0 -61.5 -13.5t-29.5 -36.5q-4 -16 4 -24.5t36 -17.5l166 -51q99 -31 77 -136z" />
    <glyph glyph-name="afii10103" unicode="&#x456;" horiz-adv-x="278" 
d="M282 540l-115 -540h-140l115 540h140zM322 729l-27 -125h-140l27 125h140z" />
    <glyph glyph-name="afii10104" unicode="&#x457;" horiz-adv-x="278" 
d="M282 540l-115 -540h-140l115 540h140zM193 606h-126l24 115h126zM388 606h-126l24 115h126z" />
    <glyph glyph-name="afii10105" unicode="&#x458;" horiz-adv-x="278" 
d="M325 729l-27 -125h-140l27 125h140zM285 540l-135 -634q-14 -65 -58.5 -94.5t-129.5 -29.5q-28 0 -45 5l24 111q5 -4 25 -4q23 0 34.5 10t16.5 34l128 602h140z" />
    <glyph glyph-name="afii10106" unicode="&#x459;" horiz-adv-x="860" 
d="M823 196q0 -89 -62.5 -142.5t-163.5 -53.5h-291l90 427h-159l-27 -131q-27 -131 -98 -213.5t-180 -82.5l28 135q21 0 38.5 11t28 25t20 41t14 45t11.5 51l49 232h440l-44 -207h116q190 0 190 -137zM685 184q0 22 -17 30.5t-53 8.5h-122l-24 -113h122q94 0 94 74z" />
    <glyph glyph-name="afii10107" unicode="&#x45a;" horiz-adv-x="823" 
d="M800 196q0 -89 -62.5 -142.5t-163.5 -53.5h-265l47 223h-203l-47 -223h-140l114 540h140l-44 -209h203l44 209h141l-44 -207h90q190 0 190 -137zM662 184q0 22 -17 30.5t-53 8.5h-96l-24 -113h96q94 0 94 74z" />
    <glyph glyph-name="afii10108" unicode="&#x45b;" horiz-adv-x="611" 
d="M579 342l-73 -342h-140l63 293q6 31 6 48q0 76 -73 76q-48 0 -84.5 -36t-49.5 -97l-61 -284h-140l124 582h-65l17 80h65l14 67h140l-14 -67h145l-17 -80h-145l-31 -144q77 91 180 91q65 0 105 -36.5t40 -95.5q0 -27 -6 -55z" />
    <glyph glyph-name="afii10109" unicode="&#x45c;" horiz-adv-x="529" 
d="M567 759l-158 -150h-70l102 150h126zM508 0h-182l-125 198l-42 -198h-140l115 540h140l-40 -189l202 189h148l-266 -244z" />
    <glyph glyph-name="uni045D" unicode="&#x45d;" horiz-adv-x="636" 
d="M423 609h-63l-101 150h119zM618 540l-115 -540h-140l73 343l-261 -343h-155l115 540h140l-73 -343l261 343h155z" />
    <glyph glyph-name="afii10110" unicode="&#x45e;" horiz-adv-x="552" 
d="M520 752q-11 -62 -56.5 -102.5t-104.5 -40.5q-47 0 -76.5 29t-29.5 75q0 17 6 39h42v-8q0 -27 19.5 -42t54.5 -15q77 0 103 65h42zM599 540l-334 -641q-25 -44 -51.5 -65.5t-63.5 -35.5q-44 -17 -104 -17q-22 0 -49 4l22 105q20 -6 36 -6q37 0 72.5 27t35.5 60l-1 7
l-82 562h153l45 -373l189 373h132z" />
    <glyph glyph-name="afii10193" unicode="&#x45f;" horiz-adv-x="608" 
d="M575 540l-115 -540h-187l-27 -125h-110l27 125h-187l115 540h140l-91 -427h204l91 427h140z" />
    <glyph glyph-name="uni048C" unicode="&#x48c;" horiz-adv-x="639" 
d="M487 270q0 74 -98 74h-140l-46 -219h140q68 0 106 40.5t38 104.5zM639 296q0 -128 -81 -212t-210 -84h-322l117 551h-75l17 80h75l21 98h150l-21 -98h75l-17 -80h-75l-17 -82h187q83 0 129.5 -46t46.5 -127z" />
    <glyph glyph-name="uni048D" unicode="&#x48d;" horiz-adv-x="619" 
d="M374 188q0 21 -16 28t-54 7h-97l-24 -113h97q46 0 70 20.5t24 57.5zM512 196q0 -89 -62.5 -142.5t-163.5 -53.5h-266l85 398h-73l15 80h75l13 62h140l-13 -62h83l-15 -80h-85l-14 -65h91q190 0 190 -137z" />
    <glyph glyph-name="uni048E" unicode="&#x48e;" horiz-adv-x="649" 
d="M540 494q12 56 -11 83t-83 27h-140l-47 -219h140q32 0 54 7l-59 59l69 44l56 -56q13 22 21 55zM675 283l-69 -44l-55 55q-60 -34 -131 -34h-187l-55 -260h-150l155 729h322q114 0 162 -58t25 -168q-21 -97 -79 -158z" />
    <glyph glyph-name="uni048F" unicode="&#x48f;" horiz-adv-x="611" 
d="M414 260q17 77 -5.5 124.5t-75.5 47.5t-95.5 -47t-58.5 -123q-16 -75 6.5 -122t75.5 -47q50 0 90 42l-69 69l69 44l45 -45q14 35 18 57zM563 36l-69 -44l-56 56q-80 -72 -170 -72q-100 0 -132 88l-60 -282h-140l162 758h140l-17 -80q68 89 169 89q49 0 89.5 -23.5
t59.5 -61.5q42 -80 16 -202q-18 -83 -65 -153z" />
    <glyph glyph-name="afii10050" unicode="&#x490;" horiz-adv-x="611" 
d="M583 604h-362l-129 -604h-150l155 729l362 -1l29 136h150z" />
    <glyph glyph-name="afii10098" unicode="&#x491;" horiz-adv-x="454" 
d="M443 666l-51 -239h-208l-91 -427h-140l115 540h220l27 126h128z" />
    <glyph glyph-name="uni0492" unicode="&#x492;" horiz-adv-x="611" 
d="M701 729l-27 -125h-362l-29 -135h74l-17 -80h-74l-82 -389h-150l83 389h-77l17 80h77l55 260h512z" />
    <glyph glyph-name="uni0493" unicode="&#x493;" horiz-adv-x="475" 
d="M459 427h-208l-18 -83h78l-17 -80h-78l-56 -264h-140l56 264h-82l17 80h82l42 196h348z" />
    <glyph glyph-name="uni0494" unicode="&#x494;" horiz-adv-x="611" 
d="M625 215l-46 -215q-8 -39 -20 -65.5t-34.5 -51.5t-61 -37t-93.5 -12h-104l22 107h55q46 0 63 14.5t23 44.5l48 224q6 34 6 47q0 29 -19 44t-67 15h-143l-70 -330h-150l155 729h512l-27 -125h-362l-32 -149h144q209 0 209 -166q0 -32 -8 -74z" />
    <glyph glyph-name="uni0495" unicode="&#x495;" horiz-adv-x="475" 
d="M473 112l-24 -112q-28 -132 -145 -132h-81l18 88q34 0 48.5 14.5t22.5 51.5l18 72q5 26 5 34q0 59 -61 59h-74l-40 -187h-140l115 540h348l-24 -113h-208l-25 -128h108q65 0 105 -36.5t40 -95.5q0 -27 -6 -55z" />
    <glyph glyph-name="uni0496" unicode="&#x496;" horiz-adv-x="1054" 
d="M1061 108l-55 -258h-130l32 150h-49l-213 285l-61 -285h-150l61 285l-335 -285h-179l437 378l-238 351h164l186 -279l59 279h150l-59 -279l304 279h164l-388 -351l198 -270h102z" />
    <glyph glyph-name="uni0497" unicode="&#x497;" horiz-adv-x="775" 
d="M721 -125h-110l27 125h-69l-95 198l-42 -198h-140l42 198l-179 -198h-179l276 296l-125 244h148l92 -189l40 189h140l-40 -189l172 189h148l-229 -244l99 -195h72z" />
    <glyph glyph-name="uni0498" unicode="&#x498;" horiz-adv-x="659" 
d="M637 268q0 -141 -86.5 -211.5t-230.5 -78.5q11 -5 35 -21q67 -46 67 -114q0 -35 -36 -55.5t-98 -20.5q-29 0 -77 9l-10 52q31 -11 71 -11q50 0 50 40q0 34 -34 77q-11 14 -21 22t-34 23q-101 10 -153.5 59t-52.5 132q0 25 4 48h146q-2 -14 -2 -21q0 -48 37 -74t104 -26
q76 0 123 33.5t47 92.5q0 85 -115 85h-102l25 120h76q79 0 120.5 33t41.5 81q0 34 -29.5 56.5t-79.5 22.5q-145 0 -177 -114h-140q20 95 83 151q92 83 253 83q113 0 173.5 -44t60.5 -126q0 -62 -27.5 -114t-71.5 -80q60 -37 60 -109z" />
    <glyph glyph-name="uni0499" unicode="&#x499;" 
d="M515 196q0 -89 -67.5 -148t-171.5 -69q24 -13 36 -22q67 -46 67 -114q0 -35 -36 -55.5t-98 -20.5q-29 0 -77 9l-10 52q31 -11 71 -11q50 0 50 40q0 34 -34 77q-11 14 -21 22t-34 23q-174 15 -174 140q0 19 4 38h137v-8q0 -27 15.5 -41.5t33.5 -17.5t46 -3q118 0 118 76
q0 45 -71 45h-92l24 110h89q81 0 81 73q0 20 -20 34t-52 14q-95 0 -111 -73h-135q20 86 90.5 134.5t178.5 48.5q89 0 138.5 -37t49.5 -103q0 -46 -17 -82.5t-47 -55.5q39 -29 39 -75z" />
    <glyph glyph-name="uni049A" unicode="&#x49a;" horiz-adv-x="720" 
d="M696 108l-55 -258h-130l32 150h-49l-249 285l-61 -285h-150l155 729h150l-59 -279l344 279h177l-441 -351l226 -270h110z" />
    <glyph glyph-name="uni049B" unicode="&#x49b;" horiz-adv-x="529" 
d="M481 -125h-110l27 125h-72l-125 198l-42 -198h-140l115 540h140l-40 -189l202 189h148l-266 -244l125 -195h86z" />
    <glyph glyph-name="uni049C" unicode="&#x49c;" horiz-adv-x="720" 
d="M685 0h-187l-139 157l-12 -57h-110l33 156l-25 29l-61 -285h-150l155 729h150l-59 -279l38 31l34 159h110l-11 -51l173 140h177l-385 -307l-19 -87z" />
    <glyph glyph-name="uni049D" unicode="&#x49d;" horiz-adv-x="529" 
d="M508 0h-182l-37 59l-5 -21h-90l27 128l-20 32l-42 -198h-140l115 540h140l-40 -189l33 31l28 129h90l-5 -24l56 53h148l-240 -220l-10 -49z" />
    <glyph glyph-name="uni049E" unicode="&#x49e;" horiz-adv-x="720" 
d="M685 0h-187l-253 285l-61 -285h-150l124 582h-73l17 80h73l14 67h150l-14 -67h77l-17 -80h-77l-28 -132l344 279h177l-441 -351z" />
    <glyph glyph-name="uni049F" unicode="&#x49f;" horiz-adv-x="529" 
d="M508 0h-182l-125 198l-42 -198h-140l90 422h-50l17 80h50l8 38h140l-8 -38h41l-17 -80h-41l-15 -71l202 189h148l-266 -244z" />
    <glyph glyph-name="uni04A0" unicode="&#x4a0;" horiz-adv-x="889" 
d="M854 0h-187l-253 285l-61 -285h-150l128 604h-229l26 125h380l-59 -279l344 279h177l-441 -351z" />
    <glyph glyph-name="uni04A1" unicode="&#x4a1;" horiz-adv-x="650" 
d="M629 0h-182l-125 198l-42 -198h-139l90 427h-171l24 113h311l-40 -189l202 189h148l-266 -244z" />
    <glyph glyph-name="uni04A2" unicode="&#x4a2;" horiz-adv-x="722" 
d="M770 108l-55 -258h-130l32 150h-150l66 311h-289l-66 -311h-150l155 729h150l-62 -293h288l62 293h151l-133 -621h131z" />
    <glyph glyph-name="uni04A3" unicode="&#x4a3;" horiz-adv-x="636" 
d="M586 -125h-110l27 125h-140l53 237h-203l-53 -237h-140l115 540h140l-40 -188h203l40 188h140l-94 -439h110z" />
    <glyph glyph-name="uni04A4" unicode="&#x4a4;" horiz-adv-x="992" 
d="M1082 729l-27 -125h-312l-128 -604h-148l66 311h-289l-66 -311h-150l155 729h150l-62 -293h288l61 293h462z" />
    <glyph glyph-name="uni04A5" unicode="&#x4a5;" horiz-adv-x="807" 
d="M791 427h-198l-91 -427h-139l53 237h-203l-53 -237h-140l115 540h140l-40 -188h203l39 188h338z" />
    <glyph glyph-name="uni04A6" unicode="&#x4a6;" horiz-adv-x="1067" 
d="M1059 215l-46 -215q-8 -39 -20 -65.5t-34.5 -51.5t-61 -37t-93.5 -12h-104l22 107h55q46 0 63 14.5t23 44.5l48 224q6 34 6 47q0 29 -19 44t-67 15h-143l-70 -330h-151l128 604h-289l-128 -604h-150l155 729h589l-58 -274h144q209 0 209 -166q0 -32 -8 -74z" />
    <glyph glyph-name="uni04A7" unicode="&#x4a7;" horiz-adv-x="876" 
d="M816 112l-24 -112q-28 -132 -145 -132h-81l18 88q34 0 48.5 14.5t22.5 51.5l18 72q5 26 5 34q0 59 -61 59h-74l-40 -187h-140l91 427h-203l-91 -427h-140l115 540h483l-49 -241h108q65 0 105 -36.5t40 -95.5q0 -27 -6 -55z" />
    <glyph glyph-name="uni04A8" unicode="&#x4a8;" horiz-adv-x="837" 
d="M697 249q-34 -125 -133.5 -198.5t-235.5 -73.5q-125 0 -193.5 70.5t-68.5 195.5q0 209 124.5 353.5t303.5 144.5q167 0 231 -115q22 -41 22 -91q0 -15 -4 -53h-143q-1 51 -16 78q-32 53 -112 53q-107 0 -181 -103t-74 -246q0 -77 36.5 -119t104.5 -42q70 0 120.5 38
t72.5 108h146z" />
    <glyph glyph-name="uni04A9" unicode="&#x4a9;" horiz-adv-x="554" 
d="M520 187q-30 -97 -105.5 -153.5t-173.5 -56.5t-151 52t-53 144q0 154 94.5 265t232.5 111q91 0 141 -45.5t50 -126.5q0 -18 -3 -39h-134q-1 53 -18.5 75.5t-60.5 22.5q-62 0 -97 -46q-26 -34 -44 -87t-18 -106q0 -107 86 -107q40 0 67.5 22t52.5 75h134z" />
    <glyph glyph-name="uni04AA" unicode="&#x4aa;" horiz-adv-x="837" 
d="M697 249q-31 -115 -119 -187t-209 -83q24 -13 36 -22q67 -46 67 -114q0 -35 -36 -55.5t-98 -20.5q-29 0 -77 9l-10 52q31 -11 71 -11q50 0 50 40q0 34 -34 77q-11 14 -21 22t-35 24q-103 13 -159.5 81.5t-56.5 181.5q0 209 124.5 353.5t303.5 144.5q167 0 231 -115
q22 -41 22 -91q0 -15 -4 -53h-143q-1 51 -16 78q-32 53 -112 53q-107 0 -181 -103t-74 -246q0 -77 36.5 -119t104.5 -42q70 0 120.5 38t72.5 108h146z" />
    <glyph glyph-name="uni04AB" unicode="&#x4ab;" horiz-adv-x="554" 
d="M520 187q-27 -86 -90.5 -141t-147.5 -66q17 -9 38 -23q67 -46 67 -114q0 -35 -36 -55.5t-98 -20.5q-29 0 -77 9l-10 52q31 -11 71 -11q50 0 50 40q0 34 -34 77q-11 14 -21 22t-36 24q-77 12 -118 62.5t-41 130.5q0 154 94.5 265t232.5 111q91 0 141 -45.5t50 -126.5
q0 -18 -3 -39h-134q-1 53 -18.5 75.5t-60.5 22.5q-62 0 -97 -46q-26 -34 -44 -87t-18 -106q0 -107 86 -107q40 0 67.5 22t52.5 75h134z" />
    <glyph glyph-name="uni04AC" unicode="&#x4ac;" horiz-adv-x="611" 
d="M713 729l-27 -125h-213l-106 -496h131l-55 -258h-130l32 150h-150l128 604h-221l27 125h584z" />
    <glyph glyph-name="uni04AD" unicode="&#x4ad;" horiz-adv-x="454" 
d="M471 427h-135l-70 -326h110l-48 -226h-110l27 125h-140l91 427h-135l24 113h410z" />
    <glyph glyph-name="uni04AE" unicode="&#x4ae;" horiz-adv-x="667" 
d="M765 729l-328 -459l-58 -270h-150l58 270l-145 459h167l82 -315l207 315h167z" />
    <glyph glyph-name="uni04AF" unicode="&#x4af;" horiz-adv-x="667" 
d="M683 540l-266 -459l-38 -270h-150l38 270l-147 459h167l74 -322l154 322h168z" />
    <glyph glyph-name="uni04B0" unicode="&#x4b0;" horiz-adv-x="667" 
d="M765 729l-327 -459l-4 -21h200l-22 -104h-200l-30 -145h-150l30 145h-200l22 104h200l4 21l-146 459h167l82 -322l206 322h168z" />
    <glyph glyph-name="uni04B1" unicode="&#x4b1;" horiz-adv-x="667" 
d="M604 -23h-200l-24 -166h-150l24 166h-200l14 104h200l-148 459h167l74 -322l154 322h168l-265 -459h200z" />
    <glyph glyph-name="uni04B2" unicode="&#x4b2;" horiz-adv-x="664" 
d="M636 108l-55 -258h-130l32 150h-48l-86 253l-193 -253h-174l308 367l-145 362h178l77 -240l185 240h174l-301 -357l110 -264h68z" />
    <glyph glyph-name="uni04B3" unicode="&#x4b3;" horiz-adv-x="554" 
d="M469 -125h-110l27 125h-59l-55 168l-128 -168h-168l238 272l-119 268h168l53 -163l122 163h168l-233 -268l76 -171h68z" />
    <glyph glyph-name="uni04B4" unicode="&#x4b4;" horiz-adv-x="864" 
d="M914 108l-55 -258h-130l32 150h-598l128 604h-189l25 125h522l-25 -125h-183l-102 -479h289l128 604h150l-132 -621h140z" />
    <glyph glyph-name="uni04B5" unicode="&#x4b5;" horiz-adv-x="727" 
d="M661 -125h-110l27 125h-493l91 427h-115l24 113h370l-24 -113h-115l-67 -314h203l91 427h140l-94 -439h120z" />
    <glyph glyph-name="uni04B6" unicode="&#x4b6;" horiz-adv-x="743" 
d="M729 108l-55 -258h-130l32 150h-160l58 274h-144q-209 0 -209 166q0 32 8 74l46 215h150l-48 -224q-6 -34 -6 -47q0 -29 19 -44t67 -15h143l70 330h151l-132 -621h140z" />
    <glyph glyph-name="uni04B7" unicode="&#x4b7;" horiz-adv-x="606" 
d="M566 -125h-110l27 125h-150l35 165h-85q-196 0 -196 144q0 29 7 60l36 171h140l-38 -177q-5 -23 -5 -37q0 -24 16 -36t56 -12h93l56 262h140l-93 -439h119z" />
    <glyph glyph-name="uni04B8" unicode="&#x4b8;" horiz-adv-x="671" 
d="M721 729l-155 -729h-150l58 274h-66l-31 -144h-99l31 144q-188 8 -188 166q0 32 8 74l46 215h150l-48 -224q-6 -34 -6 -47q0 -52 65 -58l31 150h99l-32 -151h66l70 330h151z" />
    <glyph glyph-name="uni04B9" unicode="&#x4b9;" horiz-adv-x="606" 
d="M588 540l-115 -540h-140l35 165h-49l-20 -95h-79l21 97q-154 15 -154 142q0 29 7 60l36 171h140l-38 -177q-5 -23 -5 -37q0 -37 38 -45l19 89h79l-20 -92h49l56 262h140z" />
    <glyph glyph-name="uni04BA" unicode="&#x4ba;" horiz-adv-x="671" 
d="M667 0h-150l47 224q6 25 6 47q0 29 -18.5 44t-66.5 15h-143l-70 -330h-151l155 729h150l-58 -274h144q209 0 209 -166q0 -35 -9 -74z" />
    <glyph glyph-name="uni04BB" unicode="&#x4bb;" horiz-adv-x="606" 
d="M545 0h-140l38 177q5 23 5 37q0 24 -16 36t-56 12h-93l-56 -262h-140l115 540h140l-35 -165h85q196 0 196 -144q0 -29 -7 -60z" />
    <glyph glyph-name="uni04BC" unicode="&#x4bc;" horiz-adv-x="837" 
d="M595 482q-1 51 -16 78q-32 53 -112 53q-60 0 -112 -35t-87 -96h327zM734 365h-511q-11 -50 -11 -101q0 -77 36.5 -119t104.5 -42q70 0 120.5 38t72.5 108h146q-34 -125 -133.5 -198.5t-235.5 -73.5q-125 0 -193.5 70.5t-68.5 195.5q0 66 13 122q-49 2 -87.5 18t-60.5 41
t-33.5 52.5t-11.5 55.5q0 93 56.5 159.5t139.5 66.5q54 0 84 -27.5t30 -76.5q0 -15 -1 -23h-81q0 32 -10.5 45.5t-36.5 13.5q-38 0 -58 -28q-38 -48 -38 -116q0 -64 53 -64h93q55 118 155.5 188.5t221.5 70.5q167 0 231 -115q27 -50 27 -108q0 -99 -13 -153z" />
    <glyph glyph-name="uni04BD" unicode="&#x4bd;" horiz-adv-x="552" 
d="M404 339l1 6q1 0 1 4q0 93 -85 93q-44 0 -73.5 -26t-52.5 -77h209zM538 270q-2 -10 -6 -24h-362q-9 -21 -9 -80q0 -40 24.5 -61t63.5 -21q79 0 122 68h138q-41 -80 -119 -127.5t-169 -47.5q-94 0 -145.5 51t-51.5 144q0 41 7 75q-64 8 -98.5 47t-34.5 78q0 61 38 105.5
t93 44.5q37 0 57 -18t20 -50q0 -4 -2 -16h-53q-1 21 -8 30t-24 9q-24 0 -39 -18q-24 -34 -24 -77t35 -43h68q40 94 117 152t170 58q92 0 146.5 -50.5t54.5 -144.5q0 -42 -9 -84z" />
    <glyph glyph-name="uni04BE" unicode="&#x4be;" horiz-adv-x="837" 
d="M595 482q-1 51 -16 78q-32 53 -112 53q-60 0 -112 -35t-87 -96h327zM734 365h-511q-11 -50 -11 -101q0 -77 36.5 -119t104.5 -42q70 0 120.5 38t72.5 108h146q-31 -115 -119 -187t-209 -83q24 -13 36 -22q67 -46 67 -114q0 -35 -36 -55.5t-98 -20.5q-29 0 -77 9l-10 52
q31 -11 71 -11q50 0 50 40q0 34 -34 77q-11 14 -21 22t-35 24q-103 13 -159.5 81.5t-56.5 181.5q0 66 13 122q-49 2 -87.5 18t-60.5 41t-33.5 52.5t-11.5 55.5q0 93 56.5 159.5t139.5 66.5q54 0 84 -27.5t30 -76.5q0 -15 -1 -23h-81q0 32 -10.5 45.5t-36.5 13.5
q-38 0 -58 -28q-38 -48 -38 -116q0 -64 53 -64h93q55 118 155.5 188.5t221.5 70.5q167 0 231 -115q27 -50 27 -108q0 -99 -13 -153z" />
    <glyph glyph-name="uni04BF" unicode="&#x4bf;" horiz-adv-x="552" 
d="M404 339l1 6q1 0 1 4q0 93 -85 93q-44 0 -73.5 -26t-52.5 -77h209zM538 270q-2 -10 -6 -24h-362q-9 -21 -9 -80q0 -40 24.5 -61t63.5 -21q79 0 122 68h138q-36 -71 -103 -117t-148 -56q23 -11 37 -22q67 -46 67 -114q0 -35 -36 -55.5t-98 -20.5q-29 0 -77 9l-10 52
q31 -11 71 -11q50 0 50 40q0 34 -34 77q-19 24 -59 48q-70 13 -107.5 62t-37.5 128q0 41 7 75q-64 8 -98.5 47t-34.5 78q0 61 38 105.5t93 44.5q37 0 57 -18t20 -50q0 -4 -2 -16h-53q-1 21 -8 30t-24 9q-24 0 -39 -18q-24 -34 -24 -77t35 -43h68q40 94 117 152t170 58
q92 0 146.5 -50.5t54.5 -144.5q0 -42 -9 -84z" />
    <glyph glyph-name="uni04C0" unicode="&#x4c0;" horiz-adv-x="278" 
d="M328 729l-155 -729h-150l155 729h150z" />
    <glyph glyph-name="uni04C1" unicode="&#x4c1;" horiz-adv-x="1054" 
d="M841 944q-11 -62 -56.5 -102.5t-104.5 -40.5q-47 0 -76.5 29t-29.5 75q0 17 6 39h42v-8q0 -27 19.5 -42t54.5 -15q77 0 103 65h42zM1038 0h-179l-213 285l-61 -285h-150l61 285l-335 -285h-179l437 378l-238 351h164l186 -279l59 279h150l-59 -279l304 279h164l-388 -351
z" />
    <glyph glyph-name="uni04C2" unicode="&#x4c2;" horiz-adv-x="775" 
d="M653 752q-11 -62 -56.5 -102.5t-104.5 -40.5q-47 0 -76.5 29t-29.5 75q0 17 6 39h42v-8q0 -27 19.5 -42t54.5 -15q77 0 103 65h42zM748 0h-179l-95 198l-42 -198h-140l42 198l-179 -198h-179l276 296l-125 244h148l92 -189l40 189h140l-40 -189l172 189h148l-229 -244z
" />
    <glyph glyph-name="uni04C3" unicode="&#x4c3;" horiz-adv-x="720" 
d="M801 729l-441 -351h112q209 0 209 -166q0 -32 -8 -74l-29 -135q-8 -39 -20 -65.5t-34.5 -51.5t-61 -37t-93.5 -12h-104l22 107h55q46 0 63 14.5t23 44.5l31 144q6 34 6 47q0 29 -19 44t-67 15h-207l-54 -253h-150l155 729h150l-59 -279l344 279h177z" />
    <glyph glyph-name="uni04C4" unicode="&#x4c4;" horiz-adv-x="529" 
d="M584 540l-266 -244l16 1q65 0 105 -35.5t40 -94.5q0 -27 -6 -55l-24 -112q-28 -132 -145 -132h-81l18 88q34 0 48.5 14.5t22.5 51.5l18 72q5 26 5 34q0 59 -61 59h-74l-40 -187h-141l115 540h140l-40 -189l202 189h148z" />
    <glyph glyph-name="uni04C7" unicode="&#x4c7;" horiz-adv-x="722" 
d="M772 729l-155 -729q-8 -39 -20 -65.5t-34.5 -51.5t-61 -37t-93.5 -12h-104l22 107h55q46 0 63 14.5t23 44.5l66 311h-289l-66 -311h-150l155 729h150l-62 -293h288l62 293h151z" />
    <glyph glyph-name="uni04C8" unicode="&#x4c8;" horiz-adv-x="636" 
d="M618 540l-115 -540q-28 -132 -143 -132h-81l18 88q56 0 66 44l53 237h-203l-53 -237h-140l115 540h140l-40 -188h203l40 188h140z" />
    <glyph glyph-name="uni04CB" unicode="&#x4cb;" horiz-adv-x="671" 
d="M721 729l-155 -729h-160l-32 -150h-130l55 258h140l35 166h-144q-209 0 -209 166q0 32 8 74l46 215h150l-48 -224q-6 -34 -6 -47q0 -29 19 -44t67 -15h143l70 330h151z" />
    <glyph glyph-name="uni04CC" unicode="&#x4cc;" horiz-adv-x="606" 
d="M588 540l-115 -540h-150l-27 -125h-110l48 226h120l14 64h-85q-196 0 -196 144q0 29 7 60l36 171h140l-38 -177q-5 -23 -5 -37q0 -24 16 -36t56 -12h93l56 262h140z" />
    <glyph glyph-name="uni04D0" unicode="&#x4d0;" horiz-adv-x="722" 
d="M659 944q-11 -62 -56.5 -102.5t-104.5 -40.5q-47 0 -76.5 29t-29.5 75q0 17 6 39h42v-8q0 -27 19.5 -42t54.5 -15q77 0 103 65h42zM663 0h-153l-18 147h-273l-80 -147h-153l414 729h166zM478 272l-35 285l-155 -285h190z" />
    <glyph glyph-name="uni04D1" unicode="&#x4d1;" horiz-adv-x="554" 
d="M520 752q-11 -62 -56.5 -102.5t-104.5 -40.5q-47 0 -76.5 29t-29.5 75q0 17 6 39h42v-8q0 -27 19.5 -42t54.5 -15q77 0 103 65h42zM482 0h-152q-9 15 -9 27q0 5 4 27q-91 -77 -180 -77q-57 0 -95.5 31t-38.5 89q0 86 52.5 140.5t147.5 71.5l58 10q72 12 99.5 27t27.5 49
q0 41 -71 41q-52 0 -76.5 -16t-38.5 -58h-135q52 187 271 187q190 0 190 -123q0 -18 -5 -43l-64 -300q-2 -16 -2 -20q0 -23 20 -46zM359 217l8 38q-21 -10 -63 -17l-49 -9q-98 -20 -98 -90q0 -23 17 -36t47 -13q51 0 88 33.5t50 93.5z" />
    <glyph glyph-name="uni04D2" unicode="&#x4d2;" horiz-adv-x="722" 
d="M486 921l-26 -120h-110l26 120h110zM672 921l-26 -120h-110l26 120h110zM663 0h-153l-18 147h-273l-80 -147h-153l414 729h166zM478 272l-35 285l-155 -285h190z" />
    <glyph glyph-name="uni04D3" unicode="&#x4d3;" horiz-adv-x="554" 
d="M347 729l-26 -120h-110l26 120h110zM533 729l-26 -120h-110l26 120h110zM482 0h-152q-9 15 -9 27q0 5 4 27q-91 -77 -180 -77q-57 0 -95.5 31t-38.5 89q0 86 52.5 140.5t147.5 71.5l58 10q72 12 99.5 27t27.5 49q0 41 -71 41q-52 0 -76.5 -16t-38.5 -58h-135
q52 187 271 187q190 0 190 -123q0 -18 -5 -43l-64 -300q-2 -16 -2 -20q0 -23 20 -46zM359 217l8 38q-21 -10 -63 -17l-49 -9q-98 -20 -98 -90q0 -23 17 -36t47 -13q51 0 88 33.5t50 93.5z" />
    <glyph glyph-name="uni04D4" unicode="&#x4d4;" horiz-adv-x="1000" 
d="M955 125l-27 -125h-536l32 152h-219l-85 -152h-159l420 729h683l-26 -125h-367l-36 -165h339l-26 -125h-339l-40 -189h386zM521 604h-66l-185 -327h181z" />
    <glyph glyph-name="uni04D5" unicode="&#x4d5;" horiz-adv-x="889" 
d="M869 226h-362q-7 -30 -7 -51q0 -38 26.5 -62t69.5 -24q37 0 68 17t46 46h138q-40 -80 -116 -127.5t-166 -47.5q-137 0 -181 100q-52 -56 -99.5 -78t-116.5 -22q-73 0 -114 34t-41 95q0 46 22.5 88.5t62.5 71.5q46 33 117 45l57 9q54 8 65.5 10.5t27.5 10.5q34 17 34 53
q0 43 -73 43q-48 0 -73.5 -17t-38.5 -58h-131q18 86 63 126q69 61 205 61q113 0 161 -49q73 49 165 49q108 0 163 -69q46 -56 46 -129q0 -57 -18 -125zM364 216l8 38q-13 -6 -26 -10q-2 0 -9 -1t-12 -2l-16 -3l-50 -8q-49 -8 -75.5 -32t-26.5 -59q0 -50 71 -50q52 0 87 32.5
t49 94.5zM744 319v27q0 43 -22 67t-63 24q-99 0 -131 -118h216z" />
    <glyph glyph-name="uni04D6" unicode="&#x4d6;" horiz-adv-x="666" 
d="M634 944q-11 -62 -56.5 -102.5t-104.5 -40.5q-47 0 -76.5 29t-29.5 75q0 17 6 39h42v-8q0 -27 19.5 -42t54.5 -15q77 0 103 65h42zM611 125l-27 -125h-545l155 729h527l-27 -125h-377l-35 -165h349l-26 -125h-349l-40 -189h395z" />
    <glyph glyph-name="uni04D7" unicode="&#x4d7;" horiz-adv-x="552" 
d="M520 752q-11 -62 -56.5 -102.5t-104.5 -40.5q-47 0 -76.5 29t-29.5 75q0 17 6 39h42v-8q0 -27 19.5 -42t54.5 -15q77 0 103 65h42zM535 250q-1 -11 -6 -24h-362q-6 -39 -6 -60q0 -40 24.5 -61t63.5 -21q79 0 122 68h138q-41 -80 -119 -127.5t-169 -47.5q-94 0 -145.5 51
t-51.5 144q0 152 94.5 264.5t227.5 112.5q92 0 146.5 -50.5t54.5 -144.5q0 -48 -12 -104zM404 319q2 22 2 30q0 93 -85 93q-91 0 -132 -123h215z" />
    <glyph glyph-name="uni04D8" unicode="&#x4d8;" horiz-adv-x="837" 
d="M747 475q0 -209 -124.5 -353.5t-303.5 -144.5q-167 0 -231 115q-27 50 -27 108q0 99 13 153h511q11 50 11 101q0 77 -36.5 119t-104.5 42q-70 0 -120.5 -38t-72.5 -108h-146q34 125 133.5 198.5t235.5 73.5q125 0 193.5 -70.5t68.5 -195.5zM540 236h-327q1 -51 16 -78
q32 -53 112 -53q60 0 112 35t87 96z" />
    <glyph glyph-name="afii10846" unicode="&#x4d9;" horiz-adv-x="552" 
d="M547 354q0 -152 -94.5 -264.5t-227.5 -112.5q-92 0 -146.5 50.5t-54.5 144.5q0 42 9 84q1 10 6 24h362q9 21 9 80q0 40 -24.5 61t-63.5 21q-79 0 -122 -68h-138q41 80 119 127.5t169 47.5q94 0 145.5 -51t51.5 -144zM376 187h-209l-1 -6q-1 0 -1 -4q0 -93 85 -93
q44 0 73.5 26t52.5 77z" />
    <glyph glyph-name="uni04DA" unicode="&#x4da;" horiz-adv-x="837" 
d="M486 921l-26 -120h-110l26 120h110zM672 921l-26 -120h-110l26 120h110zM747 475q0 -209 -124.5 -353.5t-303.5 -144.5q-167 0 -231 115q-27 50 -27 108q0 99 13 153h511q11 50 11 101q0 77 -36.5 119t-104.5 42q-70 0 -120.5 -38t-72.5 -108h-146q34 125 133.5 198.5
t235.5 73.5q125 0 193.5 -70.5t68.5 -195.5zM540 236h-327q1 -51 16 -78q32 -53 112 -53q60 0 112 35t87 96z" />
    <glyph glyph-name="uni04DB" unicode="&#x4db;" horiz-adv-x="552" 
d="M351 729l-26 -120h-110l26 120h110zM537 729l-26 -120h-110l26 120h110zM547 354q0 -152 -94.5 -264.5t-227.5 -112.5q-92 0 -146.5 50.5t-54.5 144.5q0 42 9 84q1 10 6 24h362q9 21 9 80q0 40 -24.5 61t-63.5 21q-79 0 -122 -68h-138q41 80 119 127.5t169 47.5
q94 0 145.5 -51t51.5 -144zM376 187h-209l-1 -6q-1 0 -1 -4q0 -93 85 -93q44 0 73.5 26t52.5 77z" />
    <glyph glyph-name="uni04DC" unicode="&#x4dc;" horiz-adv-x="1054" 
d="M668 921l-26 -120h-110l26 120h110zM854 921l-26 -120h-110l26 120h110zM1038 0h-179l-213 285l-61 -285h-150l61 285l-335 -285h-179l437 378l-238 351h164l186 -279l59 279h150l-59 -279l304 279h164l-388 -351z" />
    <glyph glyph-name="uni04DD" unicode="&#x4dd;" horiz-adv-x="775" 
d="M480 729l-26 -120h-110l26 120h110zM666 729l-26 -120h-110l26 120h110zM748 0h-179l-95 198l-42 -198h-140l42 198l-179 -198h-179l276 296l-125 244h148l92 -189l40 189h140l-40 -189l172 189h148l-229 -244z" />
    <glyph glyph-name="uni04DE" unicode="&#x4de;" horiz-adv-x="659" 
d="M443 921l-26 -120h-110l26 120h110zM629 921l-26 -120h-110l26 120h110zM637 268q0 -150 -97.5 -220.5t-257.5 -70.5q-124 0 -189.5 50t-65.5 143q0 25 4 48h146q-2 -14 -2 -21q0 -48 37 -74t104 -26q76 0 123 33.5t47 92.5q0 85 -115 85h-102l25 120h76q79 0 120.5 33
t41.5 81q0 34 -29.5 56.5t-79.5 22.5q-145 0 -177 -114h-140q20 95 83 151q92 83 253 83q113 0 173.5 -44t60.5 -126q0 -62 -27.5 -114t-71.5 -80q60 -37 60 -109z" />
    <glyph glyph-name="uni04DF" unicode="&#x4df;" 
d="M358 729l-26 -120h-110l26 120h110zM544 729l-26 -120h-110l26 120h110zM515 196q0 -97 -80 -158t-199 -61q-108 0 -164 36.5t-56 105.5q0 19 4 38h137v-8q0 -27 15.5 -41.5t33.5 -17.5t46 -3q118 0 118 76q0 45 -71 45h-92l24 110h89q81 0 81 73q0 20 -20 34t-52 14
q-95 0 -111 -73h-135q20 86 90.5 134.5t178.5 48.5q89 0 138.5 -37t49.5 -103q0 -46 -17 -82.5t-47 -55.5q39 -29 39 -75z" />
    <glyph glyph-name="uni04E0" unicode="&#x4e0;" horiz-adv-x="659" 
d="M637 268q0 -150 -97.5 -220.5t-257.5 -70.5q-124 0 -189.5 50t-65.5 143q0 25 4 48h146q-2 -14 -2 -21q0 -48 37 -74t104 -26q76 0 123 33.5t47 92.5q0 85 -115 85h-102l25 120h76q79 0 120.5 33t41.5 81q0 34 -29.5 56.5t-79.5 22.5q-145 0 -177 -114h-140q20 95 83 151
q92 83 253 83q113 0 173.5 -44t60.5 -126q0 -62 -27.5 -114t-71.5 -80q60 -37 60 -109z" />
    <glyph glyph-name="uni04E1" unicode="&#x4e1;" 
d="M515 196q0 -97 -80 -158t-199 -61q-108 0 -164 36.5t-56 105.5q0 19 4 38h137v-8q0 -27 15.5 -41.5t33.5 -17.5t46 -3q118 0 118 76q0 45 -71 45h-92l24 110h89q81 0 81 73q0 20 -20 34t-52 14q-95 0 -111 -73h-135q20 86 90.5 134.5t178.5 48.5q89 0 138.5 -37
t49.5 -103q0 -46 -17 -82.5t-47 -55.5q39 -29 39 -75z" />
    <glyph glyph-name="uni04E2" unicode="&#x4e2;" horiz-adv-x="722" 
d="M645 801h-300l17 80h300zM776 729l-155 -729h-150l107 504l-400 -504h-150l155 729h150l-105 -496l394 496h154z" />
    <glyph glyph-name="uni04E3" unicode="&#x4e3;" horiz-adv-x="636" 
d="M541 609h-300l17 80h300zM618 540l-115 -540h-140l73 343l-261 -343h-155l115 540h140l-73 -343l261 343h155z" />
    <glyph glyph-name="uni04E4" unicode="&#x4e4;" horiz-adv-x="722" 
d="M483 921l-26 -120h-110l26 120h110zM669 921l-26 -120h-110l26 120h110zM776 729l-155 -729h-150l107 504l-400 -504h-150l155 729h150l-105 -496l394 496h154z" />
    <glyph glyph-name="uni04E5" unicode="&#x4e5;" horiz-adv-x="636" 
d="M379 729l-26 -120h-110l26 120h110zM565 729l-26 -120h-110l26 120h110zM618 540l-115 -540h-140l73 343l-261 -343h-155l115 540h140l-73 -343l261 343h155z" />
    <glyph glyph-name="uni04E6" unicode="&#x4e6;" horiz-adv-x="778" 
d="M509 921l-26 -120h-110l26 120h110zM695 921l-26 -120h-110l26 120h110zM789 455q0 -227 -172 -377q-116 -101 -271 -101q-156 0 -227 101q-53 73 -53 183q0 228 172 379q116 101 270 101q156 0 228 -101q53 -74 53 -185zM637 438q0 82 -40.5 128.5t-114.5 46.5
q-106 0 -185 -100t-79 -233q0 -82 41 -128.5t115 -46.5q104 0 183.5 100t79.5 233z" />
    <glyph glyph-name="uni04E7" unicode="&#x4e7;" horiz-adv-x="611" 
d="M379 729l-26 -120h-110l26 120h110zM565 729l-26 -120h-110l26 120h110zM595 345q0 -154 -97.5 -261t-239.5 -107q-104 0 -160 53.5t-56 150.5q0 153 98 260.5t238 107.5q105 0 161 -53t56 -151zM451 319q0 55 -25 86t-71 31q-67 0 -118.5 -69.5t-51.5 -159.5
q0 -54 26 -85.5t71 -31.5q67 0 118 69.5t51 159.5z" />
    <glyph glyph-name="uni04E8" unicode="&#x4e8;" horiz-adv-x="778" 
d="M778 354q-16 -77 -59.5 -151.5t-101.5 -124.5q-116 -101 -271 -101q-156 0 -227 101q-38 52 -49 125.5t7 155.5q17 82 59 155.5t102 125.5q116 101 270 101q156 0 228 -101q79 -111 42 -286zM635 403q10 98 -30.5 154t-122.5 56t-147.5 -57t-95.5 -153h396zM620 323h-399
q-13 -100 28.5 -159t124.5 -59t150 59.5t96 158.5z" />
    <glyph glyph-name="uni04E9" unicode="&#x4e9;" horiz-adv-x="611" 
d="M585 259q-28 -130 -116 -206t-211 -76q-124 0 -179.5 76t-27.5 210q29 133 116 209.5t211 76.5q127 0 181.5 -76.5t25.5 -213.5zM451 302q5 62 -20.5 98t-75.5 36q-49 0 -90 -36.5t-63 -97.5h249zM434 222h-249q-4 -60 22 -96t75 -36q48 0 89 36t63 96z" />
    <glyph glyph-name="uni04EA" unicode="&#x4ea;" horiz-adv-x="778" 
d="M509 921l-26 -120h-110l26 120h110zM695 921l-26 -120h-110l26 120h110zM778 354q-16 -77 -59.5 -151.5t-101.5 -124.5q-116 -101 -271 -101q-156 0 -227 101q-38 52 -49 125.5t7 155.5q17 82 59 155.5t102 125.5q116 101 270 101q156 0 228 -101q79 -111 42 -286z
M635 403q10 98 -30.5 154t-122.5 56t-147.5 -57t-95.5 -153h396zM620 323h-399q-13 -100 28.5 -159t124.5 -59t150 59.5t96 158.5z" />
    <glyph glyph-name="uni04EB" unicode="&#x4eb;" horiz-adv-x="611" 
d="M379 729l-26 -120h-110l26 120h110zM565 729l-26 -120h-110l26 120h110zM585 259q-28 -130 -116 -206t-211 -76q-124 0 -179.5 76t-27.5 210q29 133 116 209.5t211 76.5q127 0 181.5 -76.5t25.5 -213.5zM451 302q5 62 -20.5 98t-75.5 36q-49 0 -90 -36.5t-63 -97.5h249z
M434 222h-249q-4 -60 22 -96t75 -36q48 0 89 36t63 96z" />
    <glyph glyph-name="uni04EC" unicode="&#x4ec;" horiz-adv-x="737" 
d="M482 921l-26 -120h-110l26 120h110zM668 921l-26 -120h-110l26 120h110zM747 473q0 -132 -56.5 -246t-154.5 -182t-213 -68q-120 0 -188.5 59t-68.5 161q0 28 4 52h146q-2 -18 -2 -25q0 -58 34.5 -89.5t97.5 -31.5q78 0 137 54.5t89 153.5h-292l27 125h291v9
q0 79 -39 123.5t-110 44.5q-81 0 -134 -53q-26 -26 -50 -78h-143q27 90 80 144q112 115 279 115q127 0 196.5 -70.5t69.5 -197.5z" />
    <glyph glyph-name="uni04ED" unicode="&#x4ed;" horiz-adv-x="575" 
d="M355 729l-26 -120h-110l26 120h110zM541 729l-26 -120h-110l26 120h110zM557 351q0 -156 -90.5 -265t-232.5 -109q-90 0 -141 47t-51 131q0 10 2 32h134q2 -52 20 -74.5t59 -22.5q44 0 79.5 30.5t56.5 86.5h-176l24 113h174q2 43 -7 70q-15 46 -77 46q-43 0 -70.5 -22.5
t-50.5 -75.5h-134q28 99 102.5 155t175.5 56q99 0 151 -51t52 -147z" />
    <glyph glyph-name="uni04EE" unicode="&#x4ee;" horiz-adv-x="698" 
d="M618 801h-300l17 80h300zM793 729l-523 -729h-174l162 226l-146 503h163l99 -345l245 345h174z" />
    <glyph glyph-name="uni04EF" unicode="&#x4ef;" horiz-adv-x="552" 
d="M509 609h-300l17 80h300zM599 540l-334 -641q-25 -44 -51.5 -65.5t-63.5 -35.5q-44 -17 -104 -17q-22 0 -49 4l22 105q20 -6 36 -6q37 0 72.5 27t35.5 60l-1 7l-82 562h153l45 -373l189 373h132z" />
    <glyph glyph-name="uni04F0" unicode="&#x4f0;" horiz-adv-x="698" 
d="M456 921l-26 -120h-110l26 120h110zM642 921l-26 -120h-110l26 120h110zM793 729l-523 -729h-174l162 226l-146 503h163l99 -345l245 345h174z" />
    <glyph glyph-name="uni04F1" unicode="&#x4f1;" horiz-adv-x="552" 
d="M347 729l-26 -120h-110l26 120h110zM533 729l-26 -120h-110l26 120h110zM599 540l-334 -641q-25 -44 -51.5 -65.5t-63.5 -35.5q-44 -17 -104 -17q-22 0 -49 4l22 105q20 -6 36 -6q37 0 72.5 27t35.5 60l-1 7l-82 562h153l45 -373l189 373h132z" />
    <glyph glyph-name="uni04F2" unicode="&#x4f2;" horiz-adv-x="698" 
d="M567 948l-158 -147h-70l102 147h126zM755 948l-158 -147h-70l102 147h126zM793 729l-523 -729h-174l162 226l-146 503h163l99 -345l245 345h174z" />
    <glyph glyph-name="uni04F3" unicode="&#x4f3;" horiz-adv-x="552" 
d="M458 756l-158 -147h-70l102 147h126zM646 756l-158 -147h-70l102 147h126zM599 540l-334 -641q-25 -44 -51.5 -65.5t-63.5 -35.5q-44 -17 -104 -17q-22 0 -49 4l22 105q20 -6 36 -6q37 0 72.5 27t35.5 60l-1 7l-82 562h153l45 -373l189 373h132z" />
    <glyph glyph-name="uni04F4" unicode="&#x4f4;" horiz-adv-x="671" 
d="M451 921l-26 -120h-110l26 120h110zM637 921l-26 -120h-110l26 120h110zM721 729l-155 -729h-150l58 274h-144q-209 0 -209 166q0 32 8 74l46 215h150l-48 -224q-6 -34 -6 -47q0 -29 19 -44t67 -15h143l70 330h151z" />
    <glyph glyph-name="uni04F5" unicode="&#x4f5;" horiz-adv-x="606" 
d="M362 729l-26 -120h-110l26 120h110zM548 729l-26 -120h-110l26 120h110zM588 540l-115 -540h-140l35 165h-85q-196 0 -196 144q0 29 7 60l36 171h140l-38 -177q-5 -23 -5 -37q0 -24 16 -36t56 -12h93l56 262h140z" />
    <glyph glyph-name="uni04F8" unicode="&#x4f8;" horiz-adv-x="939" 
d="M592 921l-26 -120h-110l26 120h110zM778 921l-26 -120h-110l26 120h110zM997 729l-155 -729h-150l155 729h150zM639 296q0 -128 -81 -212t-210 -84h-322l155 729h150l-55 -260h187q83 0 129.5 -46t46.5 -127zM487 270q0 74 -98 74h-140l-46 -219h140q68 0 106 40.5
t38 104.5z" />
    <glyph glyph-name="uni04F9" unicode="&#x4f9;" horiz-adv-x="814" 
d="M481 729l-26 -120h-110l26 120h110zM667 729l-26 -120h-110l26 120h110zM796 540l-115 -540h-140l115 540h140zM512 196q0 -90 -61.5 -143t-164.5 -53h-266l115 540h140l-44 -207h91q190 0 190 -137zM374 188q0 21 -16 28t-53 7h-97l-24 -113h97q45 0 69 21t24 57z" />
    <glyph glyph-name="baht" unicode="&#xe3f;" horiz-adv-x="722" 
d="M676 255q0 -44 -22 -92.5t-59 -84.5q-81 -78 -225 -78h-14l-18 -83h-80l18 83h-234l155 729h234l18 83h79l-17 -83h11q95 0 147.5 -42.5t52.5 -115.5q0 -106 -117 -183q38 -30 54.5 -61t16.5 -72zM573 542q0 32 -21.5 47t-67.5 15l-35 -165q63 0 93.5 29t30.5 74z
M369 439l35 165h-84l-35 -165h84zM528 245q0 69 -91 69h-15l-40 -189h15q64 0 97.5 33t33.5 87zM303 125l40 189h-84l-40 -189h84z" />
    <glyph glyph-name="Ddotbelow" unicode="&#x1e0c;" horiz-adv-x="722" 
d="M736 479q0 -184 -112 -339q-55 -76 -124 -108t-178 -32h-285l155 729h285q136 0 197.5 -59.5t61.5 -190.5zM587 469q0 135 -137 135h-135l-101 -479h134q65 0 106 23.5t73 79.5q26 44 43 113t17 128zM349 -200h-140l27 131h140z" />
    <glyph glyph-name="ddotbelow" unicode="&#x1e0d;" horiz-adv-x="611" 
d="M660 729l-155 -729h-140l13 62q-68 -71 -164 -71q-79 0 -126.5 54t-47.5 147q0 137 85 247t207 110q99 0 133 -79l55 259h140zM428 323q0 52 -23.5 83t-64.5 31q-63 0 -110 -67t-47 -157q0 -53 24 -81.5t65 -28.5q65 0 110.5 63.5t45.5 156.5zM294 -200h-140l27 131h140z
" />
    <glyph glyph-name="Dlinebelow" unicode="&#x1e0e;" horiz-adv-x="722" 
d="M736 479q0 -184 -112 -339q-55 -76 -124 -108t-178 -32h-285l155 729h285q136 0 197.5 -59.5t61.5 -190.5zM587 469q0 135 -137 135h-135l-101 -479h134q65 0 106 23.5t73 79.5q26 44 43 113t17 128zM431 -175h-300l17 80h300z" />
    <glyph glyph-name="dlinebelow" unicode="&#x1e0f;" horiz-adv-x="611" 
d="M660 729l-155 -729h-140l13 62q-68 -71 -164 -71q-79 0 -126.5 54t-47.5 147q0 137 85 247t207 110q99 0 133 -79l55 259h140zM428 323q0 52 -23.5 83t-64.5 31q-63 0 -110 -67t-47 -157q0 -53 24 -81.5t65 -28.5q65 0 110.5 63.5t45.5 156.5zM375 -175h-300l17 80h300z
" />
    <glyph glyph-name="Hdotbelow" unicode="&#x1e24;" horiz-adv-x="722" 
d="M772 729l-155 -729h-150l70 331h-289l-70 -331h-150l155 729h150l-58 -273h288l58 273h151zM351 -200h-140l27 131h140z" />
    <glyph glyph-name="hdotbelow" unicode="&#x1e25;" horiz-adv-x="611" 
d="M583 362l-77 -362h-140l67 313q4 20 6 48q0 76 -73 76q-48 0 -84.5 -36t-49.5 -97l-65 -304h-140l155 729h140l-58 -271q77 91 180 91q65 0 105 -36.5t40 -95.5q0 -27 -6 -55zM295 -200h-140l27 131h140z" />
    <glyph glyph-name="Hdieresis" unicode="&#x1e26;" horiz-adv-x="722" 
d="M772 729l-155 -729h-150l70 331h-289l-70 -331h-150l155 729h150l-58 -273h288l58 273h151zM458 797h-126l25 115h126zM653 797h-126l25 115h126z" />
    <glyph glyph-name="hdieresis" unicode="&#x1e27;" horiz-adv-x="611" 
d="M583 362l-77 -362h-140l67 313q4 20 6 48q0 76 -73 76q-48 0 -84.5 -36t-49.5 -97l-65 -304h-140l155 729h140l-58 -271q77 91 180 91q65 0 105 -36.5t40 -95.5q0 -27 -6 -55zM400 797h-126l25 115h126zM595 797h-126l25 115h126z" />
    <glyph glyph-name="Hbrevebelow" unicode="&#x1e2a;" horiz-adv-x="722" 
d="M772 729l-155 -729h-150l70 331h-289l-70 -331h-150l155 729h150l-58 -273h288l58 273h151zM465 -70q-12 -56 -67 -92.5t-126 -36.5t-106.5 39t-13.5 90h51q-4 -24 8 -36t26.5 -13.5t48.5 -1.5h6q97 0 123 51h50z" />
    <glyph glyph-name="hbrevebelow" unicode="&#x1e2b;" horiz-adv-x="611" 
d="M583 362l-77 -362h-140l67 313q4 20 6 48q0 76 -73 76q-48 0 -84.5 -36t-49.5 -97l-65 -304h-140l155 729h140l-58 -271q77 91 180 91q65 0 105 -36.5t40 -95.5q0 -27 -6 -55zM409 -70q-12 -56 -67 -92.5t-126 -36.5t-106.5 39t-13.5 90h51q-2 -15 1.5 -25t9 -15t19 -7.5
t23 -3t30.5 -0.5h6q97 0 123 51h50z" />
    <glyph glyph-name="Ldotbelow" unicode="&#x1e36;" horiz-adv-x="611" 
d="M566 125l-27 -125h-499l155 729h150l-128 -604h349zM318 -200h-140l27 131h140z" />
    <glyph glyph-name="ldotbelow" unicode="&#x1e37;" horiz-adv-x="278" 
d="M322 729l-155 -729h-140l155 729h140zM127 -200h-140l27 131h140z" />
    <glyph glyph-name="Ldotbelowmacron" unicode="&#x1e38;" horiz-adv-x="611" 
d="M566 125l-27 -125h-499l155 729h150l-128 -604h349zM318 -200h-140l27 131h140zM435 814h-300l17 80h300z" />
    <glyph glyph-name="ldotbelowmacron" unicode="&#x1e39;" horiz-adv-x="278" 
d="M322 729l-155 -729h-140l155 729h140zM127 -200h-140l27 131h140zM417 814h-300l17 80h300z" />
    <glyph glyph-name="Mdotbelow" unicode="&#x1e42;" horiz-adv-x="833" 
d="M891 729l-155 -729h-142l132 619l-269 -619h-157v619l-132 -619h-142l155 729h237v-560l254 560h219zM405 -200h-140l27 131h140z" />
    <glyph glyph-name="mdotbelow" unicode="&#x1e43;" horiz-adv-x="889" 
d="M863 362l-77 -362h-140l72 340q5 23 5 41q0 56 -58 56q-47 0 -79.5 -29.5t-43.5 -83.5l-69 -324h-140l74 346q3 17 3 33q0 26 -17 42t-46 16q-44 0 -75.5 -30.5t-42.5 -82.5l-69 -324h-140l115 540h139l-17 -81q44 49 83 69.5t88 20.5q46 0 79.5 -22t44.5 -60
q79 82 177 82q67 0 104.5 -33.5t37.5 -92.5q0 -22 -8 -61zM433 -200h-140l27 131h140z" />
    <glyph glyph-name="Ndotaccent" unicode="&#x1e44;" horiz-adv-x="722" 
d="M776 729l-155 -729h-148l-192 523l-111 -523h-142l155 729h150l192 -515l109 515h142zM564 789h-140l27 131h140z" />
    <glyph glyph-name="ndotaccent" unicode="&#x1e45;" horiz-adv-x="611" 
d="M583 362l-77 -362h-140l67 313q3 15 6 49q0 75 -74 75q-51 0 -87.5 -35.5t-49.5 -97.5l-65 -304h-140l115 540h140l-18 -82q41 48 83.5 69.5t98.5 21.5q67 0 107 -36t40 -96q0 -27 -6 -55zM466 610h-140l27 131h140z" />
    <glyph glyph-name="Ndotbelow" unicode="&#x1e46;" horiz-adv-x="722" 
d="M776 729l-155 -729h-148l-192 523l-111 -523h-142l155 729h150l192 -515l109 515h142zM353 -200h-140l27 131h140z" />
    <glyph glyph-name="ndotbelow" unicode="&#x1e47;" horiz-adv-x="611" 
d="M583 362l-77 -362h-140l67 313q3 15 6 49q0 75 -74 75q-51 0 -87.5 -35.5t-49.5 -97.5l-65 -304h-140l115 540h140l-18 -82q41 48 83.5 69.5t98.5 21.5q67 0 107 -36t40 -96q0 -27 -6 -55zM294 -200h-140l27 131h140z" />
    <glyph glyph-name="Rdotaccent" unicode="&#x1e58;" horiz-adv-x="722" 
d="M643 27l-6 -27h-159q-8 25 -8 41q-1 33 26 132q12 48 12 61q0 55 -85 55h-172l-61 -289h-150l155 729h377q78 0 125.5 -42t47.5 -108q0 -75 -39.5 -129.5t-127.5 -97.5q78 -26 78 -82q0 -33 -28 -183q-3 -15 -3 -26q0 -20 18 -34zM596 534q0 70 -110 70h-168l-40 -190
h181q62 0 99.5 33t37.5 87zM541 789h-140l27 131h140z" />
    <glyph glyph-name="rdotaccent" unicode="&#x1e59;" horiz-adv-x="389" 
d="M417 406q-24 4 -43 4q-124 0 -150 -123l-61 -287h-140l115 540h140l-23 -106q35 55 81 85t94 30q9 0 17 -1zM363 610h-140l27 131h140z" />
    <glyph glyph-name="Rdotbelow" unicode="&#x1e5a;" horiz-adv-x="722" 
d="M643 27l-6 -27h-159q-8 25 -8 41q-1 33 26 132q12 48 12 61q0 55 -85 55h-172l-61 -289h-150l155 729h377q78 0 125.5 -42t47.5 -108q0 -75 -39.5 -129.5t-127.5 -97.5q78 -26 78 -82q0 -33 -28 -183q-3 -15 -3 -26q0 -20 18 -34zM596 534q0 70 -110 70h-168l-40 -190
h181q62 0 99.5 33t37.5 87zM330 -200h-140l27 131h140z" />
    <glyph glyph-name="rdotbelow" unicode="&#x1e5b;" horiz-adv-x="389" 
d="M417 406q-24 4 -43 4q-124 0 -150 -123l-61 -287h-140l115 540h140l-23 -106q35 55 81 85t94 30q9 0 17 -1zM121 -200h-140l27 131h140z" />
    <glyph glyph-name="Rdotbelowmacron" unicode="&#x1e5c;" horiz-adv-x="722" 
d="M643 27l-6 -27h-159q-8 25 -8 41q-1 33 26 132q12 48 12 61q0 55 -85 55h-172l-61 -289h-150l155 729h377q78 0 125.5 -42t47.5 -108q0 -75 -39.5 -129.5t-127.5 -97.5q78 -26 78 -82q0 -33 -28 -183q-3 -15 -3 -26q0 -20 18 -34zM596 534q0 70 -110 70h-168l-40 -190
h181q62 0 99.5 33t37.5 87zM330 -200h-140l27 131h140zM622 814h-300l17 80h300z" />
    <glyph glyph-name="rdotbelowmacron" unicode="&#x1e5d;" horiz-adv-x="389" 
d="M417 406q-24 4 -43 4q-124 0 -150 -123l-61 -287h-140l115 540h140l-23 -106q35 55 81 85t94 30q9 0 17 -1zM121 -200h-140l27 131h140zM447 644h-300l17 80h300z" />
    <glyph glyph-name="Sdotbelow" unicode="&#x1e62;" horiz-adv-x="667" 
d="M648 271q0 -128 -91 -205.5t-250 -77.5q-125 0 -197 52t-72 145q0 17 4 44h146q-2 -18 -2 -23q0 -43 37.5 -66.5t105.5 -23.5q79 0 124.5 28t45.5 78q0 34 -24.5 49t-96.5 30l-98 20q-89 18 -129 53.5t-40 97.5q0 114 89 191.5t233 77.5q119 0 185.5 -45.5t66.5 -126.5
q0 -25 -8 -62h-140q2 18 2 23q0 83 -132 83q-68 0 -107.5 -28t-39.5 -76q0 -28 25 -43.5t96 -29.5l109 -22q158 -33 158 -143zM303 -200h-140l27 131h140z" />
    <glyph glyph-name="sdotbelow" unicode="&#x1e63;" 
d="M520 194q0 -95 -74 -149t-202 -54q-99 0 -160 41t-61 109q0 10 4 30h137q3 -68 106 -68q102 0 102 48q-1 12 -16 21t-61 24l-79 25q-129 41 -129 124q0 84 70.5 144t189.5 60q94 0 148 -38.5t54 -106.5q0 -16 -5 -38h-135q3 13 3 19q0 24 -23.5 38t-64.5 14
q-40 0 -64 -14.5t-24 -38.5q0 -15 13.5 -24.5t51.5 -20.5l96 -28q63 -18 93 -46t30 -71zM266 -200h-140l27 131h140z" />
    <glyph glyph-name="Tdotbelow" unicode="&#x1e6c;" horiz-adv-x="611" 
d="M713 729l-27 -125h-212l-129 -604h-150l129 604h-222l27 125h584zM298 -200h-140l27 131h140z" />
    <glyph glyph-name="tdotbelow" unicode="&#x1e6d;" horiz-adv-x="333" 
d="M374 529l-20 -93h-78l-59 -282q-6 -25 -6 -34q0 -25 38 -25q12 0 33 3l-20 -98q-54 -4 -84 -4q-114 0 -114 79q0 18 5 41l67 320h-69l20 93h69l31 145h140l-31 -145h78zM207 -200h-140l27 131h140z" />
    <glyph glyph-name="Tlinebelow" unicode="&#x1e6e;" horiz-adv-x="611" 
d="M713 729l-27 -125h-212l-129 -604h-150l129 604h-222l27 125h584zM380 -175h-300l17 80h300z" />
    <glyph glyph-name="tlinebelow" unicode="&#x1e6f;" horiz-adv-x="333" 
d="M374 529l-20 -93h-78l-59 -282q-6 -25 -6 -34q0 -25 38 -25q12 0 33 3l-20 -98q-54 -4 -84 -4q-114 0 -114 79q0 18 5 41l67 320h-69l20 93h69l31 145h140l-31 -145h78zM288 -175h-300l17 80h300z" />
    <glyph glyph-name="Wgrave" unicode="&#x1e80;" horiz-adv-x="944" 
d="M1047 729l-357 -729h-139v555l-237 -555h-135l-51 729h156v-546l224 546h155v-548l225 548h159zM650 786h-104l-132 135h172z" />
    <glyph glyph-name="wgrave" unicode="&#x1e81;" horiz-adv-x="778" 
d="M841 540l-264 -540h-150v380l-166 -380h-144l-37 540h150v-378l159 378h144v-378l163 378h145zM527 598h-100l-93 154h156z" />
    <glyph glyph-name="Wacute" unicode="&#x1e82;" horiz-adv-x="944" 
d="M1047 729l-357 -729h-139v555l-237 -555h-135l-51 729h156v-546l224 546h155v-548l225 548h159zM839 921l-190 -135h-104l122 135h172z" />
    <glyph glyph-name="wacute" unicode="&#x1e83;" horiz-adv-x="778" 
d="M841 540l-264 -540h-150v380l-166 -380h-144l-37 540h150v-378l159 378h144v-378l163 378h145zM684 752l-158 -154h-100l102 154h156z" />
    <glyph glyph-name="Wdieresis" unicode="&#x1e84;" horiz-adv-x="944" 
d="M1047 729l-357 -729h-139v555l-237 -555h-135l-51 729h156v-546l224 546h155v-548l225 548h159zM566 797h-126l25 115h126zM761 797h-126l25 115h126z" />
    <glyph glyph-name="wdieresis" unicode="&#x1e85;" horiz-adv-x="778" 
d="M841 540l-264 -540h-150v380l-166 -380h-144l-37 540h150v-378l159 378h144v-378l163 378h145zM445 618h-126l25 115h126zM640 618h-126l25 115h126z" />
    <glyph glyph-name="Zdotbelow" unicode="&#x1e92;" horiz-adv-x="611" 
d="M565 125l-27 -125h-548l27 125l474 479h-373l27 125h548l-27 -125l-474 -479h373zM292 -200h-140l27 131h140z" />
    <glyph glyph-name="zdotbelow" unicode="&#x1e93;" horiz-adv-x="500" 
d="M429 0h-448l24 113l334 314h-249l24 113h421l-24 -113l-332 -314h274zM238 -200h-140l27 131h140z" />
    <glyph glyph-name="tdieresis" unicode="&#x1e97;" horiz-adv-x="333" 
d="M374 529l-20 -93h-78l-59 -282q-6 -25 -6 -34q0 -25 38 -25q12 0 33 3l-20 -98q-54 -4 -84 -4q-114 0 -114 79q0 18 5 41l67 320h-69l20 93h69l31 145h140l-31 -145h78zM237 742h-126l25 115h126zM432 742h-126l25 115h126z" />
    <glyph glyph-name="Adotbelow" unicode="&#x1ea0;" horiz-adv-x="722" 
d="M663 0h-153l-18 147h-272l-81 -147h-153l407 729h173zM478 272l-35 283l-154 -283h189zM349 -200h-140l27 131h140z" />
    <glyph glyph-name="adotbelow" unicode="&#x1ea1;" 
d="M487 17l-4 -17h-153q-7 15 -7 27q0 14 4 34q-43 -39 -81.5 -54.5t-83.5 -15.5q-70 0 -110.5 34t-40.5 90q0 74 53.5 127.5t147.5 68.5l58 9q12 2 26.5 4t20 3t13.5 2.5t10.5 2t7 2t7 3l7.5 4.5q34 17 34 53q0 43 -73 43q-48 0 -73.5 -17t-38.5 -58h-131q21 98 84.5 142.5
t181.5 44.5q93 0 142.5 -32t49.5 -89q0 -18 -6 -45l-63 -300q-3 -12 -3 -21q0 -21 21 -45zM363 231l5 24q-14 -8 -18.5 -9t-28.5 -5l-66 -11q-101 -17 -101 -84q0 -43 75 -43q51 0 86 33.5t48 94.5zM257 -200h-140l27 131h140z" />
    <glyph glyph-name="Ahookabove" unicode="&#x1ea2;" horiz-adv-x="722" 
d="M663 0h-153l-18 147h-272l-81 -147h-153l407 729h173zM478 272l-35 283l-154 -283h189zM631 917q0 -32 -23 -57q-15 -16 -53 -34q-22 -11 -28.5 -17.5t-10.5 -25.5h-60q4 44 64 79q18 9 27.5 17.5t11 13.5t1.5 12q0 27 -36 27q-44 0 -57 -50h-68q16 56 48.5 80t84.5 24
q45 0 72 -19t27 -50z" />
    <glyph glyph-name="ahookabove" unicode="&#x1ea3;" 
d="M487 17l-4 -17h-153q-7 15 -7 27q0 14 4 34q-43 -39 -81.5 -54.5t-83.5 -15.5q-70 0 -110.5 34t-40.5 90q0 74 53.5 127.5t147.5 68.5l58 9q12 2 26.5 4t20 3t13.5 2.5t10.5 2t7 2t7 3l7.5 4.5q34 17 34 53q0 43 -73 43q-48 0 -73.5 -17t-38.5 -58h-131q21 98 84.5 142.5
t181.5 44.5q93 0 142.5 -32t49.5 -89q0 -18 -6 -45l-63 -300q-3 -12 -3 -21q0 -21 21 -45zM363 231l5 24q-14 -8 -18.5 -9t-28.5 -5l-66 -11q-101 -17 -101 -84q0 -43 75 -43q51 0 86 33.5t48 94.5zM495 728q0 -32 -23 -57q-15 -16 -53 -34q-22 -11 -28.5 -17.5t-10.5 -25.5
h-60q4 44 64 79q18 9 27.5 17.5t11 13.5t1.5 12q0 27 -36 27q-44 0 -57 -50h-68q16 56 48.5 80t84.5 24q45 0 72 -19t27 -50z" />
    <glyph glyph-name="Acircumflexacute" unicode="&#x1ea4;" horiz-adv-x="722" 
d="M663 0h-153l-18 147h-272l-81 -147h-153l407 729h173zM478 272l-35 283l-154 -283h189zM767 1075l-190 -135h-104l122 135h172zM684 788h-86l-82 53l-123 -53h-91l167 132h129z" />
    <glyph glyph-name="acircumflexacute" unicode="&#x1ea5;" 
d="M487 17l-4 -17h-153q-7 15 -7 27q0 14 4 34q-43 -39 -81.5 -54.5t-83.5 -15.5q-70 0 -110.5 34t-40.5 90q0 74 53.5 127.5t147.5 68.5l58 9q12 2 26.5 4t20 3t13.5 2.5t10.5 2t7 2t7 3l7.5 4.5q34 17 34 53q0 43 -73 43q-48 0 -73.5 -17t-38.5 -58h-131q21 98 84.5 142.5
t181.5 44.5q93 0 142.5 -32t49.5 -89q0 -18 -6 -45l-63 -300q-3 -12 -3 -21q0 -21 21 -45zM363 231l5 24q-14 -8 -18.5 -9t-28.5 -5l-66 -11q-101 -17 -101 -84q0 -43 75 -43q51 0 86 33.5t48 94.5zM631 886l-190 -135h-104l122 135h172zM548 599h-86l-82 53l-123 -53h-91
l167 132h129z" />
    <glyph glyph-name="Acircumflexgrave" unicode="&#x1ea6;" horiz-adv-x="722" 
d="M663 0h-153l-18 147h-272l-81 -147h-153l407 729h173zM478 272l-35 283l-154 -283h189zM577 940h-104l-132 135h172zM684 788h-86l-82 53l-123 -53h-91l167 132h129z" />
    <glyph glyph-name="acircumflexgrave" unicode="&#x1ea7;" 
d="M487 17l-4 -17h-153q-7 15 -7 27q0 14 4 34q-43 -39 -81.5 -54.5t-83.5 -15.5q-70 0 -110.5 34t-40.5 90q0 74 53.5 127.5t147.5 68.5l58 9q12 2 26.5 4t20 3t13.5 2.5t10.5 2t7 2t7 3l7.5 4.5q34 17 34 53q0 43 -73 43q-48 0 -73.5 -17t-38.5 -58h-131q21 98 84.5 142.5
t181.5 44.5q93 0 142.5 -32t49.5 -89q0 -18 -6 -45l-63 -300q-3 -12 -3 -21q0 -21 21 -45zM363 231l5 24q-14 -8 -18.5 -9t-28.5 -5l-66 -11q-101 -17 -101 -84q0 -43 75 -43q51 0 86 33.5t48 94.5zM441 751h-104l-132 135h172zM548 599h-86l-82 53l-123 -53h-91l167 132
h129z" />
    <glyph glyph-name="Acircumflexhookabove" unicode="&#x1ea8;" horiz-adv-x="722" 
d="M663 0h-153l-18 147h-272l-81 -147h-153l407 729h173zM478 272l-35 283l-154 -283h189zM740 1060q0 -30 -23 -51q-15 -14 -53 -30q-22 -10 -28 -16t-11 -23h-60q4 39 64 71q18 8 27.5 16t11 12t1.5 11q0 24 -36 24q-45 0 -57 -45h-68q16 51 48.5 72.5t84.5 21.5
q45 0 72 -17.5t27 -45.5zM684 788h-86l-82 53l-123 -53h-91l167 132h129z" />
    <glyph glyph-name="acircumflexhookabove" unicode="&#x1ea9;" 
d="M487 17l-4 -17h-153q-7 15 -7 27q0 14 4 34q-43 -39 -81.5 -54.5t-83.5 -15.5q-70 0 -110.5 34t-40.5 90q0 74 53.5 127.5t147.5 68.5l58 9q12 2 26.5 4t20 3t13.5 2.5t10.5 2t7 2t7 3l7.5 4.5q34 17 34 53q0 43 -73 43q-48 0 -73.5 -17t-38.5 -58h-131q21 98 84.5 142.5
t181.5 44.5q93 0 142.5 -32t49.5 -89q0 -18 -6 -45l-63 -300q-3 -12 -3 -21q0 -21 21 -45zM363 231l5 24q-14 -8 -18.5 -9t-28.5 -5l-66 -11q-101 -17 -101 -84q0 -43 75 -43q51 0 86 33.5t48 94.5zM604 871q0 -30 -23 -51q-15 -14 -53 -30q-22 -10 -28 -16t-11 -23h-60
q4 39 64 71q18 8 27.5 16t11 12t1.5 11q0 24 -36 24q-45 0 -57 -45h-68q16 51 48.5 72.5t84.5 21.5q45 0 72 -17.5t27 -45.5zM548 599h-86l-82 53l-123 -53h-91l167 132h129z" />
    <glyph glyph-name="Acircumflextilde" unicode="&#x1eaa;" horiz-adv-x="722" 
d="M663 0h-153l-18 147h-272l-81 -147h-153l407 729h173zM478 272l-35 283l-154 -283h189zM729 1072q-17 -62 -52.5 -92t-80.5 -30q-32 0 -51 11l-50 25q-30 14 -44 14q-26 0 -51 -48h-54q17 56 48.5 86.5t72.5 30.5q31 0 71 -17l50 -21q25 -11 33 -10q33 0 54 51h54z
M684 788h-86l-82 53l-123 -53h-91l167 132h129z" />
    <glyph glyph-name="acircumflextilde" unicode="&#x1eab;" 
d="M487 17l-4 -17h-153q-7 15 -7 27q0 14 4 34q-43 -39 -81.5 -54.5t-83.5 -15.5q-70 0 -110.5 34t-40.5 90q0 74 53.5 127.5t147.5 68.5l58 9q12 2 26.5 4t20 3t13.5 2.5t10.5 2t7 2t7 3l7.5 4.5q34 17 34 53q0 43 -73 43q-48 0 -73.5 -17t-38.5 -58h-131q21 98 84.5 142.5
t181.5 44.5q93 0 142.5 -32t49.5 -89q0 -18 -6 -45l-63 -300q-3 -12 -3 -21q0 -21 21 -45zM363 231l5 24q-14 -8 -18.5 -9t-28.5 -5l-66 -11q-101 -17 -101 -84q0 -43 75 -43q51 0 86 33.5t48 94.5zM593 883q-17 -62 -52.5 -92t-80.5 -30q-32 0 -51 11l-50 25q-30 14 -44 14
q-26 0 -51 -48h-54q17 56 48.5 86.5t72.5 30.5q31 0 71 -17l50 -21q25 -11 33 -10q33 0 54 51h54zM548 599h-86l-82 53l-123 -53h-91l167 132h129z" />
    <glyph glyph-name="Acircumflexdotbelow" unicode="&#x1eac;" horiz-adv-x="722" 
d="M663 0h-153l-18 147h-272l-81 -147h-153l407 729h173zM478 272l-35 283l-154 -283h189zM683 788h-86l-82 53l-123 -53h-91l167 132h129zM349 -200h-140l27 131h140z" />
    <glyph glyph-name="acircumflexdotbelow" unicode="&#x1ead;" 
d="M487 17l-4 -17h-153q-7 15 -7 27q0 14 4 34q-43 -39 -81.5 -54.5t-83.5 -15.5q-70 0 -110.5 34t-40.5 90q0 74 53.5 127.5t147.5 68.5l58 9q12 2 26.5 4t20 3t13.5 2.5t10.5 2t7 2t7 3l7.5 4.5q34 17 34 53q0 43 -73 43q-48 0 -73.5 -17t-38.5 -58h-131q21 98 84.5 142.5
t181.5 44.5q93 0 142.5 -32t49.5 -89q0 -18 -6 -45l-63 -300q-3 -12 -3 -21q0 -21 21 -45zM363 231l5 24q-14 -8 -18.5 -9t-28.5 -5l-66 -11q-101 -17 -101 -84q0 -43 75 -43q51 0 86 33.5t48 94.5zM525 598h-88l-66 77l-98 -77h-86l140 154h127zM257 -200h-140l27 131h140z
" />
    <glyph glyph-name="Abreveacute" unicode="&#x1eae;" horiz-adv-x="722" 
d="M663 0h-153l-18 147h-272l-81 -147h-153l407 729h173zM478 272l-35 283l-154 -283h189zM768 1084l-190 -135h-104l122 135h172zM678 919q-12 -56 -67 -92.5t-126 -36.5t-106.5 39t-13.5 90h51q-4 -24 8 -36t26.5 -13.5t48.5 -1.5h6q97 0 123 51h50z" />
    <glyph glyph-name="abreveacute" unicode="&#x1eaf;" 
d="M487 17l-4 -17h-153q-7 15 -7 27q0 14 4 34q-43 -39 -81.5 -54.5t-83.5 -15.5q-70 0 -110.5 34t-40.5 90q0 74 53.5 127.5t147.5 68.5l58 9q12 2 26.5 4t20 3t13.5 2.5t10.5 2t7 2t7 3l7.5 4.5q34 17 34 53q0 43 -73 43q-48 0 -73.5 -17t-38.5 -58h-131q21 98 84.5 142.5
t181.5 44.5q93 0 142.5 -32t49.5 -89q0 -18 -6 -45l-63 -300q-3 -12 -3 -21q0 -21 21 -45zM363 231l5 24q-14 -8 -18.5 -9t-28.5 -5l-66 -11q-101 -17 -101 -84q0 -43 75 -43q51 0 86 33.5t48 94.5zM632 895l-190 -135h-104l122 135h172zM542 730q-12 -56 -67 -92.5
t-126 -36.5t-106.5 39t-13.5 90h51q-4 -24 8 -36t26.5 -13.5t48.5 -1.5h6q97 0 123 51h50z" />
    <glyph glyph-name="Abrevegrave" unicode="&#x1eb0;" horiz-adv-x="722" 
d="M663 0h-153l-18 147h-272l-81 -147h-153l407 729h173zM478 272l-35 283l-154 -283h189zM579 949h-104l-133 135h172zM678 919q-12 -56 -67 -92.5t-126 -36.5t-106.5 39t-13.5 90h51q-4 -24 8 -36t26.5 -13.5t48.5 -1.5h6q97 0 123 51h50z" />
    <glyph glyph-name="abrevegrave" unicode="&#x1eb1;" 
d="M487 17l-4 -17h-153q-7 15 -7 27q0 14 4 34q-43 -39 -81.5 -54.5t-83.5 -15.5q-70 0 -110.5 34t-40.5 90q0 74 53.5 127.5t147.5 68.5l58 9q12 2 26.5 4t20 3t13.5 2.5t10.5 2t7 2t7 3l7.5 4.5q34 17 34 53q0 43 -73 43q-48 0 -73.5 -17t-38.5 -58h-131q21 98 84.5 142.5
t181.5 44.5q93 0 142.5 -32t49.5 -89q0 -18 -6 -45l-63 -300q-3 -12 -3 -21q0 -21 21 -45zM363 231l5 24q-14 -8 -18.5 -9t-28.5 -5l-66 -11q-101 -17 -101 -84q0 -43 75 -43q51 0 86 33.5t48 94.5zM443 760h-104l-133 135h172zM542 730q-12 -56 -67 -92.5t-126 -36.5
t-106.5 39t-13.5 90h51q-4 -24 8 -36t26.5 -13.5t48.5 -1.5h6q97 0 123 51h50z" />
    <glyph glyph-name="Abrevehookabove" unicode="&#x1eb2;" horiz-adv-x="722" 
d="M663 0h-153l-18 147h-272l-81 -147h-153l407 729h173zM478 272l-35 283l-154 -283h189zM656 1029q0 -30 -23 -51q-12 -12 -53 -30q-22 -10 -28 -16t-11 -23h-60q4 39 64 71q18 8 27.5 16t11 12t1.5 11q0 24 -36 24q-45 0 -57 -45h-68q16 51 48.5 72.5t84.5 21.5
q45 0 72 -17.5t27 -45.5zM678 919q-12 -56 -67 -92.5t-126 -36.5t-106.5 39t-13.5 90h51q-4 -24 8 -36t26.5 -13.5t48.5 -1.5h6q97 0 123 51h50z" />
    <glyph glyph-name="abrevehookabove" unicode="&#x1eb3;" 
d="M487 17l-4 -17h-153q-7 15 -7 27q0 14 4 34q-43 -39 -81.5 -54.5t-83.5 -15.5q-70 0 -110.5 34t-40.5 90q0 74 53.5 127.5t147.5 68.5l58 9q12 2 26.5 4t20 3t13.5 2.5t10.5 2t7 2t7 3l7.5 4.5q34 17 34 53q0 43 -73 43q-48 0 -73.5 -17t-38.5 -58h-131q21 98 84.5 142.5
t181.5 44.5q93 0 142.5 -32t49.5 -89q0 -18 -6 -45l-63 -300q-3 -12 -3 -21q0 -21 21 -45zM363 231l5 24q-14 -8 -18.5 -9t-28.5 -5l-66 -11q-101 -17 -101 -84q0 -43 75 -43q51 0 86 33.5t48 94.5zM520 840q0 -30 -23 -51q-12 -12 -53 -30q-22 -10 -28 -16.5t-11 -22.5h-60
q4 39 64 71q18 8 27.5 16t11 12t1.5 11q0 24 -36 24q-45 0 -57 -45h-68q16 51 48.5 72.5t84.5 21.5q45 0 72 -17.5t27 -45.5zM542 730q-12 -56 -67 -92.5t-126 -36.5t-106.5 39t-13.5 90h51q-4 -24 8 -36t26.5 -13.5t48.5 -1.5h6q97 0 123 51h50z" />
    <glyph glyph-name="Abrevetilde" unicode="&#x1eb4;" horiz-adv-x="722" 
d="M663 0h-153l-18 147h-272l-81 -147h-153l407 729h173zM478 272l-35 283l-154 -283h189zM730 1081q-17 -62 -52.5 -92t-80.5 -30q-32 0 -51 11l-50 25q-30 14 -44 14q-26 0 -51 -48h-54q17 56 48.5 86.5t72.5 30.5q31 0 71 -17l50 -21q25 -11 33 -10q33 0 54 51h54z
M678 919q-12 -56 -67 -92.5t-126 -36.5t-106.5 39t-13.5 90h51q-4 -24 8 -36t26.5 -13.5t48.5 -1.5h6q97 0 123 51h50z" />
    <glyph glyph-name="abrevetilde" unicode="&#x1eb5;" 
d="M487 17l-4 -17h-153q-7 15 -7 27q0 14 4 34q-43 -39 -81.5 -54.5t-83.5 -15.5q-70 0 -110.5 34t-40.5 90q0 74 53.5 127.5t147.5 68.5l58 9q12 2 26.5 4t20 3t13.5 2.5t10.5 2t7 2t7 3l7.5 4.5q34 17 34 53q0 43 -73 43q-48 0 -73.5 -17t-38.5 -58h-131q21 98 84.5 142.5
t181.5 44.5q93 0 142.5 -32t49.5 -89q0 -18 -6 -45l-63 -300q-3 -12 -3 -21q0 -21 21 -45zM363 231l5 24q-14 -8 -18.5 -9t-28.5 -5l-66 -11q-101 -17 -101 -84q0 -43 75 -43q51 0 86 33.5t48 94.5zM594 892q-17 -62 -52.5 -92t-80.5 -30q-32 0 -51 11l-50 25q-30 14 -44 14
q-26 0 -51 -48h-54q17 56 48.5 86.5t72.5 30.5q31 0 71 -17l50 -21q25 -11 33 -10q33 0 54 51h54zM542 730q-12 -56 -67 -92.5t-126 -36.5t-106.5 39t-13.5 90h51q-4 -24 8 -36t26.5 -13.5t48.5 -1.5h6q97 0 123 51h50z" />
    </font>
</defs>
</svg>
