<?xml version="1.0" standalone="no"?>
<!DOCTYPE svg PUBLIC "-//W3C//DTD SVG 1.1//EN" "http://www.w3.org/Graphics/SVG/1.1/DTD/svg11.dtd" >
<svg xmlns="http://www.w3.org/2000/svg" xmlns:xlink="http://www.w3.org/1999/xlink" version="1.1">
<metadata>
Created by FontForge 20170731 at Fri Feb 22 16:56:56 2008
 By Aleksey,,,
Copyright (URW)++, copyright 1999 by (URW)++ Design &#38; Development; Cyrillic glyphs added by Valek Filippov, copyright 2001-2002; Vietnamese characters were added by Han The Thanh; copyright 2006, 2008 for TeX Gyre extensions by B. Jackowski and J.M. Nowacki (on behalf of TeX users groups). This work is released under the GUST Font License --  see http://tug.org/fonts/licenses/GUST-FONT-LICENSE.txt for details.
</metadata>
<defs>
<font id="TeXGyreHerosCondensed-Bold" horiz-adv-x="456" >
  <font-face 
    font-family="TeXGyreHerosCn"
    font-weight="700"
    font-stretch="condensed"
    units-per-em="1000"
    panose-1="0 0 8 6 0 0 0 0 0 0"
    ascent="793"
    descent="-207"
    x-height="532"
    cap-height="718"
    bbox="-470 -307 1114 1105"
    underline-thickness="50"
    underline-position="-175"
    unicode-range="U+0020-FB04"
  />
<missing-glyph horiz-adv-x="280" 
 />
    <glyph glyph-name="I_J" unicode="IJ" horiz-adv-x="691" 
d="M180 0h-123v718h123v-718zM634 208q0 -226 -190 -226q-120 0 -162 88q-16 31 -21.5 73.5t-5.5 127.5h115q0 -102 14 -134.5t58 -32.5q38 0 53.5 23t15.5 81v510h123v-510z" />
    <glyph glyph-name="i_j" unicode="ij" 
d="M171 0h-114v532h114v-532zM172 618h-114v115h114v-115zM399 -56q0 -89 -30 -123.5t-109 -34.5h-30v112h21q34 0 34 49v585h114v-588zM400 618h-114v115h114v-115z" />
    <glyph glyph-name="f_k" unicode="fk" horiz-adv-x="729" 
d="M261 432h-76v-432h-114v432h-63v100h63v43q0 79 32.5 115.5t101.5 36.5q28 0 54 -2v-113h-33q-27 0 -34 -10.5t-7 -48.5v-21h76v-100zM734 0h-138l-104 228l-48 -60v-168h-114v718h114v-388l144 202h141l-154 -206z" />
    <glyph glyph-name="f_f" unicode="ff" horiz-adv-x="528" 
d="M520 432h-76v-432h-114v432h-145v-432h-114v432h-63v100h63v43q0 79 32.5 115.5t101.5 36.5q28 0 54 -2v-113h-33q-27 0 -34 -10.5t-7 -48.5v-21h145v43q0 79 32.5 115.5t101.5 36.5q28 0 54 -2v-113h-33q-27 0 -34 -10.5t-7 -48.5v-21h76v-100z" />
    <glyph glyph-name="f_i" unicode="fi" horiz-adv-x="501" 
d="M261 432h-76v-432h-114v432h-63v100h63v43q0 79 32.5 115.5t101.5 36.5q28 0 54 -2v-113h-33q-27 0 -34 -10.5t-7 -48.5v-21h76v-100zM444 0h-114v532h114v-532zM445 618h-114v115h114v-115z" />
    <glyph glyph-name="f_l" unicode="fl" horiz-adv-x="501" 
d="M261 432h-76v-432h-114v432h-63v100h63v43q0 79 32.5 115.5t101.5 36.5q28 0 54 -2v-113h-33q-27 0 -34 -10.5t-7 -48.5v-21h76v-100zM444 0h-114v718h114v-718z" />
    <glyph glyph-name="f_f_i" unicode="ffi" horiz-adv-x="760" 
d="M520 432h-76v-432h-114v432h-145v-432h-114v432h-63v100h63v43q0 79 32.5 115.5t101.5 36.5q28 0 54 -2v-113h-33q-27 0 -34 -10.5t-7 -48.5v-21h145v43q0 79 32.5 115.5t101.5 36.5q28 0 54 -2v-113h-33q-27 0 -34 -10.5t-7 -48.5v-21h76v-100zM703 0h-114v532h114v-532
zM704 618h-114v115h114v-115z" />
    <glyph glyph-name="f_f_l" unicode="ffl" horiz-adv-x="760" 
d="M520 432h-76v-432h-114v432h-145v-432h-114v432h-63v100h63v43q0 79 32.5 115.5t101.5 36.5q28 0 54 -2v-113h-33q-27 0 -34 -10.5t-7 -48.5v-21h145v43q0 79 32.5 115.5t101.5 36.5q28 0 54 -2v-113h-33q-27 0 -34 -10.5t-7 -48.5v-21h76v-100zM703 0h-114v718h114v-718
z" />
    <glyph glyph-name=".notdef" horiz-adv-x="280" 
 />
    <glyph glyph-name=".null" horiz-adv-x="0" 
 />
    <glyph glyph-name="nonmarkingreturn" horiz-adv-x="333" 
 />
    <glyph glyph-name="space" unicode=" " horiz-adv-x="228" 
 />
    <glyph glyph-name="exclam" unicode="!" horiz-adv-x="273" 
d="M197 0h-120v142h120v-142zM200 535l-33 -336h-60l-33 336v183h126v-183z" />
    <glyph glyph-name="quotedbl" unicode="&#x22;" horiz-adv-x="389" 
d="M308 447h-80v271h80v-271zM160 447h-80v271h80v-271z" />
    <glyph glyph-name="numbersign" unicode="#" 
d="M441 499l-10 -90h-79l-14 -120h79l-10 -90h-79l-23 -199h-77l23 199h-80l-22 -199h-77l22 199h-79l10 90h79l14 120h-79l10 90h79l23 199h77l-23 -199h80l22 199h77l-22 -199h79zM275 409h-80l-14 -120h80z" />
    <glyph glyph-name="dollar" unicode="$" 
d="M429 201q0 -92 -46 -150t-136 -68v-98h-38v98q-99 10 -141.5 64t-42.5 168h107q0 -63 17 -89.5t60 -36.5v210q-97 33 -134.5 78t-37.5 126q0 90 43.5 145t128.5 62v65h38v-65q173 -20 173 -209h-106q0 55 -16.5 79t-50.5 24v-187q111 -44 146.5 -88t35.5 -128zM209 431
v173q-69 -8 -69 -82q0 -69 69 -91zM319 184q0 70 -72 98v-193q72 9 72 95z" />
    <glyph glyph-name="percent" unicode="%" horiz-adv-x="729" 
d="M276 521q0 -189 -126 -189q-127 0 -127 188q0 190 128 190q125 0 125 -189zM194 521q0 67 -9.5 93t-34.5 26q-26 0 -35.5 -26t-9.5 -98q0 -64 9.5 -89t34.5 -25q26 0 35.5 26t9.5 93zM556 710l-326 -729h-61l326 729h61zM706 177q0 -189 -126 -189q-127 0 -127 188
q0 190 128 190q125 0 125 -189zM624 178q0 67 -9.5 92.5t-34.5 25.5q-26 0 -35.5 -26t-9.5 -97q0 -65 9.5 -90t34.5 -25q26 0 35.5 26t9.5 94z" />
    <glyph glyph-name="ampersand" unicode="&#x26;" horiz-adv-x="592" 
d="M575 0h-139l-40 61q-37 -43 -75 -61.5t-89 -18.5q-83 0 -135.5 58.5t-52.5 150.5q0 120 113 204l13 9q-54 77 -54 151q0 71 43.5 117.5t109.5 46.5q64 0 106 -46.5t42 -117.5q0 -101 -97 -173l83 -126q26 50 31 118h102q-6 -71 -20.5 -117.5t-47.5 -98.5zM317 553
q0 26 -13 42t-35 16q-21 0 -34.5 -15.5t-13.5 -40.5q0 -33 43 -91q30 25 41.5 44.5t11.5 44.5zM337 149l-108 165q-44 -39 -57 -60.5t-13 -54.5q0 -43 24 -71.5t60 -28.5q45 0 94 50z" />
    <glyph glyph-name="quotesingle" unicode="'" horiz-adv-x="195" 
d="M138 447h-81v271h81v-271z" />
    <glyph glyph-name="parenleft" unicode="(" horiz-adv-x="273" 
d="M257 -207h-84q-77 131 -110.5 239t-33.5 231q0 120 32.5 228t111.5 243h84q-62 -133 -86 -237t-24 -235q0 -129 24.5 -233t85.5 -236z" />
    <glyph glyph-name="parenright" unicode=")" horiz-adv-x="273" 
d="M244 263q0 -120 -32.5 -229t-111.5 -241h-84q61 130 85.5 235t24.5 236q0 128 -24 231.5t-86 238.5h84q79 -134 111.5 -241t32.5 -230z" />
    <glyph glyph-name="asterisk" unicode="*" horiz-adv-x="319" 
d="M297 560l-86 -32l56 -97l-51 -44l-56 91l-57 -91l-51 44l55 97l-85 32l19 73l84 -34v119h69v-119l83 34z" />
    <glyph glyph-name="plus" unicode="+" horiz-adv-x="479" 
d="M422 207h-139v-139h-86v139h-140v86h140v140h86v-140h139v-86z" />
    <glyph glyph-name="comma" unicode="," horiz-adv-x="228" 
d="M175 20q0 -161 -123 -188v53q35 14 50 39.5t19 75.5h-69v147h123v-127z" />
    <glyph glyph-name="hyphen" unicode="-" horiz-adv-x="273" 
d="M251 215h-229v130h229v-130z" />
    <glyph glyph-name="period" unicode="." horiz-adv-x="228" 
d="M175 0h-123v147h123v-147z" />
    <glyph glyph-name="slash" unicode="/" horiz-adv-x="228" 
d="M255 737l-186 -756h-96l186 756h96z" />
    <glyph glyph-name="zero" unicode="0" 
d="M430 346q0 -188 -50 -276.5t-152 -88.5q-202 0 -202 362q0 192 50.5 279.5t154.5 87.5q199 0 199 -364zM312 346q0 141 -18.5 196.5t-64.5 55.5q-49 0 -67 -55.5t-18 -206.5q0 -135 18.5 -189t65.5 -54t65.5 55.5t18.5 197.5z" />
    <glyph glyph-name="one" unicode="1" 
d="M310 0h-114v489h-139v98h16q134 0 143 123h94v-710z" />
    <glyph glyph-name="two" unicode="2" 
d="M419 0h-398q4 107 40.5 170t150.5 161q50 46 70.5 81t20.5 76q0 47 -22.5 75.5t-59.5 28.5q-43 0 -62.5 -31t-19.5 -102h-111q0 128 50.5 189.5t140.5 61.5q88 0 143.5 -62t55.5 -161q0 -108 -69 -184q-14 -16 -94 -85q-50 -44 -64.5 -59.5t-24.5 -35.5h253v-123z" />
    <glyph glyph-name="three" unicode="3" 
d="M423 210q0 -102 -56 -165.5t-145 -63.5q-192 0 -200 237h113v-9q1 -56 22.5 -86t60.5 -30t63 31.5t24 83.5q0 56 -29.5 79t-100.5 24v100h18q97 0 97 93q0 43 -19.5 68.5t-53.5 25.5q-77 0 -78 -116h-107q10 228 189 228q83 0 133.5 -53t50.5 -141q0 -95 -71 -140
q89 -39 89 -166z" />
    <glyph glyph-name="four" unicode="4" 
d="M431 157h-65v-157h-114v157h-230v120l214 433h130v-445h65v-108zM255 265v309l-148 -309h148z" />
    <glyph glyph-name="five" unicode="5" 
d="M423 237q0 -116 -56.5 -186t-150.5 -70q-83 0 -135 54t-59 155h115q10 -97 80 -97q40 0 64 36.5t24 95.5t-23.5 93.5t-64.5 34.5q-49 0 -75 -51l-102 6l40 390h320v-118h-237l-21 -154q49 39 102 39q79 0 129 -64t50 -164z" />
    <glyph glyph-name="six" unicode="6" 
d="M426 234q0 -113 -54 -183t-141 -70q-206 0 -206 360q0 186 54.5 277.5t155.5 91.5q79 0 122 -42t57 -138h-114q-7 68 -66 68q-46 0 -68 -46t-29 -155q22 34 47 48t63 14q80 0 129.5 -62t49.5 -163zM311 226q0 55 -23 88t-61 33q-40 0 -63.5 -33t-23.5 -89q0 -58 25 -95
t65 -37q37 0 59 35.5t22 97.5z" />
    <glyph glyph-name="seven" unicode="7" 
d="M433 591q-192 -260 -213 -591h-118q18 313 208 575h-288v123h411v-107z" />
    <glyph glyph-name="eight" unicode="8" 
d="M430 214q0 -104 -56.5 -168.5t-147.5 -64.5q-92 0 -146 60t-54 162q0 63 21 103.5t68 70.5q-38 25 -54.5 57.5t-16.5 81.5q0 87 50.5 140.5t132.5 53.5q81 0 132 -52t51 -135q0 -94 -67 -141q48 -32 67.5 -69.5t19.5 -98.5zM300 510q0 39 -19 63.5t-50 24.5
q-35 0 -56 -23.5t-21 -62.5t21.5 -64.5t53.5 -25.5t51.5 24t19.5 64zM312 206q0 49 -23.5 79.5t-60.5 30.5q-39 0 -61.5 -29.5t-22.5 -80.5q0 -52 23 -82.5t61 -30.5q37 0 60.5 31.5t23.5 81.5z" />
    <glyph glyph-name="nine" unicode="9" 
d="M428 354q0 -178 -54.5 -275.5t-158.5 -97.5q-73 0 -120.5 47.5t-57.5 135.5h113q7 -37 22.5 -54t43.5 -17q44 0 69 46t29 157q-38 -63 -112 -63q-79 0 -128 63t-49 166q0 114 53.5 181t144.5 67q205 0 205 -356zM310 468q0 58 -23 92.5t-62 34.5q-41 0 -63 -31.5
t-22 -89.5q0 -129 83 -129q40 0 63.5 33t23.5 90z" />
    <glyph glyph-name="colon" unicode=":" horiz-adv-x="273" 
d="M198 0h-123v147h123v-147zM198 365h-123v147h123v-147z" />
    <glyph glyph-name="semicolon" unicode=";" horiz-adv-x="273" 
d="M198 20q0 -79 -34 -129.5t-89 -58.5v53q35 14 50 39.5t19 75.5h-69v147h123v-127zM198 365h-123v147h123v-147z" />
    <glyph glyph-name="less" unicode="&#x3c;" horiz-adv-x="479" 
d="M365 -97l-283 318v58l283 318v-130l-193 -217l193 -217v-130z" />
    <glyph glyph-name="equal" unicode="=" horiz-adv-x="479" 
d="M422 297h-365v86h365v-86zM422 117h-365v86h365v-86z" />
    <glyph glyph-name="greater" unicode="&#x3e;" horiz-adv-x="479" 
d="M365 221l-283 -318v130l193 217l-193 217v130l283 -318v-58z" />
    <glyph glyph-name="question" unicode="?" horiz-adv-x="501" 
d="M456 519q0 -58 -21 -98t-78 -91q-31 -27 -40.5 -50t-10.5 -72h-108q0 80 16 118.5t68 84.5q28 25 39.5 47.5t11.5 53.5q0 45 -21.5 71t-59.5 26t-62.5 -30t-24.5 -70v-16h-116q0 113 54 173.5t145 60.5q94 0 151 -57t57 -151zM315 0h-120v142h120v-142z" />
    <glyph glyph-name="at" unicode="@" horiz-adv-x="800" 
d="M702 425q0 -116 -66 -202t-145 -86q-40 0 -45 56q-45 -56 -88 -56q-54 0 -92.5 52.5t-38.5 126.5q0 99 51.5 170.5t123.5 71.5q34 0 56.5 -15t42.5 -50l11 53h72l-48 -255q-5 -24 -5 -43t13 -19q37 0 64 52.5t27 124.5q0 112 -61 181.5t-160 69.5q-104 0 -169.5 -83.5
t-65.5 -216.5q0 -131 68 -213.5t176 -82.5q95 0 172 81h73q-54 -87 -114.5 -124t-135.5 -37q-136 0 -228.5 109t-92.5 268q0 158 92 268.5t225 110.5q122 0 205 -90t83 -222zM477 375q0 37 -18.5 61.5t-46.5 24.5q-39 0 -68 -41t-29 -96q0 -39 17.5 -63t46.5 -24
q39 0 68.5 41.5t29.5 96.5z" />
    <glyph glyph-name="A" unicode="A" horiz-adv-x="592" 
d="M576 0h-134l-38 148h-217l-41 -148h-130l210 718h142zM370 271l-74 288l-76 -288h150z" />
    <glyph glyph-name="B" unicode="B" horiz-adv-x="592" 
d="M549 216q0 -90 -51 -152q-31 -37 -70.5 -50.5t-116.5 -13.5h-249v718h286q85 0 133.5 -50t48.5 -137q0 -53 -17 -87t-55 -57q91 -50 91 -171zM426 225q0 43 -23.5 66.5t-65.5 23.5h-157v-192h151q95 0 95 102zM412 519q0 76 -91 76h-141v-158h144q42 0 65 21t23 61z" />
    <glyph glyph-name="C" unicode="C" horiz-adv-x="592" 
d="M561 246q-50 -265 -255 -265q-125 0 -197.5 100.5t-72.5 275.5t73.5 277.5t199.5 102.5q102 0 170.5 -68t81.5 -186h-123q-15 64 -45 94t-81 30q-71 0 -111 -66.5t-40 -184.5q0 -115 39 -180t108 -65q51 0 82.5 31.5t47.5 103.5h123z" />
    <glyph glyph-name="D" unicode="D" horiz-adv-x="592" 
d="M562 374q0 -165 -64 -269.5t-181 -104.5h-255v718h260q114 0 177 -90.5t63 -253.5zM437 370q0 225 -137 225h-118v-472h120q64 0 99.5 65t35.5 182z" />
    <glyph glyph-name="E" unicode="E" horiz-adv-x="547" 
d="M509 0h-447v718h433v-127h-313v-151h288v-127h-288v-186h327v-127z" />
    <glyph glyph-name="F" unicode="F" horiz-adv-x="501" 
d="M481 591h-296v-162h259v-127h-259v-302h-123v718h419v-127z" />
    <glyph glyph-name="G" unicode="G" horiz-adv-x="638" 
d="M585 0h-82l-13 90q-43 -61 -83.5 -85t-100.5 -24q-121 0 -195.5 103t-74.5 270q0 176 78 279.5t210 103.5q105 0 174 -63.5t85 -178.5h-124q-9 52 -46 85.5t-86 33.5q-77 0 -121.5 -70t-44.5 -190q0 -117 43.5 -181.5t122.5 -64.5q55 0 92 36t57 121h-138v122h247v-387z
" />
    <glyph glyph-name="H" unicode="H" horiz-adv-x="592" 
d="M534 0h-123v323h-230v-323h-123v718h123v-272h230v272h123v-718z" />
    <glyph glyph-name="I" unicode="I" horiz-adv-x="228" 
d="M175 0h-123v718h123v-718z" />
    <glyph glyph-name="J" unicode="J" 
d="M397 208q0 -226 -190 -226q-120 0 -162 88q-16 31 -21.5 73.5t-5.5 127.5h115q0 -102 14 -134.5t58 -32.5q38 0 53.5 23t15.5 81v510h123v-510z" />
    <glyph glyph-name="K" unicode="K" horiz-adv-x="592" 
d="M592 0h-158l-183 315l-57 -72v-243h-123v718h123v-292l225 292h159l-240 -294z" />
    <glyph glyph-name="L" unicode="L" horiz-adv-x="501" 
d="M478 0h-416v718h123v-588h293v-130z" />
    <glyph glyph-name="M" unicode="M" horiz-adv-x="683" 
d="M627 0h-114v609l-112 -609h-121l-109 609v-609h-114v718h179l108 -570l106 570h177v-718z" />
    <glyph glyph-name="N" unicode="N" horiz-adv-x="592" 
d="M536 0h-122l-243 515v-515h-114v718h129l236 -504v504h114v-718z" />
    <glyph glyph-name="O" unicode="O" horiz-adv-x="638" 
d="M602 359q0 -177 -77 -277.5t-206 -100.5q-130 0 -206.5 101t-76.5 276q0 179 77.5 279t209.5 100q125 0 202 -101t77 -277zM479 362q0 113 -43 180.5t-115 67.5q-76 0 -119 -66.5t-43 -182.5q0 -119 42.5 -186t117.5 -67t117.5 67.5t42.5 186.5z" />
    <glyph glyph-name="P" unicode="P" horiz-adv-x="547" 
d="M514 495q0 -107 -51.5 -171t-136.5 -64h-141v-260h-123v718h269q83 0 133 -61t50 -162zM391 492q0 55 -25 79t-83 24h-98v-212h114q92 0 92 109z" />
    <glyph glyph-name="Q" unicode="Q" horiz-adv-x="638" 
d="M604 29l-65 -81l-69 81q-73 -48 -152 -48q-128 0 -205 100.5t-77 277.5t77 277.5t206 100.5t206 -100.5t77 -278.5q0 -148 -62 -255zM479 359q0 116 -43 183.5t-117 67.5q-73 0 -116.5 -67t-43.5 -180q0 -119 42.5 -187t116.5 -68q33 0 67 19l-59 68l63 81l63 -71
q27 68 27 154z" />
    <glyph glyph-name="R" unicode="R" horiz-adv-x="592" 
d="M555 0h-136q-14 64 -14 144q0 65 -10 94t-27 35.5t-59 6.5h-127v-280h-120v718h297q85 0 135.5 -55.5t50.5 -148.5q0 -127 -91 -170q48 -26 61.5 -65t13.5 -151q0 -61 4.5 -81t21.5 -28v-19zM422 498q0 47 -22.5 72t-63.5 25h-154v-193h145q49 0 72 23.5t23 72.5z" />
    <glyph glyph-name="S" unicode="S" horiz-adv-x="547" 
d="M516 214q0 -108 -64 -170.5t-175 -62.5q-114 0 -177.5 61t-67.5 179h118q7 -117 128 -117q57 0 88.5 24t31.5 68q0 35 -22.5 54t-84.5 37l-63 18q-114 32 -150.5 76t-36.5 131q0 105 59.5 165t164.5 60q106 0 165.5 -59.5t66.5 -172.5h-118q-7 57 -35 83t-83 26
q-49 0 -77 -23.5t-28 -63.5q0 -31 14 -48t48 -27l144 -43q82 -25 118 -70t36 -125z" />
    <glyph glyph-name="T" unicode="T" horiz-adv-x="501" 
d="M490 591h-178v-591h-123v591h-178v127h479v-127z" />
    <glyph glyph-name="U" unicode="U" horiz-adv-x="592" 
d="M534 251q0 -132 -61 -201t-178 -69q-113 0 -174.5 68.5t-61.5 192.5v476h125v-466q0 -69 29 -106.5t82 -37.5q56 0 85 35t29 102v473h125v-467z" />
    <glyph glyph-name="V" unicode="V" horiz-adv-x="547" 
d="M531 718l-200 -718h-117l-198 718h132l127 -548l128 548h128z" />
    <glyph glyph-name="W" unicode="W" horiz-adv-x="774" 
d="M762 718l-166 -718h-118l-92 565l-67 -423l-25 -142h-114l-167 718h131q80 -418 95 -531l82 531h131l88 -531l97 531h125z" />
    <glyph glyph-name="X" unicode="X" horiz-adv-x="547" 
d="M535 0h-150l-112 245l-118 -245h-144l190 367l-179 351h146l105 -232l108 232h142l-180 -345z" />
    <glyph glyph-name="Y" unicode="Y" horiz-adv-x="547" 
d="M535 718l-197 -449v-269h-123v271l-203 447h145l122 -312l117 312h139z" />
    <glyph glyph-name="Z" unicode="Z" horiz-adv-x="501" 
d="M481 0h-461v127l305 464h-297v127h451v-118l-309 -473h311v-127z" />
    <glyph glyph-name="bracketleft" unicode="[" horiz-adv-x="273" 
d="M253 -196h-201v918h201v-97h-101v-724h101v-97z" />
    <glyph glyph-name="backslash" unicode="\" horiz-adv-x="228" 
d="M255 -19h-96l-186 756h96z" />
    <glyph glyph-name="bracketright" unicode="]" horiz-adv-x="273" 
d="M221 -196h-201v97h101v724h-101v97h201v-918z" />
    <glyph glyph-name="asciicircum" unicode="^" horiz-adv-x="479" 
d="M428 323h-90l-99 263l-99 -263h-89l148 375h81z" />
    <glyph glyph-name="underscore" unicode="_" 
d="M456 -125h-456v50h456v-50z" />
    <glyph glyph-name="grave" unicode="`" horiz-adv-x="273" 
d="M178 602h-83l-120 146h126z" />
    <glyph glyph-name="a" unicode="a" 
d="M432 0h-123q-7 27 -11 63q-34 -43 -65 -60t-73 -17q-63 0 -99.5 42t-36.5 114q0 70 33.5 114t94.5 55l103 19q40 7 40 44q0 60 -71 60q-37 0 -54 -16.5t-22 -57.5h-110q10 101 55 143.5t136 42.5q85 0 131.5 -40.5t46.5 -113.5v-288q0 -70 25 -83v-21zM295 191v68
q-19 -17 -78 -29q-43 -9 -60.5 -27t-17.5 -52q0 -30 15 -47.5t40 -17.5q42 0 71.5 30.5t29.5 74.5z" />
    <glyph glyph-name="b" unicode="b" horiz-adv-x="501" 
d="M474 272q0 -131 -50 -208.5t-134 -77.5q-87 0 -128 84v-70h-112v718h114v-258q25 46 55 66t72 20q83 0 133 -75t50 -199zM356 264q0 75 -26 117.5t-71 42.5q-48 0 -73.5 -42t-25.5 -121q0 -77 26 -118.5t74 -41.5q44 0 70 44.5t26 118.5z" />
    <glyph glyph-name="c" unicode="c" 
d="M430 342h-116q-8 45 -25.5 65.5t-48.5 20.5q-94 0 -94 -163q0 -164 87 -164q33 0 54.5 25.5t25.5 67.5h116q-13 -101 -64 -154.5t-136 -53.5q-97 0 -149 71t-52 202q0 135 55 211t152 76q84 0 134.5 -51.5t60.5 -152.5z" />
    <glyph glyph-name="d" unicode="d" horiz-adv-x="501" 
d="M452 0h-112v70q-41 -84 -128 -84q-84 0 -134 77.5t-50 208.5q0 124 50 199t133 75q42 0 71.5 -20t55.5 -66v258h114v-718zM342 260q0 78 -25 121t-71 43q-47 0 -73.5 -42t-26.5 -118q0 -75 26 -119t70 -44q48 0 74 41.5t26 117.5z" />
    <glyph glyph-name="e" unicode="e" 
d="M433 227h-299q5 -67 29 -97.5t71 -30.5q59 0 76 58h118q-49 -171 -196 -171q-102 0 -157.5 73.5t-55.5 208.5q0 130 55 204t152 74q100 0 153.5 -76t53.5 -218v-25zM315 319q-12 112 -90 112q-38 0 -59 -27t-29 -85h178z" />
    <glyph glyph-name="f" unicode="f" horiz-adv-x="273" 
d="M261 432h-76v-432h-114v432h-63v100h63v43q0 79 32.5 115.5t101.5 36.5q28 0 54 -2v-113h-33q-27 0 -34 -10.5t-7 -48.5v-21h76v-100z" />
    <glyph glyph-name="g" unicode="g" horiz-adv-x="501" 
d="M453 28q0 -132 -53 -188.5t-160 -56.5q-176 0 -198 160h125q5 -28 22.5 -40.5t53.5 -12.5q50 0 72.5 28.5t22.5 92.5v69q-22 -46 -48 -64.5t-70 -18.5q-86 0 -136.5 73.5t-50.5 200.5q0 125 50 200t132 75q45 0 75.5 -22.5t52.5 -73.5v82h110v-504zM339 267
q0 70 -26.5 113.5t-69.5 43.5t-67.5 -42t-24.5 -115q0 -71 24.5 -111.5t67.5 -40.5q46 0 71 40t25 112z" />
    <glyph glyph-name="h" unicode="h" horiz-adv-x="501" 
d="M448 0h-114v323q0 55 -17.5 80t-56.5 25q-43 0 -68 -33t-25 -90v-305h-114v718h114v-259q35 87 131 87q68 0 109 -48.5t41 -129.5v-368z" />
    <glyph glyph-name="i" unicode="i" horiz-adv-x="228" 
d="M171 0h-114v532h114v-532zM172 618h-114v115h114v-115z" />
    <glyph glyph-name="j" unicode="j" horiz-adv-x="228" 
d="M171 -56q0 -89 -30 -123.5t-109 -34.5h-30v112h21q34 0 34 49v585h114v-588zM172 618h-114v115h114v-115z" />
    <glyph glyph-name="k" unicode="k" 
d="M461 0h-138l-104 228l-48 -60v-168h-114v718h114v-388l144 202h141l-154 -206z" />
    <glyph glyph-name="l" unicode="l" horiz-adv-x="228" 
d="M171 0h-114v718h114v-718z" />
    <glyph glyph-name="m" unicode="m" horiz-adv-x="729" 
d="M677 0h-114v323q0 105 -65 105q-77 0 -77 -109v-319h-114v320q0 60 -15 84t-53 24q-73 0 -73 -104v-324h-114v532h110v-81q20 50 51 72.5t77 22.5q41 0 66.5 -18t51.5 -67q25 46 53 65.5t69 19.5q66 0 106.5 -49t40.5 -129v-368z" />
    <glyph glyph-name="n" unicode="n" horiz-adv-x="501" 
d="M448 0h-114v323q0 55 -17.5 80t-56.5 25q-43 0 -68 -33t-25 -90v-305h-114v532h110v-81q45 95 134 95q69 0 110 -48t41 -130v-368z" />
    <glyph glyph-name="o" unicode="o" horiz-adv-x="501" 
d="M474 265q0 -127 -61 -203t-162 -76t-162 76t-61 203q0 129 61 205t165 76q100 0 160 -77t60 -204zM356 266q0 78 -27 120t-77 42q-106 0 -106 -162q0 -79 27 -120.5t78 -41.5t78 41.5t27 120.5z" />
    <glyph glyph-name="p" unicode="p" horiz-adv-x="501" 
d="M474 272q0 -131 -50 -208.5t-135 -77.5q-44 0 -72.5 19.5t-51.5 65.5v-278h-114v739h110v-80q25 50 55 72t74 22q83 0 133.5 -75t50.5 -199zM356 265q0 74 -26 116.5t-72 42.5q-97 0 -97 -164q0 -77 25.5 -118t73.5 -41q44 0 70 44.5t26 119.5z" />
    <glyph glyph-name="q" unicode="q" horiz-adv-x="501" 
d="M453 -207h-114v276q-22 -44 -51 -63.5t-74 -19.5q-84 0 -135 75.5t-51 199.5q0 127 52.5 206t137.5 79q44 0 73.5 -22.5t51.5 -73.5v82h110v-739zM341 263q0 74 -26.5 117.5t-71.5 43.5q-46 0 -71.5 -43.5t-25.5 -122.5q0 -154 97 -154q47 0 72.5 41.5t25.5 117.5z" />
    <glyph glyph-name="r" unicode="r" horiz-adv-x="319" 
d="M306 402q-16 2 -29 2q-111 0 -111 -127v-277h-114v532h110v-95q26 61 52.5 85t68.5 24q10 0 23 -2v-142z" />
    <glyph glyph-name="s" unicode="s" 
d="M426 166q0 -84 -52 -132t-142 -48q-190 0 -207 184h118q3 -77 93 -77q35 0 55 15t20 40q0 40 -95 59q-91 17 -133 56t-42 106q0 82 48.5 129.5t132.5 47.5q87 0 133 -40t58 -136h-113q-6 39 -23 54t-55 15q-69 0 -69 -50q0 -41 94 -58q94 -18 136.5 -59t42.5 -106z" />
    <glyph glyph-name="t" unicode="t" horiz-adv-x="273" 
d="M253 -4q-39 -2 -55 -2h-15q-63 0 -89.5 26t-26.5 89v323h-59v100h59v144h114v-144h72v-100h-72v-289q0 -28 8.5 -35.5t38.5 -7.5q12 0 25 2v-106z" />
    <glyph glyph-name="u" unicode="u" horiz-adv-x="501" 
d="M447 0h-110v78q-44 -92 -136 -92q-70 0 -108.5 51t-38.5 145v350h114v-330q0 -98 74 -98q43 0 67 32.5t24 88.5v307h114v-532z" />
    <glyph glyph-name="v" unicode="v" 
d="M445 532l-157 -532h-121l-156 532h128l91 -396l93 396h122z" />
    <glyph glyph-name="w" unicode="w" horiz-adv-x="638" 
d="M631 532l-126 -532h-118l-69 393l-69 -393h-118l-123 532h122l69 -387l63 387h115l67 -387l69 387h118z" />
    <glyph glyph-name="x" unicode="x" 
d="M444 0h-142l-76 160l-75 -160h-139l149 271l-143 261h139l74 -155l73 155h135l-144 -261z" />
    <glyph glyph-name="y" unicode="y" 
d="M442 532l-150 -523q-44 -154 -68 -186q-27 -37 -98 -37l-55 2v112q16 -2 24 -2q37 0 51.5 15.5t22.5 64.5l-161 554h128l94 -396l90 396h122z" />
    <glyph glyph-name="z" unicode="z" horiz-adv-x="410" 
d="M394 0h-378v109l225 311h-209v112h354v-115l-221 -302h229v-115z" />
    <glyph glyph-name="braceleft" unicode="{" horiz-adv-x="319" 
d="M299 -196h-68q-50 0 -82.5 39t-32.5 98v200q0 70 -77 76v92q37 3 57 22.5t20 53.5v200q0 59 32.5 98t82.5 39h68v-88h-37q-46 0 -46 -66v-196q0 -41 -26 -70.5t-72 -38.5q46 -9 72 -39t26 -70v-196q0 -66 46 -66h37v-88z" />
    <glyph glyph-name="bar" unicode="|" horiz-adv-x="230" 
d="M158 -196h-86v918h86v-918z" />
    <glyph glyph-name="braceright" unicode="}" horiz-adv-x="319" 
d="M280 217q-77 -6 -77 -76v-200q0 -59 -33 -98t-82 -39h-68v88h37q46 0 46 66v196q0 40 26 70t72 39q-46 9 -72 38.5t-26 70.5v196q0 66 -46 66h-37v88h68q49 0 82 -39t33 -98v-200q0 -34 20 -53.5t57 -22.5v-92z" />
    <glyph glyph-name="asciitilde" unicode="~" horiz-adv-x="479" 
d="M429 267q-26 -52 -49.5 -73t-57.5 -21q-18 0 -79.5 25.5t-80.5 25.5q-35 0 -56 -37l-56 55q26 52 49.5 73t57.5 21q18 0 79 -25.5t81 -25.5q35 0 56 36z" />
    <glyph glyph-name="uni00A0" unicode="&#xa0;" horiz-adv-x="228" 
 />
    <glyph glyph-name="exclamdown" unicode="&#xa1;" horiz-adv-x="273" 
d="M196 390h-120v142h120v-142zM199 -186h-126v183l33 336h60l33 -336v-183z" />
    <glyph glyph-name="cent" unicode="&#xa2;" 
d="M430 342h-116q-9 48 -28 68l-72 -305q8 -4 20 -4q32 0 54 26t25 67h116q-13 -101 -64 -154.5t-136 -53.5q-25 0 -41 4l-25 -108h-43l28 120q-62 33 -91 94.5t-29 160.5q0 138 54.5 213.5t154.5 75.5q17 0 37 -3l20 85h42l-22 -98q106 -47 116 -188zM247 428h-10
q-44 0 -67.5 -42t-23.5 -121q0 -93 31 -136z" />
    <glyph glyph-name="sterling" unicode="&#xa3;" 
d="M444 29q-62 -45 -122 -45q-38 0 -102 26q-34 14 -59 14q-17 0 -32.5 -6t-57.5 -29l-45 97q39 27 65 69t26 77q0 38 -18 89h-76v60h48q-34 87 -34 135q0 88 55 145t141 57q91 0 142 -57.5t56 -173.5h-107q-10 73 -29.5 96t-58.5 23q-37 0 -60.5 -26t-23.5 -67
q0 -23 40 -132h117v-60h-98q4 -31 4 -54q0 -48 -19 -83.5t-69 -85.5q62 29 100 29q16 0 55.5 -12.5t45.5 -12.5q35 0 82 36z" />
    <glyph glyph-name="currency" unicode="&#xa4;" 
d="M416 266q0 -53 -28 -98l14 -13l-61 -61l-13 14q-45 -28 -98 -28t-98 28l-13 -14l-61 61l14 13q-28 45 -28 98t28 98l-14 13l61 61l13 -14q45 28 98 28t98 -28l13 14l61 -61l-14 -13q28 -45 28 -98zM330 266q0 41 -29.5 70.5t-70.5 29.5t-70.5 -29.5t-29.5 -70.5
t29.5 -70.5t70.5 -29.5t70.5 29.5t29.5 70.5z" />
    <glyph glyph-name="yen" unicode="&#xa5;" 
d="M463 698l-123 -293h110v-60h-136l-31 -74h167v-60h-168v-211h-103v211h-166v60h166l-33 74h-133v60h107l-127 293h123l117 -294l113 294h117z" />
    <glyph glyph-name="brokenbar" unicode="&#xa6;" horiz-adv-x="230" 
d="M158 355h-86v367h86v-367zM158 -196h-86v367h86v-367z" />
    <glyph glyph-name="section" unicode="&#xa7;" 
d="M428 278q0 -93 -78 -144q51 -55 51 -131q0 -82 -50 -134.5t-129 -52.5q-75 0 -119 48.5t-51 138.5h108q9 -80 70 -80q28 0 44.5 19.5t16.5 51.5q0 21 -10.5 36t-37.5 31l-126 78q-48 30 -68.5 65.5t-20.5 89.5q0 46 17 76.5t59 61.5q-42 52 -42 117q0 77 47 127.5
t120 50.5q149 0 164 -183h-104q-7 76 -63 76q-26 0 -43 -16t-17 -41q0 -32 31 -51l133 -81q98 -61 98 -153zM326 243q0 37 -46 66l-120 74q-35 -18 -35 -61q0 -34 38 -59l128 -84q35 25 35 64z" />
    <glyph glyph-name="dieresis" unicode="&#xa8;" horiz-adv-x="273" 
d="M102 618h-96v115h96v-115zM267 618h-96v115h96v-115z" />
    <glyph glyph-name="copyright" unicode="&#xa9;" horiz-adv-x="604" 
d="M584 329q0 -141 -79.5 -244.5t-202.5 -103.5t-202.5 103.5t-79.5 244.5t79.5 244.5t202.5 103.5t202.5 -103.5t79.5 -244.5zM528 329q0 118 -62.5 205t-163.5 87t-163.5 -87t-62.5 -205t62.5 -205t163.5 -87t163.5 87t62.5 205zM458 278q-29 -150 -152 -150
q-74 0 -117 53.5t-43 146.5t43.5 148t117.5 55q62 0 103.5 -38.5t46.5 -105.5h-82q-15 64 -66 64q-38 0 -58.5 -32.5t-20.5 -90.5q0 -56 20.5 -88t56.5 -32q53 0 68 70h83z" />
    <glyph glyph-name="ordfeminine" unicode="&#xaa;" horiz-adv-x="303" 
d="M285 409h-80q-4 12 -7 38q-39 -46 -90 -46q-41 0 -65.5 25t-24.5 68q0 41 22.5 69t61.5 35l68 11q26 4 26 23q0 33 -46 33q-24 0 -35 -9t-15 -31h-72q8 60 36.5 86t87.5 26q55 0 85.5 -24.5t30.5 -68.5v-173q0 -42 17 -49v-13zM196 525v40q-9 -6 -36.5 -12.5t-46 -18
t-18.5 -34.5q0 -37 35 -37q28 0 47 18t19 44zM274 276h-248v80h248v-80z" />
    <glyph glyph-name="guillemotleft" unicode="&#xab;" 
d="M209 76l-137 144v120l137 144v-116l-82 -88l82 -88v-116zM384 76l-137 144v120l137 144v-116l-82 -88l82 -88v-116z" />
    <glyph glyph-name="logicalnot" unicode="&#xac;" horiz-adv-x="479" 
d="M422 383v-223h-86v137h-279v86h365z" />
    <glyph glyph-name="uni00AD" unicode="&#xad;" horiz-adv-x="273" 
d="M251 215h-229v130h229v-130z" />
    <glyph glyph-name="registered" unicode="&#xae;" horiz-adv-x="604" 
d="M584 329q0 -141 -79.5 -244.5t-202.5 -103.5t-202.5 103.5t-79.5 244.5t79.5 244.5t202.5 103.5t202.5 -103.5t79.5 -244.5zM528 329q0 118 -62.5 205t-163.5 87t-163.5 -87t-62.5 -205t62.5 -205t163.5 -87t163.5 87t62.5 205zM448 159v-21h-88q-10 40 -10 81
q0 43 -9 53t-39 10h-65v-144h-81v383h175q51 0 81.5 -30.5t30.5 -81.5q0 -61 -44 -87q21 -13 28 -35t7 -77q0 -32 2 -40t12 -11zM360 401q0 44 -42 44h-81v-87h76q47 0 47 43z" />
    <glyph glyph-name="macron" unicode="&#xaf;" horiz-adv-x="273" 
d="M278 639h-283v73h283v-73z" />
    <glyph glyph-name="degree" unicode="&#xb0;" horiz-adv-x="328" 
d="M281 569q0 -59 -34.5 -101t-82.5 -42t-82.5 42t-34.5 101t34.5 101t83.5 42q47 0 81.5 -42.5t34.5 -100.5zM235 569q0 35 -21 60.5t-49 25.5q-30 0 -51 -25t-21 -61q0 -35 21 -60.5t50 -25.5t50 25.5t21 60.5z" />
    <glyph glyph-name="plusminus" unicode="&#xb1;" horiz-adv-x="479" 
d="M422 293h-139v-130h-86v130h-140v86h140v140h86v-140h139v-86zM422 0h-365v86h365v-86z" />
    <glyph glyph-name="two.superior" unicode="&#xb2;" horiz-adv-x="273" 
d="M266 283h-259q4 66 27.5 105t93.5 94q34 28 46.5 50.5t12.5 53.5q0 24 -15 41t-35 17q-27 0 -39.5 -20t-14.5 -66h-72q6 164 125 164q57 0 93 -40.5t36 -105.5q0 -53 -18 -82t-80 -78q-43 -34 -54 -51h153v-82z" />
    <glyph glyph-name="three.superior" unicode="&#xb3;" horiz-adv-x="273" 
d="M267 418q0 -65 -36.5 -106t-94.5 -41q-60 0 -92 35.5t-37 118.5h73q1 -79 54 -79t53 71q0 35 -17.5 48.5t-63.5 13.5v64h12q32 0 46 12t14 40q0 52 -45 52q-48 0 -50 -62h-69q1 69 33.5 103t89.5 34q54 0 86.5 -32t32.5 -85q0 -59 -47 -85q58 -24 58 -102z" />
    <glyph glyph-name="acute" unicode="&#xb4;" horiz-adv-x="273" 
d="M298 748l-120 -146h-83l77 146h126z" />
    <glyph glyph-name="mu" unicode="&#xb5;" horiz-adv-x="501" 
d="M447 0h-110v78q-43 -92 -109 -92q-37 0 -60 26v-219h-114v739h114v-330q0 -98 74 -98q43 0 67 32.5t24 88.5v307h114v-532z" />
    <glyph glyph-name="paragraph" unicode="&#xb6;" 
d="M442 -191h-92v806h-83v-806h-92v538q-182 9 -182 176q0 90 49.5 133.5t150.5 43.5h249v-891z" />
    <glyph glyph-name="periodcentered" unicode="&#xb7;" horiz-adv-x="228" 
d="M176 250q0 -26 -18 -44t-44 -18t-44 18t-18 44t18 44t44 18t44 -18t18 -44z" />
    <glyph glyph-name="cedilla" unicode="&#xb8;" horiz-adv-x="273" 
d="M201 -135q0 -45 -29 -75t-75 -30q-36 0 -92 25l18 48q45 -16 62 -16q19 0 29 13.5t10 31.5q0 15 -9.5 25.5t-22.5 10.5q-10 0 -32 -8l-17 20l45 92h48l-27 -59h20q32 0 52 -22t20 -56z" />
    <glyph glyph-name="one.superior" unicode="&#xb9;" horiz-adv-x="273" 
d="M194 283h-83v291h-90v62h11q86 0 92 74h70v-427z" />
    <glyph glyph-name="ordmasculine" unicode="&#xba;" horiz-adv-x="299" 
d="M295 569q0 -74 -40.5 -121t-104.5 -47q-65 0 -105 46.5t-40 121.5q0 76 40.5 122t106.5 46q63 0 103 -47t40 -121zM215 569q0 42 -18 69t-46 27q-30 0 -48 -26.5t-18 -69.5t18 -69.5t47 -26.5t47 26.5t18 69.5zM272 276h-245v80h245v-80z" />
    <glyph glyph-name="guillemotright" unicode="&#xbb;" 
d="M384 220l-137 -144v116l82 88l-82 88v116l137 -144v-120zM209 220l-137 -144v116l82 88l-82 88v116l137 -144v-120z" />
    <glyph glyph-name="onequarter" unicode="&#xbc;" horiz-adv-x="684" 
d="M628 90h-41v-90h-78v90h-150v73l139 261h89v-266h41v-68zM526 710l-350 -735h-65l351 735h64zM194 283h-83v291h-90v62h11q86 0 92 74h70v-427zM514 157v186l-96 -186h96z" />
    <glyph glyph-name="onehalf" unicode="&#xbd;" horiz-adv-x="684" 
d="M526 710l-350 -735h-65l351 735h64zM194 283h-83v291h-90v62h11q86 0 92 74h70v-427zM651 0h-258q3 66 26.5 105t93.5 94q34 28 46.5 50.5t12.5 53.5q0 24 -14.5 41t-35.5 17q-50 0 -53 -86h-72q1 82 34 123t90 41t93 -40.5t36 -105.5q0 -53 -18 -82.5t-80 -77.5
q-40 -32 -54 -51h153v-82z" />
    <glyph glyph-name="threequarters" unicode="&#xbe;" horiz-adv-x="684" 
d="M655 90h-41v-90h-78v90h-150v73l139 261h89v-266h41v-68zM562 710l-350 -735h-65l351 735h64zM274 418q0 -65 -36.5 -106t-95.5 -41q-122 0 -129 154h74l-1 -11q0 -31 15 -49.5t40 -18.5q53 0 53 71q0 35 -18 48.5t-64 13.5v64h12q32 0 46 12t14 40q0 52 -45 52
q-48 0 -50 -62h-70q7 137 123 137q54 0 87 -32t33 -85q0 -59 -47 -85q59 -24 59 -102zM538 158v181l-94 -181h94z" />
    <glyph glyph-name="questiondown" unicode="&#xbf;" horiz-adv-x="501" 
d="M452 39q0 -113 -54 -173.5t-145 -60.5q-94 0 -151 57t-57 151q0 58 21 98t78 91q31 27 40.5 50t10.5 72h108q0 -80 -16 -118.5t-68 -84.5q-28 -25 -39.5 -47.5t-11.5 -53.5q0 -45 21.5 -71t59.5 -26t62.5 30t24.5 70v16h116zM306 390h-120v142h120v-142z" />
    <glyph glyph-name="Agrave" unicode="&#xc0;" horiz-adv-x="592" 
d="M576 0h-134l-38 148h-217l-41 -148h-130l210 718h142zM370 271l-74 288l-76 -288h150zM337 788h-78l-125 126h131z" />
    <glyph glyph-name="Aacute" unicode="&#xc1;" horiz-adv-x="592" 
d="M576 0h-134l-38 148h-217l-41 -148h-130l210 718h142zM370 271l-74 288l-76 -288h150zM461 914l-125 -126h-78l72 126h131z" />
    <glyph glyph-name="Acircumflex" unicode="&#xc2;" horiz-adv-x="592" 
d="M576 0h-134l-38 148h-217l-41 -148h-130l210 718h142zM370 271l-74 288l-76 -288h150zM451 788h-93l-62 62l-61 -62h-93l103 126h103z" />
    <glyph glyph-name="Atilde" unicode="&#xc3;" horiz-adv-x="592" 
d="M576 0h-134l-38 148h-217l-41 -148h-130l210 718h142zM370 271l-74 288l-76 -288h150zM448 915q-20 -120 -88 -120q-11 0 -62 18t-61 18q-29 0 -38 -43h-52q21 123 99 123q6 0 55.5 -18t54.5 -18q29 0 39 40h53z" />
    <glyph glyph-name="Adieresis" unicode="&#xc4;" horiz-adv-x="592" 
d="M576 0h-134l-38 148h-217l-41 -148h-130l210 718h142zM370 271l-74 288l-76 -288h150zM263 794h-96v115h96v-115zM428 794h-96v115h96v-115z" />
    <glyph glyph-name="Aring" unicode="&#xc5;" horiz-adv-x="592" 
d="M576 0h-134l-38 148h-217l-41 -148h-130l210 718h142zM370 271l-74 288l-76 -288h150zM402 870q0 -35 -31 -61.5t-73 -26.5t-73 26.5t-31 63.5q0 35 31.5 61t72.5 26t72.5 -26.5t31.5 -62.5zM350 870q0 18 -15 30.5t-37 12.5q-21 0 -36.5 -12.5t-15.5 -29.5
q0 -18 15 -30.5t37 -12.5t37 12.5t15 29.5z" />
    <glyph glyph-name="AE" unicode="&#xc6;" horiz-adv-x="820" 
d="M782 0h-430v153h-176l-43 -153h-129l215 718h557v-127h-304v-151h274v-127h-274v-186h310v-127zM352 271v320h-53l-91 -320h144z" />
    <glyph glyph-name="Ccedilla" unicode="&#xc7;" horiz-adv-x="592" 
d="M561 246q-48 -252 -234 -264l-18 -39h20q32 0 52 -22t20 -56q0 -45 -29 -75t-75 -30q-36 0 -92 25l18 48q45 -16 62 -16q19 0 29 13.5t10 31.5q0 15 -9.5 25.5t-22.5 10.5q-10 0 -32 -8l-17 20l35 72q-113 11 -177.5 110.5t-64.5 264.5q0 175 73.5 277.5t199.5 102.5
q102 0 170.5 -68t81.5 -186h-123q-15 64 -45 94t-81 30q-71 0 -111 -66.5t-40 -184.5q0 -115 39 -180t108 -65q51 0 82.5 31.5t47.5 103.5h123z" />
    <glyph glyph-name="Egrave" unicode="&#xc8;" horiz-adv-x="547" 
d="M509 0h-447v718h433v-127h-313v-151h288v-127h-288v-186h327v-127zM319 788h-78l-125 126h131z" />
    <glyph glyph-name="Eacute" unicode="&#xc9;" horiz-adv-x="547" 
d="M509 0h-447v718h433v-127h-313v-151h288v-127h-288v-186h327v-127zM443 914l-125 -126h-78l72 126h131z" />
    <glyph glyph-name="Ecircumflex" unicode="&#xca;" horiz-adv-x="547" 
d="M509 0h-447v718h433v-127h-313v-151h288v-127h-288v-186h327v-127zM433 788h-93l-62 62l-61 -62h-93l103 126h103z" />
    <glyph glyph-name="Edieresis" unicode="&#xcb;" horiz-adv-x="547" 
d="M509 0h-447v718h433v-127h-313v-151h288v-127h-288v-186h327v-127zM245 794h-96v115h96v-115zM410 794h-96v115h96v-115z" />
    <glyph glyph-name="Igrave" unicode="&#xcc;" horiz-adv-x="228" 
d="M175 0h-123v718h123v-718zM175 788h-78l-125 126h131z" />
    <glyph glyph-name="Iacute" unicode="&#xcd;" horiz-adv-x="228" 
d="M175 0h-123v718h123v-718zM256 914l-125 -126h-78l72 126h131z" />
    <glyph glyph-name="Icircumflex" unicode="&#xce;" horiz-adv-x="228" 
d="M175 0h-123v718h123v-718zM268 788h-93l-62 62l-61 -62h-93l103 126h103z" />
    <glyph glyph-name="Idieresis" unicode="&#xcf;" horiz-adv-x="228" 
d="M175 0h-123v718h123v-718zM80 794h-96v115h96v-115zM245 794h-96v115h96v-115z" />
    <glyph glyph-name="Eth" unicode="&#xd0;" horiz-adv-x="592" 
d="M562 375q0 -166 -63 -270.5t-182 -104.5h-255v317h-66v123h66v278h260q114 0 177 -90t63 -253zM437 369q0 226 -136 226h-119v-155h137v-123h-137v-194h121q63 0 98.5 65t35.5 181z" />
    <glyph glyph-name="Ntilde" unicode="&#xd1;" horiz-adv-x="592" 
d="M536 0h-122l-243 515v-515h-114v718h129l236 -504v504h114v-718zM448 915q-20 -120 -88 -120q-11 0 -62 18t-61 18q-29 0 -38 -43h-52q21 123 99 123q6 0 55.5 -18t54.5 -18q29 0 39 40h53z" />
    <glyph glyph-name="Ograve" unicode="&#xd2;" horiz-adv-x="638" 
d="M602 359q0 -177 -77 -277.5t-206 -100.5q-130 0 -206.5 101t-76.5 276q0 179 77.5 279t209.5 100q125 0 202 -101t77 -277zM479 362q0 113 -43 180.5t-115 67.5q-76 0 -119 -66.5t-43 -182.5q0 -119 42.5 -186t117.5 -67t117.5 67.5t42.5 186.5zM363 788h-78l-125 126
h131z" />
    <glyph glyph-name="Oacute" unicode="&#xd3;" horiz-adv-x="638" 
d="M602 359q0 -177 -77 -277.5t-206 -100.5q-130 0 -206.5 101t-76.5 276q0 179 77.5 279t209.5 100q125 0 202 -101t77 -277zM479 362q0 113 -43 180.5t-115 67.5q-76 0 -119 -66.5t-43 -182.5q0 -119 42.5 -186t117.5 -67t117.5 67.5t42.5 186.5zM487 914l-125 -126h-78
l72 126h131z" />
    <glyph glyph-name="Ocircumflex" unicode="&#xd4;" horiz-adv-x="638" 
d="M602 359q0 -177 -77 -277.5t-206 -100.5q-130 0 -206.5 101t-76.5 276q0 179 77.5 279t209.5 100q125 0 202 -101t77 -277zM479 362q0 113 -43 180.5t-115 67.5q-76 0 -119 -66.5t-43 -182.5q0 -119 42.5 -186t117.5 -67t117.5 67.5t42.5 186.5zM477 788h-93l-62 62
l-61 -62h-93l103 126h103z" />
    <glyph glyph-name="Otilde" unicode="&#xd5;" horiz-adv-x="638" 
d="M602 359q0 -177 -77 -277.5t-206 -100.5q-130 0 -206.5 101t-76.5 276q0 179 77.5 279t209.5 100q125 0 202 -101t77 -277zM479 362q0 113 -43 180.5t-115 67.5q-76 0 -119 -66.5t-43 -182.5q0 -119 42.5 -186t117.5 -67t117.5 67.5t42.5 186.5zM474 915
q-20 -120 -88 -120q-11 0 -62 18t-61 18q-29 0 -38 -43h-52q21 123 99 123q6 0 55.5 -18t54.5 -18q29 0 39 40h53z" />
    <glyph glyph-name="Odieresis" unicode="&#xd6;" horiz-adv-x="638" 
d="M602 359q0 -177 -77 -277.5t-206 -100.5q-130 0 -206.5 101t-76.5 276q0 179 77.5 279t209.5 100q125 0 202 -101t77 -277zM479 362q0 113 -43 180.5t-115 67.5q-76 0 -119 -66.5t-43 -182.5q0 -119 42.5 -186t117.5 -67t117.5 67.5t42.5 186.5zM289 794h-96v115h96v-115
zM454 794h-96v115h96v-115z" />
    <glyph glyph-name="multiply" unicode="&#xd7;" horiz-adv-x="479" 
d="M399 152l-61 -61l-98 99l-99 -99l-61 61l99 99l-99 98l61 61l99 -99l98 99l61 -61l-98 -98z" />
    <glyph glyph-name="Oslash" unicode="&#xd8;" horiz-adv-x="638" 
d="M610 707l-69 -92q61 -105 61 -254q0 -178 -77 -279t-206 -101q-107 0 -190 82l-68 -90l-34 38l70 93q-61 105 -61 253q0 178 77 279t205 101q103 0 191 -81l67 89zM430 551q-48 59 -111 59q-74 0 -117 -67.5t-43 -184.5q0 -80 22 -140zM479 359q0 84 -23 142l-249 -333
q47 -60 112 -60q74 0 117 67.5t43 183.5z" />
    <glyph glyph-name="Ugrave" unicode="&#xd9;" horiz-adv-x="592" 
d="M534 251q0 -132 -61 -201t-178 -69q-113 0 -174.5 68.5t-61.5 192.5v476h125v-466q0 -69 29 -106.5t82 -37.5q56 0 85 35t29 102v473h125v-467zM337 788h-78l-125 126h131z" />
    <glyph glyph-name="Uacute" unicode="&#xda;" horiz-adv-x="592" 
d="M534 251q0 -132 -61 -201t-178 -69q-113 0 -174.5 68.5t-61.5 192.5v476h125v-466q0 -69 29 -106.5t82 -37.5q56 0 85 35t29 102v473h125v-467zM461 914l-125 -126h-78l72 126h131z" />
    <glyph glyph-name="Ucircumflex" unicode="&#xdb;" horiz-adv-x="592" 
d="M534 251q0 -132 -61 -201t-178 -69q-113 0 -174.5 68.5t-61.5 192.5v476h125v-466q0 -69 29 -106.5t82 -37.5q56 0 85 35t29 102v473h125v-467zM451 788h-93l-62 62l-61 -62h-93l103 126h103z" />
    <glyph glyph-name="Udieresis" unicode="&#xdc;" horiz-adv-x="592" 
d="M534 251q0 -132 -61 -201t-178 -69q-113 0 -174.5 68.5t-61.5 192.5v476h125v-466q0 -69 29 -106.5t82 -37.5q56 0 85 35t29 102v473h125v-467zM263 794h-96v115h96v-115zM428 794h-96v115h96v-115z" />
    <glyph glyph-name="Yacute" unicode="&#xdd;" horiz-adv-x="547" 
d="M535 718l-197 -449v-269h-123v271l-203 447h145l122 -312l117 312h139zM441 914l-125 -126h-78l72 126h131z" />
    <glyph glyph-name="Thorn" unicode="&#xde;" horiz-adv-x="547" 
d="M514 394q0 -107 -51.5 -171t-136.5 -64h-141v-159h-123v718h123v-98h146q83 0 133 -61.5t50 -164.5zM391 392q0 55 -25.5 80t-82.5 25h-98v-215h114q92 0 92 110z" />
    <glyph glyph-name="germandbls" unicode="&#xdf;" horiz-adv-x="501" 
d="M475 231q0 -112 -53.5 -178.5t-144.5 -66.5q-17 0 -48 6v110h4q4 -1 20 -1q107 0 107 123q0 63 -27.5 90t-97.5 33v97q53 2 72.5 20.5t19.5 65.5q0 43 -21 66t-59 23q-35 0 -55.5 -24t-20.5 -65v-530h-114v539q0 88 52 140t141 52q90 0 141 -50.5t51 -139.5t-60 -130
q51 -32 72 -72.5t21 -107.5z" />
    <glyph glyph-name="agrave" unicode="&#xe0;" 
d="M432 0h-123q-7 27 -11 63q-34 -43 -65 -60t-73 -17q-63 0 -99.5 42t-36.5 114q0 70 33.5 114t94.5 55l103 19q40 7 40 44q0 60 -71 60q-37 0 -54 -16.5t-22 -57.5h-110q10 101 55 143.5t136 42.5q85 0 131.5 -40.5t46.5 -113.5v-288q0 -70 25 -83v-21zM295 191v68
q-19 -17 -78 -29q-43 -9 -60.5 -27t-17.5 -52q0 -30 15 -47.5t40 -17.5q42 0 71.5 30.5t29.5 74.5zM271 602h-83l-120 146h126z" />
    <glyph glyph-name="aacute" unicode="&#xe1;" 
d="M432 0h-123q-7 27 -11 63q-34 -43 -65 -60t-73 -17q-63 0 -99.5 42t-36.5 114q0 70 33.5 114t94.5 55l103 19q40 7 40 44q0 60 -71 60q-37 0 -54 -16.5t-22 -57.5h-110q10 101 55 143.5t136 42.5q85 0 131.5 -40.5t46.5 -113.5v-288q0 -70 25 -83v-21zM295 191v68
q-19 -17 -78 -29q-43 -9 -60.5 -27t-17.5 -52q0 -30 15 -47.5t40 -17.5q42 0 71.5 30.5t29.5 74.5zM390 748l-120 -146h-83l77 146h126z" />
    <glyph glyph-name="acircumflex" unicode="&#xe2;" 
d="M432 0h-123q-7 27 -11 63q-34 -43 -65 -60t-73 -17q-63 0 -99.5 42t-36.5 114q0 70 33.5 114t94.5 55l103 19q40 7 40 44q0 60 -71 60q-37 0 -54 -16.5t-22 -57.5h-110q10 101 55 143.5t136 42.5q85 0 131.5 -40.5t46.5 -113.5v-288q0 -70 25 -83v-21zM295 191v68
q-19 -17 -78 -29q-43 -9 -60.5 -27t-17.5 -52q0 -30 15 -47.5t40 -17.5q42 0 71.5 30.5t29.5 74.5zM373 602h-93l-52 82l-51 -82h-93l93 146h103z" />
    <glyph glyph-name="atilde" unicode="&#xe3;" 
d="M432 0h-123q-7 27 -11 63q-34 -43 -65 -60t-73 -17q-63 0 -99.5 42t-36.5 114q0 70 33.5 114t94.5 55l103 19q40 7 40 44q0 60 -71 60q-37 0 -54 -16.5t-22 -57.5h-110q10 101 55 143.5t136 42.5q85 0 131.5 -40.5t46.5 -113.5v-288q0 -70 25 -83v-21zM295 191v68
q-19 -17 -78 -29q-43 -9 -60.5 -27t-17.5 -52q0 -30 15 -47.5t40 -17.5q42 0 71.5 30.5t29.5 74.5zM379 739q-19 -120 -88 -120q-11 0 -62 18t-61 18q-29 0 -38 -43h-52q20 123 99 123q6 0 55.5 -18t54.5 -18q29 0 39 40h53z" />
    <glyph glyph-name="adieresis" unicode="&#xe4;" 
d="M432 0h-123q-7 27 -11 63q-34 -43 -65 -60t-73 -17q-63 0 -99.5 42t-36.5 114q0 70 33.5 114t94.5 55l103 19q40 7 40 44q0 60 -71 60q-37 0 -54 -16.5t-22 -57.5h-110q10 101 55 143.5t136 42.5q85 0 131.5 -40.5t46.5 -113.5v-288q0 -70 25 -83v-21zM295 191v68
q-19 -17 -78 -29q-43 -9 -60.5 -27t-17.5 -52q0 -30 15 -47.5t40 -17.5q42 0 71.5 30.5t29.5 74.5zM194 618h-96v115h96v-115zM359 618h-96v115h96v-115z" />
    <glyph glyph-name="aring" unicode="&#xe5;" 
d="M432 0h-123q-7 27 -11 63q-34 -43 -65 -60t-73 -17q-63 0 -99.5 42t-36.5 114q0 70 33.5 114t94.5 55l103 19q40 7 40 44q0 60 -71 60q-37 0 -54 -16.5t-22 -57.5h-110q10 101 55 143.5t136 42.5q85 0 131.5 -40.5t46.5 -113.5v-288q0 -70 25 -83v-21zM295 191v68
q-19 -17 -78 -29q-43 -9 -60.5 -27t-17.5 -52q0 -30 15 -47.5t40 -17.5q42 0 71.5 30.5t29.5 74.5zM333 675q0 -35 -31 -61.5t-73 -26.5t-73 26.5t-31 63.5q0 35 31.5 61t72.5 26t72.5 -26.5t31.5 -62.5zM281 675q0 18 -15 30.5t-37 12.5q-21 0 -36.5 -12.5t-15.5 -29.5
q0 -18 15 -30.5t37 -12.5t37 12.5t15 29.5z" />
    <glyph glyph-name="ae" unicode="&#xe6;" horiz-adv-x="729" 
d="M704 227h-299q5 -67 29 -97.5t71 -30.5q59 0 76 58h118q-49 -171 -198 -171q-57 0 -91.5 19t-65.5 67q-51 -86 -165 -86q-75 0 -115 42t-40 119q0 62 29.5 102.5t81.5 51.5l107 22q38 7 48.5 16t10.5 35q0 31 -18 45.5t-58 14.5q-37 0 -54 -18t-19 -57h-112q9 97 56 142
t135 45q82 0 140 -59q34 33 63.5 46t68.5 13q95 0 148 -77.5t53 -216.5v-25zM299 188v66q-16 -17 -85 -30q-44 -8 -59.5 -23.5t-15.5 -49.5q0 -31 16 -48t45 -17q39 0 69 31t30 71zM586 319q-12 112 -90 112q-38 0 -59 -27t-29 -85h178z" />
    <glyph glyph-name="ccedilla" unicode="&#xe7;" 
d="M430 342h-116q-8 45 -25.5 65.5t-48.5 20.5q-94 0 -94 -163q0 -164 87 -164q33 0 54.5 25.5t25.5 67.5h116q-12 -95 -58 -148t-122 -59l-20 -44h20q32 0 52 -22t20 -56q0 -45 -29 -75t-75 -30q-36 0 -92 25l18 48q45 -16 62 -16q19 0 29 13.5t10 31.5q0 15 -9.5 25.5
t-22.5 10.5q-10 0 -32 -8l-17 20l38 78q-83 10 -128 80t-45 191q0 135 55 211t152 76q84 0 134.5 -51.5t60.5 -152.5z" />
    <glyph glyph-name="egrave" unicode="&#xe8;" 
d="M433 227h-299q5 -67 29 -97.5t71 -30.5q59 0 76 58h118q-49 -171 -196 -171q-102 0 -157.5 73.5t-55.5 208.5q0 130 55 204t152 74q100 0 153.5 -76t53.5 -218v-25zM315 319q-12 112 -90 112q-38 0 -59 -27t-29 -85h178zM270 602h-83l-120 146h126z" />
    <glyph glyph-name="eacute" unicode="&#xe9;" 
d="M433 227h-299q5 -67 29 -97.5t71 -30.5q59 0 76 58h118q-49 -171 -196 -171q-102 0 -157.5 73.5t-55.5 208.5q0 130 55 204t152 74q100 0 153.5 -76t53.5 -218v-25zM315 319q-12 112 -90 112q-38 0 -59 -27t-29 -85h178zM389 748l-120 -146h-83l77 146h126z" />
    <glyph glyph-name="ecircumflex" unicode="&#xea;" 
d="M433 227h-299q5 -67 29 -97.5t71 -30.5q59 0 76 58h118q-49 -171 -196 -171q-102 0 -157.5 73.5t-55.5 208.5q0 130 55 204t152 74q100 0 153.5 -76t53.5 -218v-25zM315 319q-12 112 -90 112q-38 0 -59 -27t-29 -85h178zM372 602h-93l-52 82l-51 -82h-93l93 146h103z" />
    <glyph glyph-name="edieresis" unicode="&#xeb;" 
d="M433 227h-299q5 -67 29 -97.5t71 -30.5q59 0 76 58h118q-49 -171 -196 -171q-102 0 -157.5 73.5t-55.5 208.5q0 130 55 204t152 74q100 0 153.5 -76t53.5 -218v-25zM315 319q-12 112 -90 112q-38 0 -59 -27t-29 -85h178zM193 618h-96v115h96v-115zM358 618h-96v115h96
v-115z" />
    <glyph glyph-name="igrave" unicode="&#xec;" horiz-adv-x="228" 
d="M171 0h-114v532h114v-532zM171 602h-83l-120 146h126z" />
    <glyph glyph-name="iacute" unicode="&#xed;" horiz-adv-x="228" 
d="M171 0h-114v532h114v-532zM260 748l-120 -146h-83l77 146h126z" />
    <glyph glyph-name="icircumflex" unicode="&#xee;" horiz-adv-x="228" 
d="M171 0h-114v532h114v-532zM258 602h-93l-52 82l-51 -82h-93l93 146h103z" />
    <glyph glyph-name="idieresis" unicode="&#xef;" horiz-adv-x="228" 
d="M171 0h-114v532h114v-532zM79 618h-96v115h96v-115zM244 618h-96v115h96v-115z" />
    <glyph glyph-name="eth" unicode="&#xf0;" horiz-adv-x="501" 
d="M474 291q0 -139 -61 -222t-163 -83q-100 0 -161 75t-61 199q0 115 56 189t142 74q36 0 61.5 -14.5t49.5 -48.5q-28 71 -84 131l-88 -47l-52 52l89 47q-34 30 -60 45l89 49q32 -17 64 -44l84 44l51 -52l-83 -44q67 -85 97 -168.5t30 -181.5zM356 260q0 64 -28.5 104.5
t-74.5 40.5q-49 0 -78 -41.5t-29 -111.5q0 -67 29 -107.5t77 -40.5t76 42.5t28 113.5z" />
    <glyph glyph-name="ntilde" unicode="&#xf1;" horiz-adv-x="501" 
d="M448 0h-114v323q0 55 -17.5 80t-56.5 25q-43 0 -68 -33t-25 -90v-305h-114v532h110v-81q45 95 134 95q69 0 110 -48t41 -130v-368zM401 739q-20 -120 -88 -120q-11 0 -62 18t-61 18q-29 0 -38 -43h-52q20 123 99 123q6 0 55.5 -18t54.5 -18q29 0 39 40h53z" />
    <glyph glyph-name="ograve" unicode="&#xf2;" horiz-adv-x="501" 
d="M474 265q0 -127 -61 -203t-162 -76t-162 76t-61 203q0 129 61 205t165 76q100 0 160 -77t60 -204zM356 266q0 78 -27 120t-77 42q-106 0 -106 -162q0 -79 27 -120.5t78 -41.5t78 41.5t27 120.5zM292 602h-83l-120 146h126z" />
    <glyph glyph-name="oacute" unicode="&#xf3;" horiz-adv-x="501" 
d="M474 265q0 -127 -61 -203t-162 -76t-162 76t-61 203q0 129 61 205t165 76q100 0 160 -77t60 -204zM356 266q0 78 -27 120t-77 42q-106 0 -106 -162q0 -79 27 -120.5t78 -41.5t78 41.5t27 120.5zM412 748l-120 -146h-83l77 146h126z" />
    <glyph glyph-name="ocircumflex" unicode="&#xf4;" horiz-adv-x="501" 
d="M474 265q0 -127 -61 -203t-162 -76t-162 76t-61 203q0 129 61 205t165 76q100 0 160 -77t60 -204zM356 266q0 78 -27 120t-77 42q-106 0 -106 -162q0 -79 27 -120.5t78 -41.5t78 41.5t27 120.5zM395 602h-93l-52 82l-51 -82h-93l93 146h103z" />
    <glyph glyph-name="otilde" unicode="&#xf5;" horiz-adv-x="501" 
d="M474 265q0 -127 -61 -203t-162 -76t-162 76t-61 203q0 129 61 205t165 76q100 0 160 -77t60 -204zM356 266q0 78 -27 120t-77 42q-106 0 -106 -162q0 -79 27 -120.5t78 -41.5t78 41.5t27 120.5zM401 739q-20 -120 -88 -120q-11 0 -62 18t-61 18q-29 0 -38 -43h-52
q20 123 99 123q6 0 55.5 -18t54.5 -18q29 0 39 40h53z" />
    <glyph glyph-name="odieresis" unicode="&#xf6;" horiz-adv-x="501" 
d="M474 265q0 -127 -61 -203t-162 -76t-162 76t-61 203q0 129 61 205t165 76q100 0 160 -77t60 -204zM356 266q0 78 -27 120t-77 42q-106 0 -106 -162q0 -79 27 -120.5t78 -41.5t78 41.5t27 120.5zM216 618h-96v115h96v-115zM381 618h-96v115h96v-115z" />
    <glyph glyph-name="divide" unicode="&#xf7;" horiz-adv-x="479" 
d="M422 207h-365v86h365v-86zM302 430q0 -26 -18 -44t-44 -18t-44 18t-18 44t18 44t44 18t44 -18t18 -44zM302 71q0 -26 -18 -44t-44 -18t-44 18t-18 44t18 44t44 18t44 -18.5t18 -43.5z" />
    <glyph glyph-name="oslash" unicode="&#xf8;" horiz-adv-x="501" 
d="M483 528l-58 -74q49 -81 49 -188q0 -127 -61 -203.5t-162 -76.5q-81 0 -145 58l-57 -73l-31 29l60 77q-50 81 -50 189q0 128 60.5 204t162.5 76q81 0 147 -59l56 73zM356 267q0 49 -12 84l-165 -213q27 -34 71 -34q52 0 79 41.5t27 121.5zM325 393q-31 35 -74 35
q-51 0 -78 -41.5t-27 -119.5q0 -49 12 -88z" />
    <glyph glyph-name="ugrave" unicode="&#xf9;" horiz-adv-x="501" 
d="M447 0h-110v78q-44 -92 -136 -92q-70 0 -108.5 51t-38.5 145v350h114v-330q0 -98 74 -98q43 0 67 32.5t24 88.5v307h114v-532zM292 602h-83l-120 146h126z" />
    <glyph glyph-name="uacute" unicode="&#xfa;" horiz-adv-x="501" 
d="M447 0h-110v78q-44 -92 -136 -92q-70 0 -108.5 51t-38.5 145v350h114v-330q0 -98 74 -98q43 0 67 32.5t24 88.5v307h114v-532zM412 748l-120 -146h-83l77 146h126z" />
    <glyph glyph-name="ucircumflex" unicode="&#xfb;" horiz-adv-x="501" 
d="M447 0h-110v78q-44 -92 -136 -92q-70 0 -108.5 51t-38.5 145v350h114v-330q0 -98 74 -98q43 0 67 32.5t24 88.5v307h114v-532zM395 602h-93l-52 82l-51 -82h-93l93 146h103z" />
    <glyph glyph-name="udieresis" unicode="&#xfc;" horiz-adv-x="501" 
d="M447 0h-110v78q-44 -92 -136 -92q-70 0 -108.5 51t-38.5 145v350h114v-330q0 -98 74 -98q43 0 67 32.5t24 88.5v307h114v-532zM216 618h-96v115h96v-115zM381 618h-96v115h96v-115z" />
    <glyph glyph-name="yacute" unicode="&#xfd;" 
d="M442 532l-150 -523q-44 -154 -68 -186q-27 -37 -98 -37l-55 2v112q16 -2 24 -2q37 0 51.5 15.5t22.5 64.5l-161 554h128l94 -396l90 396h122zM389 748l-120 -146h-83l77 146h126z" />
    <glyph glyph-name="thorn" unicode="&#xfe;" horiz-adv-x="501" 
d="M474 272q0 -131 -50 -208.5t-135 -77.5q-44 0 -72.5 19.5t-51.5 65.5v-278h-114v925h114v-257q25 45 54.5 65t71.5 20q83 0 133 -75t50 -199zM356 265q0 74 -26 116.5t-72 42.5q-98 0 -98 -166q0 -74 26 -115.5t73 -41.5q45 0 71 44.5t26 119.5z" />
    <glyph glyph-name="ydieresis" unicode="&#xff;" 
d="M442 532l-150 -523q-44 -154 -68 -186q-27 -37 -98 -37l-55 2v112q16 -2 24 -2q37 0 51.5 15.5t22.5 64.5l-161 554h128l94 -396l90 396h122zM193 618h-96v115h96v-115zM358 618h-96v115h96v-115z" />
    <glyph glyph-name="Amacron" unicode="&#x100;" horiz-adv-x="592" 
d="M576 0h-134l-38 148h-217l-41 -148h-130l210 718h142zM370 271l-74 288l-76 -288h150zM439 815h-283v73h283v-73z" />
    <glyph glyph-name="amacron" unicode="&#x101;" 
d="M432 0h-123q-7 27 -11 63q-34 -43 -65 -60t-73 -17q-63 0 -99.5 42t-36.5 114q0 70 33.5 114t94.5 55l103 19q40 7 40 44q0 60 -71 60q-37 0 -54 -16.5t-22 -57.5h-110q10 101 55 143.5t136 42.5q85 0 131.5 -40.5t46.5 -113.5v-288q0 -70 25 -83v-21zM295 191v68
q-19 -17 -78 -29q-43 -9 -60.5 -27t-17.5 -52q0 -30 15 -47.5t40 -17.5q42 0 71.5 30.5t29.5 74.5zM370 639h-283v73h283v-73z" />
    <glyph glyph-name="Abreve" unicode="&#x102;" horiz-adv-x="592" 
d="M576 0h-134l-38 148h-217l-41 -148h-130l210 718h142zM370 271l-74 288l-76 -288h150zM445 914q-33 -126 -153 -126q-113 0 -144 126h54q16 -25 36.5 -37t58.5 -12t57 12t28 37h63z" />
    <glyph glyph-name="abreve" unicode="&#x103;" 
d="M432 0h-123q-7 27 -11 63q-34 -43 -65 -60t-73 -17q-63 0 -99.5 42t-36.5 114q0 70 33.5 114t94.5 55l103 19q40 7 40 44q0 60 -71 60q-37 0 -54 -16.5t-22 -57.5h-110q10 101 55 143.5t136 42.5q85 0 131.5 -40.5t46.5 -113.5v-288q0 -70 25 -83v-21zM295 191v68
q-19 -17 -78 -29q-43 -9 -60.5 -27t-17.5 -52q0 -30 15 -47.5t40 -17.5q42 0 71.5 30.5t29.5 74.5zM367 748q-15 -146 -143 -146q-121 0 -134 146h54q7 -38 26 -53.5t59 -15.5t58.5 15t26.5 54h53z" />
    <glyph glyph-name="Aogonek" unicode="&#x104;" horiz-adv-x="592" 
d="M576 -250h-40q-69 0 -115 24t-46 80q0 73 90 146h-23l-38 148h-217l-41 -148h-130l210 718h142l208 -718q-52 -14 -84 -57q-21 -29 -21 -52t19 -36.5t46 -13.5h40v-91zM370 271l-74 288l-76 -288h150z" />
    <glyph glyph-name="aogonek" unicode="&#x105;" 
d="M432 -250h-40q-69 0 -115 24t-46 80q0 73 90 146h-12q-7 27 -11 63q-34 -43 -65 -60t-73 -17q-63 0 -99.5 42t-36.5 114q0 70 33.5 114t94.5 55l103 19q40 7 40 44q0 60 -71 60q-37 0 -54 -16.5t-22 -57.5h-110q10 101 55 143.5t136 42.5q85 0 131.5 -40.5t46.5 -113.5
v-288q0 -70 25 -83v-21q-52 -14 -84 -57q-21 -29 -21 -52t19 -36.5t46 -13.5h40v-91zM295 191v68q-19 -17 -78 -29q-43 -9 -60.5 -27t-17.5 -52q0 -30 15 -47.5t40 -17.5q42 0 71.5 30.5t29.5 74.5z" />
    <glyph glyph-name="Cacute" unicode="&#x106;" horiz-adv-x="592" 
d="M561 246q-50 -265 -255 -265q-125 0 -197.5 100.5t-72.5 275.5t73.5 277.5t199.5 102.5q102 0 170.5 -68t81.5 -186h-123q-15 64 -45 94t-81 30q-71 0 -111 -66.5t-40 -184.5q0 -115 39 -180t108 -65q51 0 82.5 31.5t47.5 103.5h123zM473 914l-125 -126h-78l72 126h131z
" />
    <glyph glyph-name="cacute" unicode="&#x107;" 
d="M430 342h-116q-8 45 -25.5 65.5t-48.5 20.5q-94 0 -94 -163q0 -164 87 -164q33 0 54.5 25.5t25.5 67.5h116q-13 -101 -64 -154.5t-136 -53.5q-97 0 -149 71t-52 202q0 135 55 211t152 76q84 0 134.5 -51.5t60.5 -152.5zM389 748l-120 -146h-83l77 146h126z" />
    <glyph glyph-name="Ccircumflex" unicode="&#x108;" horiz-adv-x="592" 
d="M561 246q-50 -265 -255 -265q-125 0 -197.5 100.5t-72.5 275.5t73.5 277.5t199.5 102.5q102 0 170.5 -68t81.5 -186h-123q-15 64 -45 94t-81 30q-71 0 -111 -66.5t-40 -184.5q0 -115 39 -180t108 -65q51 0 82.5 31.5t47.5 103.5h123zM463 788h-93l-62 62l-61 -62h-93
l103 126h103z" />
    <glyph glyph-name="ccircumflex" unicode="&#x109;" 
d="M430 342h-116q-8 45 -25.5 65.5t-48.5 20.5q-94 0 -94 -163q0 -164 87 -164q33 0 54.5 25.5t25.5 67.5h116q-13 -101 -64 -154.5t-136 -53.5q-97 0 -149 71t-52 202q0 135 55 211t152 76q84 0 134.5 -51.5t60.5 -152.5zM372 602h-93l-52 82l-51 -82h-93l93 146h103z" />
    <glyph glyph-name="Cdotaccent" unicode="&#x10a;" horiz-adv-x="592" 
d="M561 246q-50 -265 -255 -265q-125 0 -197.5 100.5t-72.5 275.5t73.5 277.5t199.5 102.5q102 0 170.5 -68t81.5 -186h-123q-15 64 -45 94t-81 30q-71 0 -111 -66.5t-40 -184.5q0 -115 39 -180t108 -65q51 0 82.5 31.5t47.5 103.5h123zM368 794h-114v115h114v-115z" />
    <glyph glyph-name="cdotaccent" unicode="&#x10b;" 
d="M430 342h-116q-8 45 -25.5 65.5t-48.5 20.5q-94 0 -94 -163q0 -164 87 -164q33 0 54.5 25.5t25.5 67.5h116q-13 -101 -64 -154.5t-136 -53.5q-97 0 -149 71t-52 202q0 135 55 211t152 76q84 0 134.5 -51.5t60.5 -152.5zM286 618h-114v115h114v-115z" />
    <glyph glyph-name="Ccaron" unicode="&#x10c;" horiz-adv-x="592" 
d="M561 246q-50 -265 -255 -265q-125 0 -197.5 100.5t-72.5 275.5t73.5 277.5t199.5 102.5q102 0 170.5 -68t81.5 -186h-123q-15 64 -45 94t-81 30q-71 0 -111 -66.5t-40 -184.5q0 -115 39 -180t108 -65q51 0 82.5 31.5t47.5 103.5h123zM464 914l-103 -126h-103l-103 126h93
l62 -62l61 62h93z" />
    <glyph glyph-name="ccaron" unicode="&#x10d;" 
d="M430 342h-116q-8 45 -25.5 65.5t-48.5 20.5q-94 0 -94 -163q0 -164 87 -164q33 0 54.5 25.5t25.5 67.5h116q-13 -101 -64 -154.5t-136 -53.5q-97 0 -149 71t-52 202q0 135 55 211t152 76q84 0 134.5 -51.5t60.5 -152.5zM372 748l-93 -146h-103l-93 146h93l52 -82l51 82
h93z" />
    <glyph glyph-name="Dcaron" unicode="&#x10e;" horiz-adv-x="592" 
d="M562 374q0 -165 -64 -269.5t-181 -104.5h-255v718h260q114 0 177 -90.5t63 -253.5zM437 370q0 225 -137 225h-118v-472h120q64 0 99.5 65t35.5 182zM455 914l-103 -126h-103l-103 126h93l62 -62l61 62h93z" />
    <glyph glyph-name="dcaron" unicode="&#x10f;" horiz-adv-x="501" 
d="M452 0h-112v70q-41 -84 -128 -84q-84 0 -134 77.5t-50 208.5q0 124 50 199t133 75q42 0 71.5 -20t55.5 -66v258h114v-718zM342 260q0 78 -25 121t-71 43q-47 0 -73.5 -42t-26.5 -118q0 -75 26 -119t70 -44q48 0 74 41.5t26 117.5zM617 615q0 -64 -31 -103t-77 -41v46
q30 6 46.5 28.5t16.5 54.5v6h-63v112h108v-103z" />
    <glyph glyph-name="Dcroat" unicode="&#x110;" horiz-adv-x="592" 
d="M562 375q0 -166 -63 -270.5t-182 -104.5h-255v317h-66v123h66v278h260q114 0 177 -90t63 -253zM437 369q0 226 -136 226h-119v-155h137v-123h-137v-194h121q63 0 98.5 65t35.5 181z" />
    <glyph glyph-name="dcroat" unicode="&#x111;" horiz-adv-x="509" 
d="M509 589h-57v-589h-112v70q-41 -84 -128 -84q-84 0 -134 77.5t-50 208.5q0 124 50 199t133 75q42 0 71.5 -20t55.5 -66v128l-112 1v73h112v56h114v-56h57v-73zM342 260q0 78 -25 121t-71 43q-47 0 -73.5 -42t-26.5 -118q0 -75 26 -119t70 -44q48 0 74 41.5t26 117.5z" />
    <glyph glyph-name="Emacron" unicode="&#x112;" horiz-adv-x="547" 
d="M509 0h-447v718h433v-127h-313v-151h288v-127h-288v-186h327v-127zM421 815h-283v73h283v-73z" />
    <glyph glyph-name="emacron" unicode="&#x113;" 
d="M433 227h-299q5 -67 29 -97.5t71 -30.5q59 0 76 58h118q-49 -171 -196 -171q-102 0 -157.5 73.5t-55.5 208.5q0 130 55 204t152 74q100 0 153.5 -76t53.5 -218v-25zM315 319q-12 112 -90 112q-38 0 -59 -27t-29 -85h178zM369 639h-283v73h283v-73z" />
    <glyph glyph-name="Ebreve" unicode="&#x114;" horiz-adv-x="547" 
d="M509 0h-447v718h433v-127h-313v-151h288v-127h-288v-186h327v-127zM427 914q-33 -126 -153 -126q-113 0 -144 126h54q16 -25 36.5 -37t58.5 -12t57 12t28 37h63z" />
    <glyph glyph-name="ebreve" unicode="&#x115;" 
d="M433 227h-299q5 -67 29 -97.5t71 -30.5q59 0 76 58h118q-49 -171 -196 -171q-102 0 -157.5 73.5t-55.5 208.5q0 130 55 204t152 74q100 0 153.5 -76t53.5 -218v-25zM315 319q-12 112 -90 112q-38 0 -59 -27t-29 -85h178zM366 748q-15 -146 -143 -146q-121 0 -134 146h54
q7 -38 26 -53.5t59 -15.5t58.5 15t26.5 54h53z" />
    <glyph glyph-name="Edotaccent" unicode="&#x116;" horiz-adv-x="547" 
d="M509 0h-447v718h433v-127h-313v-151h288v-127h-288v-186h327v-127zM338 794h-114v115h114v-115z" />
    <glyph glyph-name="edotaccent" unicode="&#x117;" 
d="M433 227h-299q5 -67 29 -97.5t71 -30.5q59 0 76 58h118q-49 -171 -196 -171q-102 0 -157.5 73.5t-55.5 208.5q0 130 55 204t152 74q100 0 153.5 -76t53.5 -218v-25zM315 319q-12 112 -90 112q-38 0 -59 -27t-29 -85h178zM286 618h-114v115h114v-115z" />
    <glyph glyph-name="Eogonek" unicode="&#x118;" horiz-adv-x="547" 
d="M509 -250h-40q-69 0 -115 24t-46 80q0 73 90 146h-336v718h433v-127h-313v-151h288v-127h-288v-186h327v-127q-52 -14 -84 -57q-21 -29 -21 -52t19 -36.5t46 -13.5h40v-91z" />
    <glyph glyph-name="eogonek" unicode="&#x119;" 
d="M433 227h-299q5 -67 29 -97.5t71 -30.5q59 0 76 58h118q-26 -89 -74 -130q-30 -26 -45.5 -41t-31.5 -42t-16 -53q0 -23 19 -36.5t46 -13.5h40v-91h-40q-69 0 -115 24t-46 80q0 67 73 132h-6q-102 0 -157.5 73.5t-55.5 208.5q0 130 55 204t152 74q100 0 153.5 -76
t53.5 -218v-25zM315 319q-12 112 -90 112q-38 0 -59 -27t-29 -85h178z" />
    <glyph glyph-name="Ecaron" unicode="&#x11a;" horiz-adv-x="547" 
d="M509 0h-447v718h433v-127h-313v-151h288v-127h-288v-186h327v-127zM434 914l-103 -126h-103l-103 126h93l62 -62l61 62h93z" />
    <glyph glyph-name="ecaron" unicode="&#x11b;" 
d="M433 227h-299q5 -67 29 -97.5t71 -30.5q59 0 76 58h118q-49 -171 -196 -171q-102 0 -157.5 73.5t-55.5 208.5q0 130 55 204t152 74q100 0 153.5 -76t53.5 -218v-25zM315 319q-12 112 -90 112q-38 0 -59 -27t-29 -85h178zM372 748l-93 -146h-103l-93 146h93l52 -82l51 82
h93z" />
    <glyph glyph-name="Gcircumflex" unicode="&#x11c;" horiz-adv-x="638" 
d="M585 0h-82l-13 90q-43 -61 -83.5 -85t-100.5 -24q-121 0 -195.5 103t-74.5 270q0 176 78 279.5t210 103.5q105 0 174 -63.5t85 -178.5h-124q-9 52 -46 85.5t-86 33.5q-77 0 -121.5 -70t-44.5 -190q0 -117 43.5 -181.5t122.5 -64.5q55 0 92 36t57 121h-138v122h247v-387z
M478 788h-93l-62 62l-61 -62h-93l103 126h103z" />
    <glyph glyph-name="gcircumflex" unicode="&#x11d;" horiz-adv-x="501" 
d="M453 28q0 -132 -53 -188.5t-160 -56.5q-176 0 -198 160h125q5 -28 22.5 -40.5t53.5 -12.5q50 0 72.5 28.5t22.5 92.5v69q-22 -46 -48 -64.5t-70 -18.5q-86 0 -136.5 73.5t-50.5 200.5q0 125 50 200t132 75q45 0 75.5 -22.5t52.5 -73.5v82h110v-504zM339 267
q0 70 -26.5 113.5t-69.5 43.5t-67.5 -42t-24.5 -115q0 -71 24.5 -111.5t67.5 -40.5q46 0 71 40t25 112zM395 602h-93l-52 82l-51 -82h-93l93 146h103z" />
    <glyph glyph-name="Gbreve" unicode="&#x11e;" horiz-adv-x="638" 
d="M585 0h-82l-13 90q-43 -61 -83.5 -85t-100.5 -24q-121 0 -195.5 103t-74.5 270q0 176 78 279.5t210 103.5q105 0 174 -63.5t85 -178.5h-124q-9 52 -46 85.5t-86 33.5q-77 0 -121.5 -70t-44.5 -190q0 -117 43.5 -181.5t122.5 -64.5q55 0 92 36t57 121h-138v122h247v-387z
M472 914q-33 -126 -153 -126q-113 0 -144 126h54q16 -25 36.5 -37t58.5 -12t57 12t28 37h63z" />
    <glyph glyph-name="gbreve" unicode="&#x11f;" horiz-adv-x="501" 
d="M453 28q0 -132 -53 -188.5t-160 -56.5q-176 0 -198 160h125q5 -28 22.5 -40.5t53.5 -12.5q50 0 72.5 28.5t22.5 92.5v69q-22 -46 -48 -64.5t-70 -18.5q-86 0 -136.5 73.5t-50.5 200.5q0 125 50 200t132 75q45 0 75.5 -22.5t52.5 -73.5v82h110v-504zM339 267
q0 70 -26.5 113.5t-69.5 43.5t-67.5 -42t-24.5 -115q0 -71 24.5 -111.5t67.5 -40.5q46 0 71 40t25 112zM389 748q-15 -146 -143 -146q-121 0 -134 146h54q7 -38 26 -53.5t59 -15.5t58.5 15t26.5 54h53z" />
    <glyph glyph-name="Gdotaccent" unicode="&#x120;" horiz-adv-x="638" 
d="M585 0h-82l-13 90q-43 -61 -83.5 -85t-100.5 -24q-121 0 -195.5 103t-74.5 270q0 176 78 279.5t210 103.5q105 0 174 -63.5t85 -178.5h-124q-9 52 -46 85.5t-86 33.5q-77 0 -121.5 -70t-44.5 -190q0 -117 43.5 -181.5t122.5 -64.5q55 0 92 36t57 121h-138v122h247v-387z
M383 794h-114v115h114v-115z" />
    <glyph glyph-name="gdotaccent" unicode="&#x121;" horiz-adv-x="501" 
d="M453 28q0 -132 -53 -188.5t-160 -56.5q-176 0 -198 160h125q5 -28 22.5 -40.5t53.5 -12.5q50 0 72.5 28.5t22.5 92.5v69q-22 -46 -48 -64.5t-70 -18.5q-86 0 -136.5 73.5t-50.5 200.5q0 125 50 200t132 75q45 0 75.5 -22.5t52.5 -73.5v82h110v-504zM339 267
q0 70 -26.5 113.5t-69.5 43.5t-67.5 -42t-24.5 -115q0 -71 24.5 -111.5t67.5 -40.5q46 0 71 40t25 112zM309 618h-114v115h114v-115z" />
    <glyph glyph-name="Gcommaaccent" unicode="&#x122;" horiz-adv-x="638" 
d="M585 0h-82l-13 90q-43 -61 -83.5 -85t-100.5 -24q-121 0 -195.5 103t-74.5 270q0 176 78 279.5t210 103.5q105 0 174 -63.5t85 -178.5h-124q-9 52 -46 85.5t-86 33.5q-77 0 -121.5 -70t-44.5 -190q0 -117 43.5 -181.5t122.5 -64.5q55 0 92 36t57 121h-138v122h247v-387z
M378 -163q0 -64 -31 -103t-77 -41v46q30 6 46.5 28.5t16.5 54.5v6h-63v112h108v-103z" />
    <glyph glyph-name="gcommaaccent" unicode="&#x123;" horiz-adv-x="501" 
d="M306 581h-108v103q0 64 31 103t77 41v-46q-30 -6 -46.5 -28.5t-16.5 -54.5v-6h63v-112zM453 28q0 -132 -53 -188.5t-160 -56.5q-176 0 -198 160h125q5 -28 22.5 -40.5t53.5 -12.5q50 0 72.5 28.5t22.5 92.5v69q-22 -46 -48 -64.5t-70 -18.5q-86 0 -136.5 73.5
t-50.5 200.5q0 125 50 200t132 75q45 0 75.5 -22.5t52.5 -73.5v82h110v-504zM339 267q0 70 -26.5 113.5t-69.5 43.5t-67.5 -42t-24.5 -115q0 -71 24.5 -111.5t67.5 -40.5q46 0 71 40t25 112z" />
    <glyph glyph-name="Hcircumflex" unicode="&#x124;" horiz-adv-x="592" 
d="M534 0h-123v323h-230v-323h-123v718h123v-272h230v272h123v-718zM450 788h-93l-62 62l-61 -62h-93l103 126h103z" />
    <glyph glyph-name="hcircumflex" unicode="&#x125;" horiz-adv-x="501" 
d="M448 0h-114v323q0 55 -17.5 80t-56.5 25q-43 0 -68 -33t-25 -90v-305h-114v718h114v-259q35 87 131 87q68 0 109 -48.5t41 -129.5v-368zM405 788h-93l-62 62l-61 -62h-93l103 126h103z" />
    <glyph glyph-name="Hbar" unicode="&#x126;" horiz-adv-x="592" 
d="M595 539h-61v-539h-123v323h-230v-323h-123v539h-61v71h61v108h123v-108h230v108h123v-108h61v-71zM411 446v93h-230v-93h230z" />
    <glyph glyph-name="hbar" unicode="&#x127;" horiz-adv-x="566" 
d="M509 0h-114v323q0 55 -17.5 80t-56.5 25q-43 0 -68 -33t-25 -90v-305h-114v515l-57 -21v76l57 21v127h114v-86l84 31v-76l-84 -30v-98q35 87 131 87q68 0 109 -48.5t41 -129.5v-368z" />
    <glyph glyph-name="Itilde" unicode="&#x128;" horiz-adv-x="228" 
d="M175 0h-123v718h123v-718zM265 915q-19 -120 -88 -120q-11 0 -62 18t-61 18q-29 0 -38 -43h-52q20 123 99 123q6 0 55.5 -18t54.5 -18q29 0 39 40h53z" />
    <glyph glyph-name="itilde" unicode="&#x129;" horiz-adv-x="228" 
d="M171 0h-114v532h114v-532zM264 739q-20 -120 -88 -120q-11 0 -62 18t-61 18q-29 0 -38 -43h-52q21 123 99 123q6 0 55.5 -18t54.5 -18q29 0 39 40h53z" />
    <glyph glyph-name="Imacron" unicode="&#x12a;" horiz-adv-x="228" 
d="M175 0h-123v718h123v-718zM256 815h-283v73h283v-73z" />
    <glyph glyph-name="imacron" unicode="&#x12b;" horiz-adv-x="228" 
d="M171 0h-114v532h114v-532zM255 639h-283v73h283v-73z" />
    <glyph glyph-name="Ibreve" unicode="&#x12c;" horiz-adv-x="228" 
d="M175 0h-123v718h123v-718zM262 914q-33 -126 -153 -126q-113 0 -144 126h54q16 -25 36.5 -37t58.5 -12t57 12t28 37h63z" />
    <glyph glyph-name="ibreve" unicode="&#x12d;" horiz-adv-x="228" 
d="M171 0h-114v532h114v-532zM252 748q-15 -146 -143 -146q-121 0 -134 146h54q7 -38 26 -53.5t59 -15.5t58.5 15t26.5 54h53z" />
    <glyph glyph-name="Iogonek" unicode="&#x12e;" horiz-adv-x="228" 
d="M195 -250h-40q-69 0 -115 24t-46 80q0 73 90 146h-32v718h123v-718q-37 -22 -64 -57q-21 -29 -21 -52t19 -36.5t46 -13.5h40v-91z" />
    <glyph glyph-name="iogonek" unicode="&#x12f;" horiz-adv-x="228" 
d="M201 -250h-40q-69 0 -115 24t-46 80q0 73 90 146h-33v532h114v-532q-30 -26 -54 -57q-21 -29 -21 -52t19 -36.5t46 -13.5h40v-91zM172 618h-114v115h114v-115z" />
    <glyph glyph-name="Idotaccent" unicode="&#x130;" horiz-adv-x="228" 
d="M175 0h-123v718h123v-718zM173 794h-114v115h114v-115z" />
    <glyph glyph-name="dotlessi" unicode="&#x131;" horiz-adv-x="228" 
d="M171 0h-114v532h114v-532z" />
    <glyph glyph-name="Jcircumflex" unicode="&#x134;" 
d="M397 208q0 -226 -190 -226q-120 0 -162 88q-16 31 -21.5 73.5t-5.5 127.5h115q0 -102 14 -134.5t58 -32.5q38 0 53.5 23t15.5 81v510h123v-510zM490 788h-93l-62 62l-61 -62h-93l103 126h103z" />
    <glyph glyph-name="jcircumflex" unicode="&#x135;" horiz-adv-x="228" 
d="M171 -56q0 -89 -30 -123.5t-109 -34.5h-30v112h21q34 0 34 49v585h114v-588zM258 602h-93l-52 82l-51 -82h-93l93 146h103z" />
    <glyph glyph-name="Kcommaaccent" unicode="&#x136;" horiz-adv-x="592" 
d="M592 0h-158l-183 315l-57 -72v-243h-123v718h123v-292l225 292h159l-240 -294zM349 -163q0 -64 -31 -103t-77 -41v46q30 6 46.5 28.5t16.5 54.5v6h-63v112h108v-103z" />
    <glyph glyph-name="kcommaaccent" unicode="&#x137;" 
d="M461 0h-138l-104 228l-48 -60v-168h-114v718h114v-388l144 202h141l-154 -206zM301 -163q0 -64 -31 -103t-77 -41v46q30 6 46.5 28.5t16.5 54.5v6h-63v112h108v-103z" />
    <glyph glyph-name="Lacute" unicode="&#x139;" horiz-adv-x="501" 
d="M478 0h-416v718h123v-588h293v-130zM266 914l-125 -126h-78l72 126h131z" />
    <glyph glyph-name="lacute" unicode="&#x13a;" horiz-adv-x="228" 
d="M171 0h-114v718h114v-718zM261 914l-125 -126h-78l72 126h131z" />
    <glyph glyph-name="Lcommaaccent" unicode="&#x13b;" horiz-adv-x="501" 
d="M478 0h-416v718h123v-588h293v-130zM324 -163q0 -64 -31 -103t-77 -41v46q30 6 46.5 28.5t16.5 54.5v6h-63v112h108v-103z" />
    <glyph glyph-name="lcommaaccent" unicode="&#x13c;" horiz-adv-x="228" 
d="M171 0h-114v718h114v-718zM168 -163q0 -64 -31 -103t-77 -41v46q30 6 46.5 28.5t16.5 54.5v6h-63v112h108v-103z" />
    <glyph glyph-name="Lcaron" unicode="&#x13d;" horiz-adv-x="501" 
d="M478 0h-416v718h123v-588h293v-130zM350 615q0 -64 -31 -103t-77 -41v46q30 6 46.5 28.5t16.5 54.5v6h-63v112h108v-103z" />
    <glyph glyph-name="lcaron" unicode="&#x13e;" horiz-adv-x="228" 
d="M171 0h-114v718h114v-718zM336 615q0 -64 -31 -103t-77 -41v46q30 6 46.5 28.5t16.5 54.5v6h-63v112h108v-103z" />
    <glyph glyph-name="Ldot" unicode="&#x13f;" horiz-adv-x="501" 
d="M478 0h-416v718h123v-588h293v-130zM431 321h-114v115h114v-115z" />
    <glyph glyph-name="ldot" unicode="&#x140;" horiz-adv-x="342" 
d="M171 0h-114v718h114v-718zM342 321h-114v115h114v-115z" />
    <glyph glyph-name="Lslash" unicode="&#x141;" horiz-adv-x="618" 
d="M565 0h-416v238l-94 -69v107l94 69v373h123v-292l130 95v-106l-130 -96v-189h293v-130z" />
    <glyph glyph-name="lslash" unicode="&#x142;" horiz-adv-x="402" 
d="M366 497l-108 -65v-432h-114v374l-108 -65v100l108 65v244h114v-186l108 65v-100z" />
    <glyph glyph-name="Nacute" unicode="&#x143;" horiz-adv-x="592" 
d="M536 0h-122l-243 515v-515h-114v718h129l236 -504v504h114v-718zM461 914l-125 -126h-78l72 126h131z" />
    <glyph glyph-name="nacute" unicode="&#x144;" horiz-adv-x="501" 
d="M448 0h-114v323q0 55 -17.5 80t-56.5 25q-43 0 -68 -33t-25 -90v-305h-114v532h110v-81q45 95 134 95q69 0 110 -48t41 -130v-368zM412 748l-120 -146h-83l77 146h126z" />
    <glyph glyph-name="Ncommaaccent" unicode="&#x145;" horiz-adv-x="592" 
d="M536 0h-122l-243 515v-515h-114v718h129l236 -504v504h114v-718zM351 -163q0 -64 -31 -103t-77 -41v46q30 6 46.5 28.5t16.5 54.5v6h-63v112h108v-103z" />
    <glyph glyph-name="ncommaaccent" unicode="&#x146;" horiz-adv-x="501" 
d="M448 0h-114v323q0 55 -17.5 80t-56.5 25q-43 0 -68 -33t-25 -90v-305h-114v532h110v-81q45 95 134 95q69 0 110 -48t41 -130v-368zM305 -163q0 -64 -31 -103t-77 -41v46q30 6 46.5 28.5t16.5 54.5v6h-63v112h108v-103z" />
    <glyph glyph-name="Ncaron" unicode="&#x147;" horiz-adv-x="592" 
d="M536 0h-122l-243 515v-515h-114v718h129l236 -504v504h114v-718zM452 914l-103 -126h-103l-103 126h93l62 -62l61 62h93z" />
    <glyph glyph-name="ncaron" unicode="&#x148;" horiz-adv-x="501" 
d="M448 0h-114v323q0 55 -17.5 80t-56.5 25q-43 0 -68 -33t-25 -90v-305h-114v532h110v-81q45 95 134 95q69 0 110 -48t41 -130v-368zM395 748l-93 -146h-103l-93 146h93l52 -82l51 82h93z" />
    <glyph glyph-name="Eng" unicode="&#x14a;" horiz-adv-x="592" 
d="M536 -23q0 -226 -190 -226q-120 0 -162 88q-18 36 -24 95h118q7 -35 21.5 -48t44.5 -13q32 0 55 20t23 50v40l-251 532v-515h-114v718h129l236 -504v504h114v-741z" />
    <glyph glyph-name="eng" unicode="&#x14b;" horiz-adv-x="501" 
d="M448 -56q0 -89 -30 -123.5t-109 -34.5h-30v112h21q34 0 34 49v376q0 55 -17.5 80t-56.5 25q-43 0 -68 -33t-25 -90v-305h-114v532h110v-81q45 95 134 95q69 0 110 -48t41 -130v-424z" />
    <glyph glyph-name="Omacron" unicode="&#x14c;" horiz-adv-x="638" 
d="M602 359q0 -177 -77 -277.5t-206 -100.5q-130 0 -206.5 101t-76.5 276q0 179 77.5 279t209.5 100q125 0 202 -101t77 -277zM479 362q0 113 -43 180.5t-115 67.5q-76 0 -119 -66.5t-43 -182.5q0 -119 42.5 -186t117.5 -67t117.5 67.5t42.5 186.5zM465 815h-283v73h283v-73
z" />
    <glyph glyph-name="omacron" unicode="&#x14d;" horiz-adv-x="501" 
d="M474 265q0 -127 -61 -203t-162 -76t-162 76t-61 203q0 129 61 205t165 76q100 0 160 -77t60 -204zM356 266q0 78 -27 120t-77 42q-106 0 -106 -162q0 -79 27 -120.5t78 -41.5t78 41.5t27 120.5zM392 639h-283v73h283v-73z" />
    <glyph glyph-name="Obreve" unicode="&#x14e;" horiz-adv-x="638" 
d="M602 359q0 -177 -77 -277.5t-206 -100.5q-130 0 -206.5 101t-76.5 276q0 179 77.5 279t209.5 100q125 0 202 -101t77 -277zM479 362q0 113 -43 180.5t-115 67.5q-76 0 -119 -66.5t-43 -182.5q0 -119 42.5 -186t117.5 -67t117.5 67.5t42.5 186.5zM471 914
q-33 -126 -153 -126q-113 0 -144 126h54q16 -25 36.5 -37t58.5 -12t57 12t28 37h63z" />
    <glyph glyph-name="obreve" unicode="&#x14f;" horiz-adv-x="501" 
d="M474 265q0 -127 -61 -203t-162 -76t-162 76t-61 203q0 129 61 205t165 76q100 0 160 -77t60 -204zM356 266q0 78 -27 120t-77 42q-106 0 -106 -162q0 -79 27 -120.5t78 -41.5t78 41.5t27 120.5zM389 748q-15 -146 -143 -146q-121 0 -134 146h54q7 -38 26 -53.5t59 -15.5
t58.5 15t26.5 54h53z" />
    <glyph glyph-name="Ohungarumlaut" unicode="&#x150;" horiz-adv-x="638" 
d="M602 359q0 -177 -77 -277.5t-206 -100.5q-130 0 -206.5 101t-76.5 276q0 179 77.5 279t209.5 100q125 0 202 -101t77 -277zM479 362q0 113 -43 180.5t-115 67.5q-76 0 -119 -66.5t-43 -182.5q0 -119 42.5 -186t117.5 -67t117.5 67.5t42.5 186.5zM397 934l-121 -146h-83
l77 146h127zM565 934l-121 -146h-83l77 146h127z" />
    <glyph glyph-name="ohungarumlaut" unicode="&#x151;" horiz-adv-x="501" 
d="M474 265q0 -127 -61 -203t-162 -76t-162 76t-61 203q0 129 61 205t165 76q100 0 160 -77t60 -204zM356 266q0 78 -27 120t-77 42q-106 0 -106 -162q0 -79 27 -120.5t78 -41.5t78 41.5t27 120.5zM325 748l-121 -146h-83l77 146h127zM493 748l-121 -146h-83l77 146h127z
" />
    <glyph glyph-name="OE" unicode="&#x152;" horiz-adv-x="820" 
d="M788 0h-386v50q-29 -39 -56 -54t-70 -15q-113 0 -179.5 101t-66.5 273q0 177 65.5 279.5t179.5 102.5q77 0 127 -61v42h386v-127h-274v-151h255v-127h-255v-186h274v-127zM394 196v325q0 41 -28.5 67t-73.5 26q-67 0 -104.5 -68.5t-37.5 -188.5q0 -115 38 -184t101 -69
q43 0 74 27.5t31 64.5z" />
    <glyph glyph-name="oe" unicode="&#x153;" horiz-adv-x="774" 
d="M748 227h-299q5 -67 29 -97.5t71 -30.5q59 0 76 58h118q-49 -171 -196 -171q-51 0 -86 17t-67 57q-54 -74 -143 -74q-101 0 -162 76.5t-61 204.5q0 125 60.5 202t159.5 77q91 0 153 -80q37 46 67.5 63t76.5 17q97 0 150 -77t53 -217v-25zM356 266q0 78 -27 120t-77 42
q-106 0 -106 -163q0 -78 27 -119.5t78 -41.5t78 41.5t27 120.5zM630 319q-13 112 -90 112q-38 0 -59 -27t-29 -85h178z" />
    <glyph glyph-name="Racute" unicode="&#x154;" horiz-adv-x="592" 
d="M555 0h-136q-14 64 -14 144q0 65 -10 94t-27 35.5t-59 6.5h-127v-280h-120v718h297q85 0 135.5 -55.5t50.5 -148.5q0 -127 -91 -170q48 -26 61.5 -65t13.5 -151q0 -61 4.5 -81t21.5 -28v-19zM422 498q0 47 -22.5 72t-63.5 25h-154v-193h145q49 0 72 23.5t23 72.5z
M443 914l-125 -126h-78l72 126h131z" />
    <glyph glyph-name="racute" unicode="&#x155;" horiz-adv-x="319" 
d="M306 402q-16 2 -29 2q-111 0 -111 -127v-277h-114v532h110v-95q26 61 52.5 85t68.5 24q10 0 23 -2v-142zM327 748l-120 -146h-83l77 146h126z" />
    <glyph glyph-name="Rcommaaccent" unicode="&#x156;" horiz-adv-x="592" 
d="M555 0h-136q-14 64 -14 144q0 65 -10 94t-27 35.5t-59 6.5h-127v-280h-120v718h297q85 0 135.5 -55.5t50.5 -148.5q0 -127 -91 -170q48 -26 61.5 -65t13.5 -151q0 -61 4.5 -81t21.5 -28v-19zM422 498q0 47 -22.5 72t-63.5 25h-154v-193h145q49 0 72 23.5t23 72.5z
M333 -163q0 -64 -31 -103t-77 -41v46q30 6 46.5 28.5t16.5 54.5v6h-63v112h108v-103z" />
    <glyph glyph-name="rcommaaccent" unicode="&#x157;" horiz-adv-x="319" 
d="M306 402q-16 2 -29 2q-111 0 -111 -127v-277h-114v532h110v-95q26 61 52.5 85t68.5 24q10 0 23 -2v-142zM163 -163q0 -64 -31 -103t-77 -41v46q30 6 46.5 28.5t16.5 54.5v6h-63v112h108v-103z" />
    <glyph glyph-name="Rcaron" unicode="&#x158;" horiz-adv-x="592" 
d="M555 0h-136q-14 64 -14 144q0 65 -10 94t-27 35.5t-59 6.5h-127v-280h-120v718h297q85 0 135.5 -55.5t50.5 -148.5q0 -127 -91 -170q48 -26 61.5 -65t13.5 -151q0 -61 4.5 -81t21.5 -28v-19zM422 498q0 47 -22.5 72t-63.5 25h-154v-193h145q49 0 72 23.5t23 72.5z
M434 914l-103 -126h-103l-103 126h93l62 -62l61 62h93z" />
    <glyph glyph-name="rcaron" unicode="&#x159;" horiz-adv-x="319" 
d="M306 402q-16 2 -29 2q-111 0 -111 -127v-277h-114v532h110v-95q26 61 52.5 85t68.5 24q10 0 23 -2v-142zM310 748l-93 -146h-103l-93 146h93l52 -82l51 82h93z" />
    <glyph glyph-name="Sacute" unicode="&#x15a;" horiz-adv-x="547" 
d="M516 214q0 -108 -64 -170.5t-175 -62.5q-114 0 -177.5 61t-67.5 179h118q7 -117 128 -117q57 0 88.5 24t31.5 68q0 35 -22.5 54t-84.5 37l-63 18q-114 32 -150.5 76t-36.5 131q0 105 59.5 165t164.5 60q106 0 165.5 -59.5t66.5 -172.5h-118q-7 57 -35 83t-83 26
q-49 0 -77 -23.5t-28 -63.5q0 -31 14 -48t48 -27l144 -43q82 -25 118 -70t36 -125zM435 914l-125 -126h-78l72 126h131z" />
    <glyph glyph-name="sacute" unicode="&#x15b;" 
d="M426 166q0 -84 -52 -132t-142 -48q-190 0 -207 184h118q3 -77 93 -77q35 0 55 15t20 40q0 40 -95 59q-91 17 -133 56t-42 106q0 82 48.5 129.5t132.5 47.5q87 0 133 -40t58 -136h-113q-6 39 -23 54t-55 15q-69 0 -69 -50q0 -41 94 -58q94 -18 136.5 -59t42.5 -106z
M389 748l-120 -146h-83l77 146h126z" />
    <glyph glyph-name="Scircumflex" unicode="&#x15c;" horiz-adv-x="547" 
d="M516 214q0 -108 -64 -170.5t-175 -62.5q-114 0 -177.5 61t-67.5 179h118q7 -117 128 -117q57 0 88.5 24t31.5 68q0 35 -22.5 54t-84.5 37l-63 18q-114 32 -150.5 76t-36.5 131q0 105 59.5 165t164.5 60q106 0 165.5 -59.5t66.5 -172.5h-118q-7 57 -35 83t-83 26
q-49 0 -77 -23.5t-28 -63.5q0 -31 14 -48t48 -27l144 -43q82 -25 118 -70t36 -125zM425 788h-93l-62 62l-61 -62h-93l103 126h103z" />
    <glyph glyph-name="scircumflex" unicode="&#x15d;" 
d="M426 166q0 -84 -52 -132t-142 -48q-190 0 -207 184h118q3 -77 93 -77q35 0 55 15t20 40q0 40 -95 59q-91 17 -133 56t-42 106q0 82 48.5 129.5t132.5 47.5q87 0 133 -40t58 -136h-113q-6 39 -23 54t-55 15q-69 0 -69 -50q0 -41 94 -58q94 -18 136.5 -59t42.5 -106z
M372 602h-93l-52 82l-51 -82h-93l93 146h103z" />
    <glyph glyph-name="Scedilla" unicode="&#x15e;" horiz-adv-x="547" 
d="M516 214q0 -103 -58.5 -165t-160.5 -67l-18 -39h20q32 0 52 -22t20 -56q0 -45 -29 -75t-75 -30q-36 0 -92 25l18 48q45 -16 62 -16q19 0 29 13.5t10 31.5q0 15 -9.5 25.5t-22.5 10.5q-10 0 -32 -8l-17 20l35 72q-100 8 -156 68.5t-60 170.5h118q7 -117 128 -117
q57 0 88.5 24t31.5 68q0 35 -22.5 54t-84.5 37l-63 18q-114 32 -150.5 76t-36.5 131q0 105 59.5 165t164.5 60q106 0 165.5 -59.5t66.5 -172.5h-118q-7 57 -35 83t-83 26q-49 0 -77 -23.5t-28 -63.5q0 -31 14 -48t48 -27l144 -43q82 -25 118 -70t36 -125z" />
    <glyph glyph-name="scedilla" unicode="&#x15f;" 
d="M426 166q0 -80 -47 -127.5t-130 -52.5l-20 -43h20q32 0 52 -22t20 -56q0 -45 -29 -75t-75 -30q-36 0 -92 25l18 48q45 -16 62 -16q19 0 29 13.5t10 31.5q0 15 -9.5 25.5t-22.5 10.5q-10 0 -32 -8l-17 20l38 77q-160 15 -176 183h118q3 -77 93 -77q35 0 55 15t20 40
q0 40 -95 59q-91 17 -133 56t-42 106q0 82 48.5 129.5t132.5 47.5q87 0 133 -40t58 -136h-113q-6 39 -23 54t-55 15q-69 0 -69 -50q0 -41 94 -58q94 -18 136.5 -59t42.5 -106z" />
    <glyph glyph-name="Scaron" unicode="&#x160;" horiz-adv-x="547" 
d="M516 214q0 -108 -64 -170.5t-175 -62.5q-114 0 -177.5 61t-67.5 179h118q7 -117 128 -117q57 0 88.5 24t31.5 68q0 35 -22.5 54t-84.5 37l-63 18q-114 32 -150.5 76t-36.5 131q0 105 59.5 165t164.5 60q106 0 165.5 -59.5t66.5 -172.5h-118q-7 57 -35 83t-83 26
q-49 0 -77 -23.5t-28 -63.5q0 -31 14 -48t48 -27l144 -43q82 -25 118 -70t36 -125zM426 914l-103 -126h-103l-103 126h93l62 -62l61 62h93z" />
    <glyph glyph-name="scaron" unicode="&#x161;" 
d="M426 166q0 -84 -52 -132t-142 -48q-190 0 -207 184h118q3 -77 93 -77q35 0 55 15t20 40q0 40 -95 59q-91 17 -133 56t-42 106q0 82 48.5 129.5t132.5 47.5q87 0 133 -40t58 -136h-113q-6 39 -23 54t-55 15q-69 0 -69 -50q0 -41 94 -58q94 -18 136.5 -59t42.5 -106z
M372 748l-93 -146h-103l-93 146h93l52 -82l51 82h93z" />
    <glyph glyph-name="Tcedilla" unicode="&#x162;" horiz-adv-x="501" 
d="M490 591h-178v-591h-37l-26 -57h20q32 0 52 -22t20 -56q0 -45 -29 -75t-75 -30q-36 0 -92 25l18 48q45 -16 62 -16q19 0 29 13.5t10 31.5q0 15 -9.5 25.5t-22.5 10.5q-10 0 -32 -8l-17 20l44 90h-38v591h-178v127h479v-127z" />
    <glyph glyph-name="tcedilla" unicode="&#x163;" horiz-adv-x="273" 
d="M253 -4q-39 -2 -55 -2h-15h-11l-23 -51h20q32 0 52 -22t20 -56q0 -45 -29 -75t-75 -30q-36 0 -92 25l18 48q45 -16 62 -16q19 0 29 13.5t10 31.5q0 15 -9.5 25.5t-22.5 10.5q-10 0 -32 -8l-17 20l44 91q-60 18 -60 108v323h-59v100h59v144h114v-144h72v-100h-72v-289
q0 -28 8.5 -35.5t38.5 -7.5q12 0 25 2v-106z" />
    <glyph glyph-name="Tcaron" unicode="&#x164;" horiz-adv-x="501" 
d="M490 591h-178v-591h-123v591h-178v127h479v-127zM406 914l-103 -126h-103l-103 126h93l62 -62l61 62h93z" />
    <glyph glyph-name="tcaron" unicode="&#x165;" horiz-adv-x="273" 
d="M253 -4q-39 -2 -55 -2h-15q-63 0 -89.5 26t-26.5 89v323h-59v100h59v144h114v-144h72v-100h-72v-289q0 -28 8.5 -35.5t38.5 -7.5q12 0 25 2v-106zM318 705q0 -64 -31 -103t-77 -41v46q30 6 46.5 28.5t16.5 54.5v6h-63v112h108v-103z" />
    <glyph glyph-name="Utilde" unicode="&#x168;" horiz-adv-x="592" 
d="M534 251q0 -132 -61 -201t-178 -69q-113 0 -174.5 68.5t-61.5 192.5v476h125v-466q0 -69 29 -106.5t82 -37.5q56 0 85 35t29 102v473h125v-467zM448 915q-20 -120 -88 -120q-11 0 -62 18t-61 18q-29 0 -38 -43h-52q21 123 99 123q6 0 55.5 -18t54.5 -18q29 0 39 40h53z
" />
    <glyph glyph-name="utilde" unicode="&#x169;" horiz-adv-x="501" 
d="M447 0h-110v78q-44 -92 -136 -92q-70 0 -108.5 51t-38.5 145v350h114v-330q0 -98 74 -98q43 0 67 32.5t24 88.5v307h114v-532zM401 739q-20 -120 -88 -120q-11 0 -62 18t-61 18q-29 0 -38 -43h-52q20 123 99 123q6 0 55.5 -18t54.5 -18q29 0 39 40h53z" />
    <glyph glyph-name="Umacron" unicode="&#x16a;" horiz-adv-x="592" 
d="M534 251q0 -132 -61 -201t-178 -69q-113 0 -174.5 68.5t-61.5 192.5v476h125v-466q0 -69 29 -106.5t82 -37.5q56 0 85 35t29 102v473h125v-467zM439 815h-283v73h283v-73z" />
    <glyph glyph-name="umacron" unicode="&#x16b;" horiz-adv-x="501" 
d="M447 0h-110v78q-44 -92 -136 -92q-70 0 -108.5 51t-38.5 145v350h114v-330q0 -98 74 -98q43 0 67 32.5t24 88.5v307h114v-532zM392 639h-283v73h283v-73z" />
    <glyph glyph-name="Ubreve" unicode="&#x16c;" horiz-adv-x="592" 
d="M534 251q0 -132 -61 -201t-178 -69q-113 0 -174.5 68.5t-61.5 192.5v476h125v-466q0 -69 29 -106.5t82 -37.5q56 0 85 35t29 102v473h125v-467zM445 914q-33 -126 -153 -126q-113 0 -144 126h54q16 -25 36.5 -37t58.5 -12t57 12t28 37h63z" />
    <glyph glyph-name="ubreve" unicode="&#x16d;" horiz-adv-x="501" 
d="M447 0h-110v78q-44 -92 -136 -92q-70 0 -108.5 51t-38.5 145v350h114v-330q0 -98 74 -98q43 0 67 32.5t24 88.5v307h114v-532zM389 748q-15 -146 -143 -146q-121 0 -134 146h54q7 -38 26 -53.5t59 -15.5t58.5 15t26.5 54h53z" />
    <glyph glyph-name="Uring" unicode="&#x16e;" horiz-adv-x="592" 
d="M534 251q0 -132 -61 -201t-178 -69q-113 0 -174.5 68.5t-61.5 192.5v476h125v-466q0 -69 29 -106.5t82 -37.5q56 0 85 35t29 102v473h125v-467zM402 870q0 -35 -31 -61.5t-73 -26.5t-73 26.5t-31 63.5q0 35 31.5 61t72.5 26t72.5 -26.5t31.5 -62.5zM350 870
q0 18 -15 30.5t-37 12.5q-21 0 -36.5 -12.5t-15.5 -29.5q0 -18 15 -30.5t37 -12.5t37 12.5t15 29.5z" />
    <glyph glyph-name="uring" unicode="&#x16f;" horiz-adv-x="501" 
d="M447 0h-110v78q-44 -92 -136 -92q-70 0 -108.5 51t-38.5 145v350h114v-330q0 -98 74 -98q43 0 67 32.5t24 88.5v307h114v-532zM355 675q0 -35 -31 -61.5t-73 -26.5t-73 26.5t-31 63.5q0 35 31.5 61t72.5 26t72.5 -26.5t31.5 -62.5zM303 675q0 18 -15 30.5t-37 12.5
q-21 0 -36.5 -12.5t-15.5 -29.5q0 -18 15 -30.5t37 -12.5t37 12.5t15 29.5z" />
    <glyph glyph-name="Uhungarumlaut" unicode="&#x170;" horiz-adv-x="592" 
d="M534 251q0 -132 -61 -201t-178 -69q-113 0 -174.5 68.5t-61.5 192.5v476h125v-466q0 -69 29 -106.5t82 -37.5q56 0 85 35t29 102v473h125v-467zM371 934l-121 -146h-83l77 146h127zM539 934l-121 -146h-83l77 146h127z" />
    <glyph glyph-name="uhungarumlaut" unicode="&#x171;" horiz-adv-x="501" 
d="M447 0h-110v78q-44 -92 -136 -92q-70 0 -108.5 51t-38.5 145v350h114v-330q0 -98 74 -98q43 0 67 32.5t24 88.5v307h114v-532zM325 748l-121 -146h-83l77 146h127zM493 748l-121 -146h-83l77 146h127z" />
    <glyph glyph-name="Uogonek" unicode="&#x172;" horiz-adv-x="592" 
d="M534 251q0 -185 -119 -245q-88 -43 -88 -115q0 -23 19 -36.5t46 -13.5h40v-91h-40q-69 0 -115 24t-46 80q0 66 68 127h-4q-113 0 -174.5 68.5t-61.5 192.5v476h125v-466q0 -69 29 -106.5t82 -37.5q56 0 85 35t29 102v473h125v-467z" />
    <glyph glyph-name="uogonek" unicode="&#x173;" horiz-adv-x="501" 
d="M457 -250h-40q-69 0 -115 24t-46 80q0 73 90 146h-9v78q-44 -92 -136 -92q-70 0 -108.5 51t-38.5 145v350h114v-330q0 -98 74 -98q43 0 67 32.5t24 88.5v307h114v-532q-45 -19 -74 -57q-21 -29 -21 -52t19 -36.5t46 -13.5h40v-91z" />
    <glyph glyph-name="Wcircumflex" unicode="&#x174;" horiz-adv-x="774" 
d="M762 718l-166 -718h-118l-92 565l-67 -423l-25 -142h-114l-167 718h131q80 -418 95 -531l82 531h131l88 -531l97 531h125zM541 788h-93l-62 62l-61 -62h-93l103 126h103z" />
    <glyph glyph-name="wcircumflex" unicode="&#x175;" horiz-adv-x="638" 
d="M631 532l-126 -532h-118l-69 393l-69 -393h-118l-123 532h122l69 -387l63 387h115l67 -387l69 387h118zM463 602h-93l-52 82l-51 -82h-93l93 146h103z" />
    <glyph glyph-name="Ycircumflex" unicode="&#x176;" horiz-adv-x="547" 
d="M535 718l-197 -449v-269h-123v271l-203 447h145l122 -312l117 312h139zM431 788h-93l-62 62l-61 -62h-93l103 126h103z" />
    <glyph glyph-name="ycircumflex" unicode="&#x177;" 
d="M442 532l-150 -523q-44 -154 -68 -186q-27 -37 -98 -37l-55 2v112q16 -2 24 -2q37 0 51.5 15.5t22.5 64.5l-161 554h128l94 -396l90 396h122zM372 602h-93l-52 82l-51 -82h-93l93 146h103z" />
    <glyph glyph-name="Ydieresis" unicode="&#x178;" horiz-adv-x="547" 
d="M535 718l-197 -449v-269h-123v271l-203 447h145l122 -312l117 312h139zM243 794h-96v115h96v-115zM408 794h-96v115h96v-115z" />
    <glyph glyph-name="Zacute" unicode="&#x179;" horiz-adv-x="501" 
d="M481 0h-461v127l305 464h-297v127h451v-118l-309 -473h311v-127zM418 914l-125 -126h-78l72 126h131z" />
    <glyph glyph-name="zacute" unicode="&#x17a;" horiz-adv-x="410" 
d="M394 0h-378v109l225 311h-209v112h354v-115l-221 -302h229v-115zM366 748l-120 -146h-83l77 146h126z" />
    <glyph glyph-name="Zdotaccent" unicode="&#x17b;" horiz-adv-x="501" 
d="M481 0h-461v127l305 464h-297v127h451v-118l-309 -473h311v-127zM313 794h-114v115h114v-115z" />
    <glyph glyph-name="zdotaccent" unicode="&#x17c;" horiz-adv-x="410" 
d="M394 0h-378v109l225 311h-209v112h354v-115l-221 -302h229v-115zM263 618h-114v115h114v-115z" />
    <glyph glyph-name="Zcaron" unicode="&#x17d;" horiz-adv-x="501" 
d="M481 0h-461v127l305 464h-297v127h451v-118l-309 -473h311v-127zM409 914l-103 -126h-103l-103 126h93l62 -62l61 62h93z" />
    <glyph glyph-name="zcaron" unicode="&#x17e;" horiz-adv-x="410" 
d="M394 0h-378v109l225 311h-209v112h354v-115l-221 -302h229v-115zM349 748l-93 -146h-103l-93 146h93l52 -82l51 82h93z" />
    <glyph glyph-name="longs" unicode="&#x17f;" horiz-adv-x="273" 
d="M259 612h-33q-27 0 -34 -10.5t-7 -48.5v-553h-114v575q0 79 32.5 115.5t101.5 36.5q28 0 54 -2v-113z" />
    <glyph glyph-name="Ereversed" unicode="&#x18e;" horiz-adv-x="547" 
d="M509 0h-447v127h327v186h-288v127h288v151h-313v127h433v-718z" />
    <glyph glyph-name="florin" unicode="&#x192;" 
d="M423 718l-20 -108q-26 15 -46 15q-21 0 -35.5 -16t-18.5 -44l-12 -88h98v-97h-110l-48 -359q-16 -118 -54 -174.5t-103 -56.5q-28 0 -82 21l20 111q24 -17 42 -17q28 0 39.5 26t24.5 115l47 334h-100v97h112l16 87q17 90 51 131.5t93 41.5q35 0 86 -19z" />
    <glyph glyph-name="Ohorn" unicode="&#x1a0;" horiz-adv-x="638" 
d="M603 719q0 -86 -44 -141q43 -89 43 -219q0 -177 -77 -277.5t-206 -100.5q-130 0 -206.5 101t-76.5 276q0 179 77.5 279t209.5 100q128 0 204 -104q19 34 19 86h-57v115h114v-115zM479 362q0 113 -43 180.5t-115 67.5q-76 0 -119 -66.5t-43 -182.5q0 -119 42.5 -186
t117.5 -67t117.5 67.5t42.5 186.5z" />
    <glyph glyph-name="ohorn" unicode="&#x1a1;" horiz-adv-x="512" 
d="M493 533q0 -82 -40 -136q21 -57 21 -132q0 -127 -61 -203t-162 -76t-162 76t-61 203q0 129 61 205t165 76q109 0 168 -89q14 31 14 76h-57v115h114v-115zM356 266q0 78 -27 120t-77 42q-106 0 -106 -162q0 -79 27 -120.5t78 -41.5t78 41.5t27 120.5z" />
    <glyph glyph-name="Uhorn" unicode="&#x1af;" horiz-adv-x="686" 
d="M667 719q0 -75 -36 -130.5t-97 -55.5v-282q0 -132 -61 -201t-178 -69q-113 0 -174.5 68.5t-61.5 192.5v476h125v-466q0 -69 29 -106.5t82 -37.5q56 0 85 35t29 102v473h125v-123q38 0 57 36.5t19 87.5h-57v115h114v-115z" />
    <glyph glyph-name="uhorn" unicode="&#x1b0;" horiz-adv-x="599" 
d="M580 533q0 -75 -36 -130.5t-97 -55.5v-347h-110v78q-44 -92 -136 -92q-70 0 -108.5 51t-38.5 145v350h114v-330q0 -98 74 -98q43 0 67 32.5t24 88.5v307h114v-123q38 0 57 36.5t19 87.5h-57v115h114v-115z" />
    <glyph glyph-name="eturned" unicode="&#x1dd;" 
d="M433 264q0 -130 -55 -204t-152 -74q-100 0 -153.5 76t-53.5 218v25h299q-5 67 -29 97.5t-71 30.5q-59 0 -76 -58h-118q49 171 196 171q102 0 157.5 -73.5t55.5 -208.5zM315 213h-178q12 -112 90 -112q38 0 59 27t29 85z" />
    <glyph glyph-name="Gcaron" unicode="&#x1e6;" horiz-adv-x="638" 
d="M585 0h-82l-13 90q-43 -61 -83.5 -85t-100.5 -24q-121 0 -195.5 103t-74.5 270q0 176 78 279.5t210 103.5q105 0 174 -63.5t85 -178.5h-124q-9 52 -46 85.5t-86 33.5q-77 0 -121.5 -70t-44.5 -190q0 -117 43.5 -181.5t122.5 -64.5q55 0 92 36t57 121h-138v122h247v-387z
M479 914l-103 -126h-103l-103 126h93l62 -62l61 62h93z" />
    <glyph glyph-name="gcaron" unicode="&#x1e7;" horiz-adv-x="501" 
d="M453 28q0 -132 -53 -188.5t-160 -56.5q-176 0 -198 160h125q5 -28 22.5 -40.5t53.5 -12.5q50 0 72.5 28.5t22.5 92.5v69q-22 -46 -48 -64.5t-70 -18.5q-86 0 -136.5 73.5t-50.5 200.5q0 125 50 200t132 75q45 0 75.5 -22.5t52.5 -73.5v82h110v-504zM339 267
q0 70 -26.5 113.5t-69.5 43.5t-67.5 -42t-24.5 -115q0 -71 24.5 -111.5t67.5 -40.5q46 0 71 40t25 112zM395 748l-93 -146h-103l-93 146h93l52 -82l51 82h93z" />
    <glyph glyph-name="Oogonek" unicode="&#x1ea;" horiz-adv-x="638" 
d="M602 359q0 -118 -35.5 -203.5t-100.5 -130.5q-27 -19 -40 -29.5t-32.5 -29t-28.5 -37t-9 -38.5q0 -23 19 -36.5t46 -13.5h40v-91h-40q-69 0 -115 24t-46 80q0 66 68 127h-9q-130 0 -206.5 101t-76.5 276q0 179 77.5 279t209.5 100q125 0 202 -101t77 -277zM479 362
q0 113 -43 180.5t-115 67.5q-76 0 -119 -66.5t-43 -182.5q0 -119 42.5 -186t117.5 -67t117.5 67.5t42.5 186.5z" />
    <glyph glyph-name="oogonek" unicode="&#x1eb;" horiz-adv-x="501" 
d="M474 265q0 -84 -28 -147.5t-78 -97.5q-92 -63 -92 -129q0 -23 19 -36.5t46 -13.5h40v-91h-40q-69 0 -115 24t-46 80q0 66 74 132h-3q-101 0 -162 76t-61 203q0 129 61 205t165 76q100 0 160 -77t60 -204zM356 266q0 78 -27 120t-77 42q-106 0 -106 -162q0 -79 27 -120.5
t78 -41.5t78 41.5t27 120.5z" />
    <glyph glyph-name="Gacute" unicode="&#x1f4;" horiz-adv-x="638" 
d="M585 0h-82l-13 90q-43 -61 -83.5 -85t-100.5 -24q-121 0 -195.5 103t-74.5 270q0 176 78 279.5t210 103.5q105 0 174 -63.5t85 -178.5h-124q-9 52 -46 85.5t-86 33.5q-77 0 -121.5 -70t-44.5 -190q0 -117 43.5 -181.5t122.5 -64.5q55 0 92 36t57 121h-138v122h247v-387z
M488 914l-125 -126h-78l72 126h131z" />
    <glyph glyph-name="gacute" unicode="&#x1f5;" horiz-adv-x="501" 
d="M453 28q0 -132 -53 -188.5t-160 -56.5q-176 0 -198 160h125q5 -28 22.5 -40.5t53.5 -12.5q50 0 72.5 28.5t22.5 92.5v69q-22 -46 -48 -64.5t-70 -18.5q-86 0 -136.5 73.5t-50.5 200.5q0 125 50 200t132 75q45 0 75.5 -22.5t52.5 -73.5v82h110v-504zM339 267
q0 70 -26.5 113.5t-69.5 43.5t-67.5 -42t-24.5 -115q0 -71 24.5 -111.5t67.5 -40.5q46 0 71 40t25 112zM412 748l-120 -146h-83l77 146h126z" />
    <glyph glyph-name="Aringacute" unicode="&#x1fa;" horiz-adv-x="592" 
d="M576 0h-134l-38 148h-217l-41 -148h-130l210 718h142zM370 271l-74 288l-76 -288h150zM461 1105l-125 -126h-78l72 126h131zM402 870q0 -35 -31 -61.5t-73 -26.5t-73 26.5t-31 63.5q0 35 31.5 61t72.5 26t72.5 -26.5t31.5 -62.5zM350 870q0 18 -15 30.5t-37 12.5
q-21 0 -36.5 -12.5t-15.5 -29.5q0 -18 15 -30.5t37 -12.5t37 12.5t15 29.5z" />
    <glyph glyph-name="aringacute" unicode="&#x1fb;" 
d="M432 0h-123q-7 27 -11 63q-34 -43 -65 -60t-73 -17q-63 0 -99.5 42t-36.5 114q0 70 33.5 114t94.5 55l103 19q40 7 40 44q0 60 -71 60q-37 0 -54 -16.5t-22 -57.5h-110q10 101 55 143.5t136 42.5q85 0 131.5 -40.5t46.5 -113.5v-288q0 -70 25 -83v-21zM295 191v68
q-19 -17 -78 -29q-43 -9 -60.5 -27t-17.5 -52q0 -30 15 -47.5t40 -17.5q42 0 71.5 30.5t29.5 74.5zM393 919l-125 -126h-78l72 126h131zM334 684q0 -35 -31 -61.5t-73 -26.5t-73 26.5t-31 63.5q0 35 31.5 61t72.5 26t72.5 -26.5t31.5 -62.5zM282 684q0 18 -15 30.5t-37 12.5
q-21 0 -36.5 -12.5t-15.5 -29.5q0 -18 15 -30.5t37 -12.5t37 12.5t15 29.5z" />
    <glyph glyph-name="AEacute" unicode="&#x1fc;" horiz-adv-x="820" 
d="M782 0h-430v153h-176l-43 -153h-129l215 718h557v-127h-304v-151h274v-127h-274v-186h310v-127zM352 271v320h-53l-91 -320h144zM576 914l-125 -126h-78l72 126h131z" />
    <glyph glyph-name="aeacute" unicode="&#x1fd;" horiz-adv-x="729" 
d="M704 227h-299q5 -67 29 -97.5t71 -30.5q59 0 76 58h118q-49 -171 -198 -171q-57 0 -91.5 19t-65.5 67q-51 -86 -165 -86q-75 0 -115 42t-40 119q0 62 29.5 102.5t81.5 51.5l107 22q38 7 48.5 16t10.5 35q0 31 -18 45.5t-58 14.5q-37 0 -54 -18t-19 -57h-112q9 97 56 142
t135 45q82 0 140 -59q34 33 63.5 46t68.5 13q95 0 148 -77.5t53 -216.5v-25zM299 188v66q-16 -17 -85 -30q-44 -8 -59.5 -23.5t-15.5 -49.5q0 -31 16 -48t45 -17q39 0 69 31t30 71zM586 319q-12 112 -90 112q-38 0 -59 -27t-29 -85h178zM526 748l-120 -146h-83l77 146h126z
" />
    <glyph glyph-name="Oslashacute" unicode="&#x1fe;" horiz-adv-x="638" 
d="M610 707l-69 -92q61 -105 61 -254q0 -178 -77 -279t-206 -101q-107 0 -190 82l-68 -90l-34 38l70 93q-61 105 -61 253q0 178 77 279t205 101q103 0 191 -81l67 89zM430 551q-48 59 -111 59q-74 0 -117 -67.5t-43 -184.5q0 -80 22 -140zM479 359q0 84 -23 142l-249 -333
q47 -60 112 -60q74 0 117 67.5t43 183.5zM483 914l-125 -126h-78l72 126h131z" />
    <glyph glyph-name="oslashacute" unicode="&#x1ff;" horiz-adv-x="501" 
d="M483 528l-58 -74q49 -81 49 -188q0 -127 -61 -203.5t-162 -76.5q-81 0 -145 58l-57 -73l-31 29l60 77q-50 81 -50 189q0 128 60.5 204t162.5 76q81 0 147 -59l56 73zM356 267q0 49 -12 84l-165 -213q27 -34 71 -34q52 0 79 41.5t27 121.5zM325 393q-31 35 -74 35
q-51 0 -78 -41.5t-27 -119.5q0 -49 12 -88zM412 748l-120 -146h-83l77 146h126z" />
    <glyph glyph-name="Adblgrave" unicode="&#x200;" horiz-adv-x="592" 
d="M576 0h-134l-38 148h-217l-41 -148h-130l210 718h142zM370 271l-74 288l-76 -288h150zM427 788h-83l-121 146h127zM259 788h-83l-121 146h127z" />
    <glyph glyph-name="adblgrave" unicode="&#x201;" 
d="M432 0h-123q-7 27 -11 63q-34 -43 -65 -60t-73 -17q-63 0 -99.5 42t-36.5 114q0 70 33.5 114t94.5 55l103 19q40 7 40 44q0 60 -71 60q-37 0 -54 -16.5t-22 -57.5h-110q10 101 55 143.5t136 42.5q85 0 131.5 -40.5t46.5 -113.5v-288q0 -70 25 -83v-21zM295 191v68
q-19 -17 -78 -29q-43 -9 -60.5 -27t-17.5 -52q0 -30 15 -47.5t40 -17.5q42 0 71.5 30.5t29.5 74.5zM359 602h-83l-121 146h127zM191 602h-83l-121 146h127z" />
    <glyph glyph-name="Edblgrave" unicode="&#x204;" horiz-adv-x="547" 
d="M509 0h-447v718h433v-127h-313v-151h288v-127h-288v-186h327v-127zM409 788h-83l-121 146h127zM241 788h-83l-121 146h127z" />
    <glyph glyph-name="edblgrave" unicode="&#x205;" 
d="M433 227h-299q5 -67 29 -97.5t71 -30.5q59 0 76 58h118q-49 -171 -196 -171q-102 0 -157.5 73.5t-55.5 208.5q0 130 55 204t152 74q100 0 153.5 -76t53.5 -218v-25zM315 319q-12 112 -90 112q-38 0 -59 -27t-29 -85h178zM358 602h-83l-121 146h127zM190 602h-83l-121 146
h127z" />
    <glyph glyph-name="Idblgrave" unicode="&#x208;" horiz-adv-x="228" 
d="M175 0h-123v718h123v-718zM244 788h-83l-121 146h127zM76 788h-83l-121 146h127z" />
    <glyph glyph-name="idblgrave" unicode="&#x209;" horiz-adv-x="228" 
d="M171 0h-114v532h114v-532zM244 602h-83l-121 146h127zM76 602h-83l-121 146h127z" />
    <glyph glyph-name="Odblgrave" unicode="&#x20c;" horiz-adv-x="638" 
d="M602 359q0 -177 -77 -277.5t-206 -100.5q-130 0 -206.5 101t-76.5 276q0 179 77.5 279t209.5 100q125 0 202 -101t77 -277zM479 362q0 113 -43 180.5t-115 67.5q-76 0 -119 -66.5t-43 -182.5q0 -119 42.5 -186t117.5 -67t117.5 67.5t42.5 186.5zM453 788h-83l-121 146
h127zM285 788h-83l-121 146h127z" />
    <glyph glyph-name="odblgrave" unicode="&#x20d;" horiz-adv-x="501" 
d="M474 265q0 -127 -61 -203t-162 -76t-162 76t-61 203q0 129 61 205t165 76q100 0 160 -77t60 -204zM356 266q0 78 -27 120t-77 42q-106 0 -106 -162q0 -79 27 -120.5t78 -41.5t78 41.5t27 120.5zM380 602h-83l-121 146h127zM212 602h-83l-121 146h127z" />
    <glyph glyph-name="Rdblgrave" unicode="&#x210;" horiz-adv-x="592" 
d="M555 0h-136q-14 64 -14 144q0 65 -10 94t-27 35.5t-59 6.5h-127v-280h-120v718h297q85 0 135.5 -55.5t50.5 -148.5q0 -127 -91 -170q48 -26 61.5 -65t13.5 -151q0 -61 4.5 -81t21.5 -28v-19zM422 498q0 47 -22.5 72t-63.5 25h-154v-193h145q49 0 72 23.5t23 72.5z
M409 788h-83l-121 146h127zM241 788h-83l-121 146h127z" />
    <glyph glyph-name="rdblgrave" unicode="&#x211;" horiz-adv-x="319" 
d="M306 402q-16 2 -29 2q-111 0 -111 -127v-277h-114v532h110v-95q26 61 52.5 85t68.5 24q10 0 23 -2v-142zM296 602h-83l-121 146h127zM128 602h-83l-121 146h127z" />
    <glyph glyph-name="Udblgrave" unicode="&#x214;" horiz-adv-x="592" 
d="M534 251q0 -132 -61 -201t-178 -69q-113 0 -174.5 68.5t-61.5 192.5v476h125v-466q0 -69 29 -106.5t82 -37.5q56 0 85 35t29 102v473h125v-467zM427 788h-83l-121 146h127zM259 788h-83l-121 146h127z" />
    <glyph glyph-name="udblgrave" unicode="&#x215;" horiz-adv-x="501" 
d="M447 0h-110v78q-44 -92 -136 -92q-70 0 -108.5 51t-38.5 145v350h114v-330q0 -98 74 -98q43 0 67 32.5t24 88.5v307h114v-532zM380 602h-83l-121 146h127zM212 602h-83l-121 146h127z" />
    <glyph glyph-name="uni0218" unicode="&#x218;" horiz-adv-x="547" 
d="M516 214q0 -108 -64 -170.5t-175 -62.5q-114 0 -177.5 61t-67.5 179h118q7 -117 128 -117q57 0 88.5 24t31.5 68q0 35 -22.5 54t-84.5 37l-63 18q-114 32 -150.5 76t-36.5 131q0 105 59.5 165t164.5 60q106 0 165.5 -59.5t66.5 -172.5h-118q-7 57 -35 83t-83 26
q-49 0 -77 -23.5t-28 -63.5q0 -31 14 -48t48 -27l144 -43q82 -25 118 -70t36 -125zM325 -163q0 -64 -31 -103t-77 -41v46q30 6 46.5 28.5t16.5 54.5v6h-63v112h108v-103z" />
    <glyph glyph-name="uni0219" unicode="&#x219;" 
d="M426 166q0 -84 -52 -132t-142 -48q-190 0 -207 184h118q3 -77 93 -77q35 0 55 15t20 40q0 40 -95 59q-91 17 -133 56t-42 106q0 82 48.5 129.5t132.5 47.5q87 0 133 -40t58 -136h-113q-6 39 -23 54t-55 15q-69 0 -69 -50q0 -41 94 -58q94 -18 136.5 -59t42.5 -106z
M282 -163q0 -64 -31 -103t-77 -41v46q30 6 46.5 28.5t16.5 54.5v6h-63v112h108v-103z" />
    <glyph glyph-name="uni021A" unicode="&#x21a;" horiz-adv-x="501" 
d="M490 591h-178v-591h-123v591h-178v127h479v-127zM305 -163q0 -64 -31 -103t-77 -41v46q30 6 46.5 28.5t16.5 54.5v6h-63v112h108v-103z" />
    <glyph glyph-name="uni021B" unicode="&#x21b;" horiz-adv-x="273" 
d="M253 -4q-39 -2 -55 -2h-15q-63 0 -89.5 26t-26.5 89v323h-59v100h59v144h114v-144h72v-100h-72v-289q0 -28 8.5 -35.5t38.5 -7.5q12 0 25 2v-106zM214 -163q0 -64 -31 -103t-77 -41v46q30 6 46.5 28.5t16.5 54.5v6h-63v112h108v-103z" />
    <glyph glyph-name="ereversed" unicode="&#x258;" 
d="M433 268q0 -135 -55.5 -208.5t-157.5 -73.5q-147 0 -196 171h118q17 -58 76 -58q47 0 71 30.5t29 97.5h-299v25q0 142 53.5 218t153.5 76q97 0 152 -74t55 -204zM315 319q-8 58 -29 85t-59 27q-78 0 -90 -112h178z" />
    <glyph glyph-name="schwa" unicode="&#x259;" 
d="M433 264q0 -130 -55 -204t-152 -74q-100 0 -153.5 76t-53.5 218v25h299q-5 67 -29 97.5t-71 30.5q-59 0 -76 -58h-118q49 171 196 171q102 0 157.5 -73.5t55.5 -208.5zM315 213h-178q12 -112 90 -112q38 0 59 27t29 85z" />
    <glyph glyph-name="ringhalfright" unicode="&#x2be;" horiz-adv-x="398" 
d="M341 508q0 -94 -39 -147t-107 -53q-59 0 -95 36.5t-43 107.5q0 9 8 9h77q8 0 8 -7q10 -51 42 -51q54 0 54 101t-50 101q-19 0 -31 -15t-14 -40q0 -7 -8 -7h-77q-10 0 -8 9q9 71 45.5 108.5t95.5 37.5q68 0 105 -49.5t37 -140.5z" />
    <glyph glyph-name="ringhalfleft" unicode="&#x2bf;" horiz-adv-x="398" 
d="M341 554q0 -9 -8 -9h-77q-8 0 -8 7q-10 51 -42 51q-54 0 -54 -101t50 -101q19 0 31 15t14 40q0 7 8 7h77q10 0 8 -9q-9 -71 -45.5 -108.5t-95.5 -37.5q-68 0 -105 49.5t-37 140.5q0 94 39 147t107 53q59 0 95 -36.5t43 -107.5z" />
    <glyph glyph-name="circumflex" unicode="&#x2c6;" horiz-adv-x="273" 
d="M281 602h-93l-52 82l-51 -82h-93l93 146h103z" />
    <glyph glyph-name="caron" unicode="&#x2c7;" horiz-adv-x="273" 
d="M281 748l-93 -146h-103l-93 146h93l52 -82l51 82h93z" />
    <glyph glyph-name="breve" unicode="&#x2d8;" horiz-adv-x="273" 
d="M275 748q-15 -146 -143 -146q-121 0 -134 146h54q7 -38 26 -53.5t59 -15.5t58.5 15t26.5 54h53z" />
    <glyph glyph-name="dotaccent" unicode="&#x2d9;" horiz-adv-x="273" 
d="M195 618h-114v115h114v-115z" />
    <glyph glyph-name="ring" unicode="&#x2da;" horiz-adv-x="273" 
d="M241 675q0 -35 -31 -61.5t-73 -26.5t-73 26.5t-31 63.5q0 35 31.5 61t72.5 26t72.5 -26.5t31.5 -62.5zM189 675q0 18 -15 30.5t-37 12.5q-21 0 -36.5 -12.5t-15.5 -29.5q0 -18 15 -30.5t37 -12.5t37 12.5t15 29.5z" />
    <glyph glyph-name="ogonek" unicode="&#x2db;" horiz-adv-x="273" 
d="M241 -250h-40q-69 0 -115 24t-46 80q0 73 90 146h91q-85 -57 -85 -109q0 -23 19 -36.5t46 -13.5h40v-91z" />
    <glyph glyph-name="tilde" unicode="&#x2dc;" horiz-adv-x="273" 
d="M287 739q-19 -120 -88 -120q-11 0 -62 18t-61 18q-29 0 -38 -43h-52q20 123 99 123q6 0 55.5 -18t54.5 -18q29 0 39 40h53z" />
    <glyph glyph-name="hungarumlaut" unicode="&#x2dd;" horiz-adv-x="273" 
d="M211 748l-121 -146h-83l77 146h127zM379 748l-121 -146h-83l77 146h127z" />
    <glyph glyph-name="uni0300" unicode="&#x300;" horiz-adv-x="0" 
d="M-186 602h-83l-120 146h126z" />
    <glyph glyph-name="uni0301" unicode="&#x301;" horiz-adv-x="0" 
d="M-66 748l-120 -146h-83l77 146h126z" />
    <glyph glyph-name="uni0302" unicode="&#x302;" horiz-adv-x="0" 
d="M-83 602h-93l-52 82l-51 -82h-93l93 146h103z" />
    <glyph glyph-name="uni0303" unicode="&#x303;" horiz-adv-x="0" 
d="M-77 739q-19 -120 -88 -120q-11 0 -62 18t-61 18q-29 0 -38 -43h-52q20 123 99 123q6 0 55.5 -18t54.5 -18q29 0 39 40h53z" />
    <glyph glyph-name="uni0304" unicode="&#x304;" horiz-adv-x="0" 
d="M-86 639h-283v73h283v-73z" />
    <glyph glyph-name="uni0306" unicode="&#x306;" horiz-adv-x="0" 
d="M-89 748q-15 -146 -143 -146q-121 0 -134 146h54q7 -38 26 -53.5t59 -15.5t58.5 15t26.5 54h53z" />
    <glyph glyph-name="uni0307" unicode="&#x307;" horiz-adv-x="0" 
d="M-169 618h-114v115h114v-115z" />
    <glyph glyph-name="uni0308" unicode="&#x308;" horiz-adv-x="0" 
d="M-262 618h-96v115h96v-115zM-97 618h-96v115h96v-115z" />
    <glyph glyph-name="uni0309" unicode="&#x309;" horiz-adv-x="0" 
d="M-112 696q0 -19 -10.5 -32t-39.5 -30q-23 -15 -29 -20t-6 -12v-24h-62v27q0 18 11 30t42 28v-1q32 20 32 34q0 11 -14 18t-37 7q-34 0 -45 -14v1q-7 -8 -7 -35h-61q0 92 116 92q51 0 80.5 -18.5t29.5 -50.5z" />
    <glyph glyph-name="uni030A" unicode="&#x30a;" horiz-adv-x="0" 
d="M-123 675q0 -35 -31 -61.5t-73 -26.5t-73 26.5t-31 63.5q0 35 31.5 61t72.5 26t72.5 -26.5t31.5 -62.5zM-175 675q0 18 -15 30.5t-37 12.5q-21 0 -36.5 -12.5t-15.5 -29.5q0 -18 15 -30.5t37 -12.5t37 12.5t15 29.5z" />
    <glyph glyph-name="uni030B" unicode="&#x30b;" horiz-adv-x="0" 
d="M-153 748l-121 -146h-83l77 146h127zM15 748l-121 -146h-83l77 146h127z" />
    <glyph glyph-name="uni030C" unicode="&#x30c;" horiz-adv-x="0" 
d="M-83 748l-93 -146h-103l-93 146h93l52 -82l51 82h93z" />
    <glyph glyph-name="uni030F" unicode="&#x30f;" horiz-adv-x="0" 
d="M-98 602h-83l-121 146h127zM-266 602h-83l-121 146h127z" />
    <glyph glyph-name="uni0311" unicode="&#x311;" horiz-adv-x="0" 
d="M-89 602h-54q-7 38 -26 53.5t-59 15.5t-58.5 -15t-26.5 -54h-53q15 146 143 146q121 0 134 -146z" />
    <glyph glyph-name="uni0323" unicode="&#x323;" horiz-adv-x="0" 
d="M-169 -200h-114v115h114v-115z" />
    <glyph glyph-name="uni0326" unicode="&#x326;" horiz-adv-x="0" 
d="M-173 -163q0 -64 -31 -103t-77 -41v46q30 6 46.5 28.5t16.5 54.5v6h-63v112h108v-103z" />
    <glyph glyph-name="uni032E" unicode="&#x32e;" horiz-adv-x="0" 
d="M-79 -80q-33 -126 -153 -126q-113 0 -144 126h54q16 -25 36.5 -37t58.5 -12t57 12t28 37h63z" />
    <glyph glyph-name="uni032F" unicode="&#x32f;" horiz-adv-x="0" 
d="M-79 -206h-54q-16 25 -36.5 37t-58.5 12t-57 -12t-28 -37h-63q33 126 153 126q113 0 144 -126z" />
    <glyph glyph-name="uni0330" unicode="&#x330;" horiz-adv-x="0" 
d="M-77 -79q-19 -120 -88 -120q-11 0 -62 18t-61 18q-29 0 -38 -43h-52q20 123 99 123q6 0 55.5 -18t54.5 -18q29 0 39 40h53z" />
    <glyph glyph-name="uni0331" unicode="&#x331;" horiz-adv-x="0" 
d="M-86 -179h-283v73h283v-73z" />
    <glyph glyph-name="uni0332" unicode="&#x332;" horiz-adv-x="0" 
d="M-86 -179h-283v73h283v-73z" />
    <glyph glyph-name="Alpha" unicode="&#x391;" horiz-adv-x="592" 
d="M576 0h-134l-38 148h-217l-41 -148h-130l210 718h142zM370 271l-74 288l-76 -288h150z" />
    <glyph glyph-name="Beta" unicode="&#x392;" horiz-adv-x="592" 
d="M549 216q0 -90 -51 -152q-31 -37 -70.5 -50.5t-116.5 -13.5h-249v718h286q85 0 133.5 -50t48.5 -137q0 -53 -17 -87t-55 -57q91 -50 91 -171zM426 225q0 43 -23.5 66.5t-65.5 23.5h-157v-192h151q95 0 95 102zM412 519q0 76 -91 76h-141v-158h144q42 0 65 21t23 61z" />
    <glyph glyph-name="Gamma" unicode="&#x393;" horiz-adv-x="501" 
d="M481 591h-296v-591h-123v718h419v-127z" />
    <glyph glyph-name="Delta" unicode="&#x394;" horiz-adv-x="502" 
d="M495 0h-488l189 692h110zM346 114l-95 347l-95 -347h190z" />
    <glyph glyph-name="Epsilon" unicode="&#x395;" horiz-adv-x="547" 
d="M509 0h-447v718h433v-127h-313v-151h288v-127h-288v-186h327v-127z" />
    <glyph glyph-name="Zeta" unicode="&#x396;" horiz-adv-x="501" 
d="M481 0h-461v127l305 464h-297v127h451v-118l-309 -473h311v-127z" />
    <glyph glyph-name="Eta" unicode="&#x397;" horiz-adv-x="592" 
d="M534 0h-123v323h-230v-323h-123v718h123v-272h230v272h123v-718z" />
    <glyph glyph-name="Theta" unicode="&#x398;" horiz-adv-x="638" 
d="M602 359q0 -177 -77 -277.5t-206 -100.5q-130 0 -206.5 101t-76.5 276q0 179 77.5 279t209.5 100q125 0 202 -101t77 -277zM479 362q0 113 -43 180.5t-115 67.5q-76 0 -119 -66.5t-43 -182.5q0 -119 42.5 -186t117.5 -67t117.5 67.5t42.5 186.5zM425 302h-212v114h212
v-114z" />
    <glyph glyph-name="Iota" unicode="&#x399;" horiz-adv-x="228" 
d="M175 0h-123v718h123v-718z" />
    <glyph glyph-name="Kappa" unicode="&#x39a;" horiz-adv-x="592" 
d="M592 0h-158l-183 315l-57 -72v-243h-123v718h123v-292l225 292h159l-240 -294z" />
    <glyph glyph-name="Lambda" unicode="&#x39b;" horiz-adv-x="592" 
d="M576 0h-134l-146 559l-150 -559h-130l210 718h142z" />
    <glyph glyph-name="Mu" unicode="&#x39c;" horiz-adv-x="683" 
d="M627 0h-114v609l-112 -609h-121l-109 609v-609h-114v718h179l108 -570l106 570h177v-718z" />
    <glyph glyph-name="Nu" unicode="&#x39d;" horiz-adv-x="592" 
d="M536 0h-122l-243 515v-515h-114v718h129l236 -504v504h114v-718z" />
    <glyph glyph-name="Xi" unicode="&#x39e;" horiz-adv-x="592" 
d="M531 596h-470v122h470v-122zM409 302h-226v114h226v-114zM531 0h-470v122h470v-122z" />
    <glyph glyph-name="Omicron" unicode="&#x39f;" horiz-adv-x="638" 
d="M602 359q0 -177 -77 -277.5t-206 -100.5q-130 0 -206.5 101t-76.5 276q0 179 77.5 279t209.5 100q125 0 202 -101t77 -277zM479 362q0 113 -43 180.5t-115 67.5q-76 0 -119 -66.5t-43 -182.5q0 -119 42.5 -186t117.5 -67t117.5 67.5t42.5 186.5z" />
    <glyph glyph-name="Pi" unicode="&#x3a0;" horiz-adv-x="592" 
d="M534 0h-123v595h-230v-595h-123v718h476v-718z" />
    <glyph glyph-name="Rho" unicode="&#x3a1;" horiz-adv-x="547" 
d="M514 495q0 -107 -51.5 -171t-136.5 -64h-141v-260h-123v718h269q83 0 133 -61t50 -162zM391 492q0 55 -25 79t-83 24h-98v-212h114q92 0 92 109z" />
    <glyph glyph-name="Sigma" unicode="&#x3a3;" horiz-adv-x="504" 
d="M474 0h-444v135l179 224l-179 224v135h444v-120h-302l191 -239l-191 -239h302v-120z" />
    <glyph glyph-name="Tau" unicode="&#x3a4;" horiz-adv-x="501" 
d="M490 591h-178v-591h-123v591h-178v127h479v-127z" />
    <glyph glyph-name="Upsilon" unicode="&#x3a5;" horiz-adv-x="547" 
d="M535 718l-197 -449v-269h-123v271l-203 447h145l122 -312l117 312h139z" />
    <glyph glyph-name="Phi" unicode="&#x3a6;" horiz-adv-x="641" 
d="M584 359q0 -85 -57.5 -149t-144.5 -83v-127h-123v127q-87 19 -144.5 83t-57.5 149t57.5 149t144.5 83v127h123v-127q87 -19 144.5 -83t57.5 -149zM259 250v218q-37 -14 -60.5 -43t-23.5 -66t23.5 -66t60.5 -43zM466 359q0 37 -23.5 66t-60.5 43v-218q37 14 60.5 43
t23.5 66z" />
    <glyph glyph-name="Chi" unicode="&#x3a7;" horiz-adv-x="547" 
d="M535 0h-150l-112 245l-118 -245h-144l190 367l-179 351h146l105 -232l108 232h142l-180 -345z" />
    <glyph glyph-name="Psi" unicode="&#x3a8;" horiz-adv-x="630" 
d="M572 532q0 -112 -53.5 -201.5t-142.5 -114.5v-216h-123v216q-89 25 -142.5 114.5t-53.5 201.5v186h118v-186q0 -61 20 -112.5t58 -76.5v375h123v-375q38 25 58 76.5t20 112.5v186h118v-186z" />
    <glyph glyph-name="Omega" unicode="&#x3a9;" horiz-adv-x="634" 
d="M604 0h-239v235q41 20 64.5 70t23.5 110q0 77 -37 133.5t-99 56.5t-98.5 -56.5t-36.5 -133.5q0 -60 23 -110t64 -70v-235h-239v120h116v60q-87 93 -87 235q0 125 73 217.5t185 92.5t185.5 -92.5t73.5 -217.5q0 -141 -88 -235v-60h116v-120z" />
    <glyph glyph-name="alpha" unicode="&#x3b1;" horiz-adv-x="657" 
d="M600 26l-102 -52q-24 45 -40 103q-68 -98 -165 -98q-100 0 -168 79.5t-68 188.5q0 124 65.5 215t170.5 91q106 0 170 -117q25 103 35 122l102 -52q-32 -64 -75 -260q24 -120 75 -220zM420 248q-8 41 -16 68.5t-22.5 57.5t-36.5 45.5t-52 15.5q-59 0 -90.5 -55.5
t-31.5 -132.5q0 -61 34.5 -105.5t87.5 -44.5q89 0 127 151z" />
    <glyph glyph-name="beta" unicode="&#x3b2;" horiz-adv-x="491" 
d="M448 231q0 -112 -53.5 -178.5t-144.5 -66.5q-62 0 -106 28v-254h-114v779q0 88 52 140t141 52q90 0 141 -50.5t51 -139.5t-60 -130q51 -32 72 -72.5t21 -107.5zM333 224q0 63 -27.5 90t-97.5 33v97q53 2 72.5 20.5t19.5 65.5q0 43 -21 66t-59 23q-35 0 -55.5 -24
t-20.5 -65v-402l58 -26h4q4 -1 20 -1q107 0 107 123z" />
    <glyph glyph-name="gamma" unicode="&#x3b3;" horiz-adv-x="576" 
d="M519 532l-174 -542v-230h-114v230l-174 542h120l111 -345l111 345h120z" />
    <glyph glyph-name="delta" unicode="&#x3b4;" horiz-adv-x="501" 
d="M471 215q0 -94 -64.5 -161.5t-156.5 -67.5t-156 67.5t-64 161.5q0 69 41.5 123t110.5 83q-90 76 -90 153q0 63 53.5 103.5t126.5 40.5q86 0 160 -45l-60 -98q-47 28 -100 28q-66 0 -66 -29q0 -19 7 -34.5t23.5 -30t28 -22t37.5 -22.5t34 -20q62 -37 98.5 -98.5
t36.5 -131.5zM357 215q0 42 -22 77.5t-59 54.5q-55 0 -93.5 -38.5t-38.5 -93.5q0 -46 31 -80t75 -34q45 0 76 34t31 80z" />
    <glyph glyph-name="epsilon" unicode="&#x3b5;" horiz-adv-x="494" 
d="M437 14q-93 -63 -165 -63q-90 0 -152.5 65t-62.5 156q0 76 76 121q-57 42 -57 109q0 74 45 127t113 53q79 0 181 -63l-48 -80q-42 25 -133 25q-20 0 -32 -18.5t-12 -43.5q0 -35 36 -51.5t87 -16.5v-94q-142 0 -142 -68q0 -42 29.5 -72.5t71.5 -30.5q80 0 112 22z" />
    <glyph glyph-name="zeta" unicode="&#x3b6;" horiz-adv-x="473" 
d="M444 -63q0 -70 -43 -121.5t-107 -51.5v106q36 0 36 67q0 25 -9 43t-27 18h-30q-92 0 -149.5 80t-57.5 188q0 104 46 197t126 161h-172v94h387v-94h-62q-98 -48 -154.5 -145.5t-56.5 -212.5q0 -61 23.5 -105.5t69.5 -44.5h30q65 0 107.5 -53t42.5 -126z" />
    <glyph glyph-name="eta" unicode="&#x3b7;" horiz-adv-x="501" 
d="M444 -240h-114v595q0 32 -18.5 56t-47.5 24q-57 0 -93 -41v-394h-114v532h114v-2q43 23 93 23q76 0 128 -58.5t52 -139.5v-595z" />
    <glyph glyph-name="theta" unicode="&#x3b8;" horiz-adv-x="479" 
d="M422 340q0 -361 -183 -361q-53 0 -90.5 31t-56.5 85.5t-27 114t-8 130.5q0 65 3 115t14.5 106t30.5 93t53 61t81 24t81.5 -24t53.5 -61t30.5 -93t14.5 -106t3 -115zM308 399q-2 102 -16 162t-53 60t-52.5 -59.5t-15.5 -162.5h137zM308 281h-137q2 -85 16 -134.5t52 -49.5
q39 0 53 49.5t16 134.5z" />
    <glyph glyph-name="iota" unicode="&#x3b9;" horiz-adv-x="380" 
d="M323 -21q-85 0 -147 51.5t-62 129.5v372h114v-372q0 -30 28.5 -46.5t66.5 -16.5v-118z" />
    <glyph glyph-name="kappa" unicode="&#x3ba;" 
d="M461 0h-138l-104 228l-48 -60v-168h-114v532h114v-202l144 202h141l-154 -206z" />
    <glyph glyph-name="lambda" unicode="&#x3bb;" horiz-adv-x="637" 
d="M580 0h-120l-113 329l-162 -329h-128l237 483l-10 29q-14 41 -41.5 68.5t-64.5 27.5v106q72 0 130.5 -45.5t82.5 -116.5z" />
    <glyph glyph-name="mu.greek" unicode="&#x3bc;" horiz-adv-x="615" 
d="M501 0h-114v3q-37 -24 -79 -24q-43 0 -80 24v-243h-114v772h114v-360q23 -75 80 -75q56 0 79 75v360h114v-532z" />
    <glyph glyph-name="nu" unicode="&#x3bd;" horiz-adv-x="516" 
d="M488 355q0 -114 -55 -213.5t-151 -161.5l-85 31l-168 521h120l131 -407q94 96 94 230q0 80 -20 177h116q18 -80 18 -177z" />
    <glyph glyph-name="xi" unicode="&#x3be;" horiz-adv-x="501" 
d="M444 -63q0 -70 -43 -121.5t-107 -51.5v106q36 0 36 67q0 25 -9 43t-27 18h-30q-88 0 -147.5 68t-59.5 162q0 105 84 171q-65 55 -65 136q0 50 30 89h-49v94h387v-94h-173q-36 -10 -58.5 -33.5t-22.5 -55.5q0 -36 31 -59.5t73 -23.5v-106q-51 0 -87 -34.5t-36 -83.5
q0 -46 26.5 -79t66.5 -33h30q65 0 107.5 -53t42.5 -126z" />
    <glyph glyph-name="omicron" unicode="&#x3bf;" horiz-adv-x="501" 
d="M474 265q0 -127 -61 -203t-162 -76t-162 76t-61 203q0 129 61 205t165 76q100 0 160 -77t60 -204zM356 266q0 78 -27 120t-77 42q-106 0 -106 -162q0 -79 27 -120.5t78 -41.5t78 41.5t27 120.5z" />
    <glyph glyph-name="pi" unicode="&#x3c0;" horiz-adv-x="611" 
d="M581 417h-50v-417h-114v417h-93v-417h-114v417q-40 0 -52.5 -25t-12.5 -79h-115q0 115 58 167t179 52h314v-115z" />
    <glyph glyph-name="rho" unicode="&#x3c1;" horiz-adv-x="565" 
d="M508 266q0 -116 -63 -201.5t-163 -85.5q-59 0 -111 33v-252h-114v506q0 116 63 201.5t162 85.5q100 0 163 -85.5t63 -201.5zM394 266q0 68 -29.5 118.5t-82.5 50.5q-52 0 -81.5 -50.5t-29.5 -118.5v-122q37 -47 111 -47q53 0 82.5 50.5t29.5 118.5z" />
    <glyph glyph-name="uni03C2" unicode="&#x3c2;" horiz-adv-x="501" 
d="M444 -63q0 -70 -43 -121.5t-107 -51.5v106q36 0 36 67q0 25 -9 43t-27 18h-30q-93 0 -150 83t-57 195q0 111 57 194t150 83q73 0 124 -54t50 -129l-102 1q0 27 -21.5 45.5t-50.5 18.5q-47 0 -70 -46.5t-23 -112.5q0 -67 23 -113.5t70 -46.5h30q65 0 107.5 -53t42.5 -126z
" />
    <glyph glyph-name="sigma" unicode="&#x3c3;" horiz-adv-x="603" 
d="M575 498q-57 -27 -124 -41q52 -76 52 -192q0 -127 -61 -203t-162 -76t-162 76t-61 203q0 129 61 205t165 76q27 0 51 -6q84 11 189 64zM385 266q0 78 -27 120t-77 42q-106 0 -106 -162q0 -79 27 -120.5t78 -41.5t78 41.5t27 120.5z" />
    <glyph glyph-name="tau" unicode="&#x3c4;" horiz-adv-x="409" 
d="M352 -21q-85 0 -147 51.5t-62 129.5v256h-86v118h287v-118h-87v-256q0 -30 28.5 -46.5t66.5 -16.5v-118z" />
    <glyph glyph-name="upsilon" unicode="&#x3c5;" horiz-adv-x="501" 
d="M444 250q0 -109 -59.5 -190t-152.5 -81q-75 0 -125 58.5t-50 139.5v355h114v-355q0 -32 17 -56t44 -24q47 0 72.5 45.5t25.5 107.5q0 135 -40 282h118q36 -132 36 -282z" />
    <glyph glyph-name="phi" unicode="&#x3c6;" horiz-adv-x="752" 
d="M695 266q0 -107 -75.5 -185.5t-186.5 -96.5v-224h-114v224q-111 18 -186.5 96.5t-75.5 185.5q0 84 43.5 157t117.5 116l54 -90q-48 -28 -74.5 -77t-26.5 -106q0 -60 42 -103.5t106 -58.5v146q0 79 19 145.5t63 112t106 45.5q61 0 104.5 -42.5t63.5 -106.5t20 -138z
M581 266q0 36 -2 61t-9 52.5t-23 41.5t-40 14q-21 0 -36 -12t-22 -27t-11 -44.5t-4.5 -48t-0.5 -53.5v-146q64 15 106 58.5t42 103.5z" />
    <glyph glyph-name="chi" unicode="&#x3c7;" horiz-adv-x="581" 
d="M525 -240h-126l-108 244l-108 -244h-126l171 386l-171 386h126l108 -244l108 244h126l-171 -386z" />
    <glyph glyph-name="psi" unicode="&#x3c8;" horiz-adv-x="638" 
d="M581 177q0 -76 -58.5 -127.5t-146.5 -65.5v-224h-114v224q-88 14 -146.5 65.5t-58.5 127.5v355h114v-355q0 -60 91 -76v617h114v-617q91 16 91 76v355h114v-355z" />
    <glyph glyph-name="omega" unicode="&#x3c9;" horiz-adv-x="663" 
d="M606 285q0 -59 -8.5 -110.5t-26.5 -97t-51.5 -72t-79.5 -26.5q-72 0 -113 62q-36 -62 -104 -62q-46 0 -79.5 26.5t-51.5 72t-26.5 97t-8.5 110.5q0 123 84 247h98q-68 -100 -68 -247q0 -43 1 -66.5t5.5 -57t16 -49t29.5 -15.5q48 0 62 72q-10 64 -10 186h114
q0 -38 0.5 -59t1.5 -57t4.5 -56.5t8.5 -42.5t14.5 -32.5t21.5 -10.5q18 0 29.5 15.5t16 49t5.5 57t1 66.5q0 147 -68 247h98q84 -124 84 -247z" />
    <glyph glyph-name="uni03D1" unicode="&#x3d1;" horiz-adv-x="558" 
d="M501 378l-57 1v-202q0 -81 -56.5 -138.5t-136.5 -57.5q-81 0 -137.5 57.5t-56.5 138.5v178h114v-178q0 -34 23 -58t57 -24q33 0 56 24t23 58v211q-243 31 -243 184q0 79 46.5 136t117.5 57q83 0 138 -69.5t55 -163.5v-59h57v-95zM330 532q0 58 -19.5 98.5t-59.5 40.5
q-33 0 -52.5 -29.5t-19.5 -69.5q0 -77 151 -93v53z" />
    <glyph glyph-name="uni03D5" unicode="&#x3d5;" horiz-adv-x="703" 
d="M647 266q0 -104 -68 -182t-170 -98v-226h-114v226q-102 20 -169.5 98t-67.5 182t67.5 182t169.5 98v172h114v-172q102 -20 170 -98t68 -182zM533 266q0 57 -35 101t-89 61v-324q54 17 89 61t35 101zM295 104v324q-54 -17 -88.5 -61t-34.5 -101t34.5 -101t88.5 -61z" />
    <glyph glyph-name="uni03D6" unicode="&#x3d6;" horiz-adv-x="663" 
d="M606 285q0 -59 -8.5 -110.5t-26.5 -97t-51.5 -72t-79.5 -26.5q-72 0 -113 62q-36 -62 -104 -62q-46 0 -79.5 26.5t-51.5 72t-26.5 97t-8.5 110.5q0 123 84 247h98q-68 -100 -68 -247q0 -43 1 -66.5t5.5 -57t16 -49t29.5 -15.5q48 0 62 72q-10 64 -10 186h114
q0 -38 0.5 -59t1.5 -57t4.5 -56.5t8.5 -42.5t14.5 -32.5t21.5 -10.5q18 0 29.5 15.5t16 49t5.5 57t1 66.5v50.5t-1 49.5t-2.5 50t-5 46t-8.5 44t-12 37.5t-17 33.5t-22.5 23.5t-28.5 16.5t-36 5q-100 0 -190 -51l-41 70q108 63 231 63q67 0 116.5 -37.5t77 -102t40.5 -139
t13 -159.5z" />
    <glyph glyph-name="epsilon.alt" unicode="&#x3f5;" 
d="M420 399h-125q-19 29 -55 29q-76 0 -91 -109h155v-106h-155q12 -112 84 -112q36 0 60 32h124q-44 -147 -188 -147q-97 0 -149 71t-52 202q0 135 55 211t152 76q146 0 185 -147z" />
    <glyph glyph-name="uni0400" unicode="&#x400;" horiz-adv-x="547" 
d="M380 818h-83l-120 146h126zM509 0h-447v718h433v-127h-313v-151h288v-127h-288v-186h327v-127z" />
    <glyph glyph-name="afii10023" unicode="&#x401;" horiz-adv-x="547" 
d="M509 0h-447v718h433v-127h-313v-151h288v-127h-288v-186h327v-127zM245 800h-103v115h103v-115zM405 800h-103v115h103v-115z" />
    <glyph glyph-name="afii10051" unicode="&#x402;" horiz-adv-x="651" 
d="M603 0q0 -176 -232 -176v123q38 0 73.5 13.5t35.5 43.5v293q0 30 -35.5 43.5t-73.5 13.5q-30 0 -64.5 -14.5t-34.5 -42.5v-297h-123v591h-138v127h399v-127h-138v-141q38 27 123 27q99 0 153.5 -44.5t54.5 -131.5v-301z" />
    <glyph glyph-name="afii10052" unicode="&#x403;" horiz-adv-x="501" 
d="M420 920l-120 -146h-83l77 146h126zM481 591h-296v-591h-123v718h419v-127z" />
    <glyph glyph-name="afii10053" unicode="&#x404;" horiz-adv-x="592" 
d="M561 246q-12 -63 -26 -100t-40 -72q-69 -93 -189 -93q-125 0 -197.5 100.5t-72.5 275.5t73.5 277.5t199.5 102.5q70 0 125.5 -33t89.5 -94q29 -53 37 -127h-123q-11 46 -29 76q-34 48 -97 48q-57 0 -94.5 -43.5t-50.5 -123.5h207v-127h-212q8 -96 46 -149t100 -53
q66 0 102 56q16 26 28 79h123z" />
    <glyph glyph-name="afii10054" unicode="&#x405;" horiz-adv-x="547" 
d="M516 214q0 -108 -64 -170.5t-175 -62.5q-159 0 -218 117q-24 49 -27 123h118q7 -117 128 -117q57 0 88.5 24t31.5 68q0 35 -22.5 54t-84.5 37l-63 18q-103 29 -137 64q-50 48 -50 143q0 105 59.5 165t164.5 60q106 0 165.5 -59.5t66.5 -172.5h-118q-7 57 -35 83t-83 26
q-49 0 -77 -23.5t-28 -63.5q0 -31 14 -47.5t48 -27.5l144 -43q82 -25 118 -70t36 -125z" />
    <glyph glyph-name="afii10055" unicode="&#x406;" horiz-adv-x="228" 
d="M175 0h-123v718h123v-718z" />
    <glyph glyph-name="afii10056" unicode="&#x407;" horiz-adv-x="228" 
d="M176 0h-123v718h123v-718zM86 800h-103v115h103v-115zM246 800h-103v115h103v-115z" />
    <glyph glyph-name="afii10057" unicode="&#x408;" 
d="M397 208q0 -226 -190 -226q-120 0 -162 88q-16 30 -21.5 73.5t-5.5 127.5h115q1 -102 15 -134.5t57 -32.5q38 0 53.5 23t15.5 81v510h123v-510z" />
    <glyph glyph-name="afii10058" unicode="&#x409;" horiz-adv-x="901" 
d="M868 223q0 -101 -50 -162t-133 -61h-269l2 595h-166v-110q0 -84 -12.5 -165t-39 -155t-74.5 -119.5t-111 -45.5v121q45 -1 79.5 115t34.5 254v228h410v-260h141q85 0 136.5 -64t51.5 -171zM745 226q0 109 -92 109h-114v-212h98q58 0 83 24t25 79z" />
    <glyph glyph-name="afii10059" unicode="&#x40a;" horiz-adv-x="896" 
d="M863 223q0 -101 -50 -162t-133 -61h-269v323h-230v-323h-123v718h123v-272h230v272h123v-260h141q85 0 136.5 -64t51.5 -171zM740 226q0 109 -92 109h-114v-212h98q58 0 83 24t25 79z" />
    <glyph glyph-name="afii10060" unicode="&#x40b;" horiz-adv-x="651" 
d="M603 0h-123v297q0 30 -35.5 43.5t-73.5 13.5q-30 0 -64.5 -14.5t-34.5 -42.5v-297h-123v591h-138v127h399v-127h-138v-141q38 27 123 27q99 0 153.5 -44.5t54.5 -131.5v-301z" />
    <glyph glyph-name="afii10061" unicode="&#x40c;" horiz-adv-x="592" 
d="M475 920l-120 -146h-83l77 146h126zM592 0h-158l-240 284v-284h-123v718h123v-258l225 258h159l-298 -344z" />
    <glyph glyph-name="uni040D" unicode="&#x40d;" horiz-adv-x="592" 
d="M398 818h-83l-120 146h126zM536 0h-114v504l-236 -504h-129v718h114v-515l243 515h122v-718z" />
    <glyph glyph-name="afii10062" unicode="&#x40e;" horiz-adv-x="547" 
d="M425 912q-15 -146 -143 -146q-121 0 -134 146h54q7 -38 26 -53.5t59 -15.5t58.5 15t26.5 54h53zM535 718l-310 -718h-139l128 282l-202 436h145l127 -290l112 290h139z" />
    <glyph glyph-name="afii10145" unicode="&#x40f;" horiz-adv-x="543" 
d="M514 0h-189v-147h-106v147h-189v714h123v-592h238v592h123v-714z" />
    <glyph glyph-name="afii10017" unicode="&#x410;" horiz-adv-x="592" 
d="M576 0h-134l-38 148h-217l-41 -148h-130l210 718h142zM370 271l-74 288l-76 -288h150z" />
    <glyph glyph-name="afii10018" unicode="&#x411;" horiz-adv-x="592" 
d="M549 216q0 -90 -51 -152q-31 -37 -70.5 -50.5t-116.5 -13.5h-249v718h419v-127h-301v-154h144q35 0 63.5 -4.5t48.5 -13.5t34 -18t24 -22.5t15 -21.5t11 -21.5t7 -15.5q22 -44 22 -104zM426 225q0 43 -23.5 66.5t-65.5 23.5h-157v-192h151q95 0 95 102z" />
    <glyph glyph-name="afii10019" unicode="&#x412;" horiz-adv-x="592" 
d="M549 216q0 -90 -51 -152q-31 -37 -70.5 -50.5t-116.5 -13.5h-249v718h286q85 0 133.5 -50t48.5 -137q0 -53 -17 -87t-55 -57q48 -26 69 -67q22 -44 22 -104zM426 225q0 43 -23.5 66.5t-65.5 23.5h-157v-192h151q95 0 95 102zM412 519q0 76 -91 76h-141v-158h144
q42 0 65 21t23 61z" />
    <glyph glyph-name="afii10020" unicode="&#x413;" horiz-adv-x="501" 
d="M481 591h-296v-591h-123v718h419v-127z" />
    <glyph glyph-name="afii10021" unicode="&#x414;" horiz-adv-x="712" 
d="M687 -120h-107v120h-448v-120h-107v240h65q45 0 79.5 116.5t34.5 253.5v228h412v-598h71v-240zM493 123v472h-166v-110q1 -97 -17 -194.5t-54 -167.5h237z" />
    <glyph glyph-name="afii10022" unicode="&#x415;" horiz-adv-x="547" 
d="M509 0h-447v718h433v-127h-313v-151h288v-127h-288v-186h327v-127z" />
    <glyph glyph-name="afii10024" unicode="&#x416;" horiz-adv-x="878" 
d="M878 0h-158l-220 284v-284h-122v284l-220 -284h-158l292 374l-278 344h159l205 -258v258h122v-258l205 258h159l-278 -344z" />
    <glyph glyph-name="afii10025" unicode="&#x417;" horiz-adv-x="547" 
d="M516 214q0 -108 -64 -170.5t-175 -62.5q-159 0 -218 117q-24 49 -27 123h118q7 -117 128 -117q57 0 88.5 24t31.5 68t-24.5 78t-82.5 34h-79v117h108q32 0 47 32t15 70q0 40 -28 63.5t-77 23.5q-55 0 -83 -26t-35 -83h-118q7 113 66.5 172.5t165.5 59.5q105 0 164.5 -60
t59.5 -165q0 -95 -50 -143q69 -48 69 -155z" />
    <glyph glyph-name="afii10026" unicode="&#x418;" horiz-adv-x="592" 
d="M536 0h-114v504l-236 -504h-129v718h114v-515l243 515h122v-718z" />
    <glyph glyph-name="afii10027" unicode="&#x419;" horiz-adv-x="592" 
d="M442 912q-15 -146 -143 -146q-121 0 -134 146h54q7 -38 26 -53.5t59 -15.5t58.5 15t26.5 54h53zM536 0h-114v504l-236 -504h-129v718h114v-515l243 515h122v-718z" />
    <glyph glyph-name="afii10028" unicode="&#x41a;" horiz-adv-x="592" 
d="M592 0h-158l-240 284v-284h-123v718h123v-258l225 258h159l-298 -344z" />
    <glyph glyph-name="afii10029" unicode="&#x41b;" horiz-adv-x="592" 
d="M541 0h-123v595h-166v-110q0 -84 -12.5 -165t-39 -155t-74.5 -119.5t-111 -45.5v121q45 -1 79.5 115t34.5 254v228h412v-718z" />
    <glyph glyph-name="afii10030" unicode="&#x41c;" horiz-adv-x="683" 
d="M627 0h-114v609l-112 -609h-121l-109 609v-609h-114v718h179l108 -570l106 570h177v-718z" />
    <glyph glyph-name="afii10031" unicode="&#x41d;" horiz-adv-x="592" 
d="M534 0h-123v323h-230v-323h-123v718h123v-272h230v272h123v-718z" />
    <glyph glyph-name="afii10032" unicode="&#x41e;" horiz-adv-x="638" 
d="M602 359q0 -185 -81 -283q-78 -95 -202 -95q-77 0 -141 41t-99 113q-43 91 -43 223q0 186 81 284q78 95 206 95q56 0 108.5 -25.5t89.5 -69.5q81 -98 81 -283zM479 362q0 131 -54 196q-41 52 -104 52q-76 0 -119 -66.5t-43 -182.5q0 -119 42.5 -186t117.5 -67t117.5 67.5
t42.5 186.5z" />
    <glyph glyph-name="afii10033" unicode="&#x41f;" horiz-adv-x="592" 
d="M534 0h-123v595h-230v-595h-123v718h476v-718z" />
    <glyph glyph-name="afii10034" unicode="&#x420;" horiz-adv-x="547" 
d="M514 495q0 -107 -51.5 -171t-136.5 -64h-141v-260h-123v718h269q83 0 133 -61t50 -162zM391 492q0 55 -25 79t-83 24h-98v-212h114q92 0 92 109z" />
    <glyph glyph-name="afii10035" unicode="&#x421;" horiz-adv-x="592" 
d="M561 246q-12 -63 -26 -100t-40 -72q-69 -93 -189 -93q-125 0 -197.5 100.5t-72.5 275.5t73.5 277.5t199.5 102.5q70 0 125.5 -33t89.5 -94q29 -53 37 -127h-123q-11 46 -29 76q-34 48 -97 48q-71 0 -111 -66.5t-40 -184.5q0 -115 39 -180t108 -65q66 0 102 56
q16 26 28 79h123z" />
    <glyph glyph-name="afii10036" unicode="&#x422;" horiz-adv-x="501" 
d="M490 591h-178v-591h-123v591h-178v127h479v-127z" />
    <glyph glyph-name="afii10037" unicode="&#x423;" horiz-adv-x="547" 
d="M535 718l-310 -718h-139l128 282l-202 436h145l127 -290l112 290h139z" />
    <glyph glyph-name="afii10038" unicode="&#x424;" horiz-adv-x="816" 
d="M786 359q0 -77 -41 -141t-113 -99q-70 -33 -162 -40v-79h-124v78q-142 14 -221 79q-95 78 -95 206q0 56 25.5 108.5t69.5 89.5q79 66 221 78v79h124v-78q140 -12 221 -79q95 -78 95 -202zM659 359q0 64 -49.5 105t-139.5 52v-314q89 11 139 52.5t50 104.5zM346 203v313
q-92 -13 -137 -51q-52 -41 -52 -104q0 -65 50 -106t139 -52z" />
    <glyph glyph-name="afii10039" unicode="&#x425;" horiz-adv-x="547" 
d="M535 0h-150l-112 245l-118 -245h-144l190 367l-179 351h146l105 -232l108 232h142l-180 -345z" />
    <glyph glyph-name="afii10040" unicode="&#x426;" horiz-adv-x="676" 
d="M651 -120h-107v120h-486v718h123v-595h230v595h123v-598h117v-240z" />
    <glyph glyph-name="afii10041" unicode="&#x427;" horiz-adv-x="562" 
d="M504 0h-123v268q-38 -27 -123 -27q-99 0 -153.5 44.5t-54.5 131.5v301h123v-297q0 -30 35.5 -43.5t73.5 -13.5q30 0 64.5 14.5t34.5 42.5v297h123v-718z" />
    <glyph glyph-name="afii10042" unicode="&#x428;" horiz-adv-x="741" 
d="M683 0h-625v718h123v-595l133 1v594h123v-594l123 -1v595h123v-718z" />
    <glyph glyph-name="afii10043" unicode="&#x429;" horiz-adv-x="825" 
d="M800 -120h-107v120h-635v718h123v-595h133v595h123v-595h123v595h123v-598h117v-240z" />
    <glyph glyph-name="afii10044" unicode="&#x42a;" horiz-adv-x="713" 
d="M680 223q0 -101 -50 -162t-133 -61h-269v591h-218v127h341v-260h141q85 0 136.5 -64t51.5 -171zM557 226q0 109 -92 109h-114v-212h98q58 0 83 24t25 79z" />
    <glyph glyph-name="afii10045" unicode="&#x42b;" horiz-adv-x="728" 
d="M670 0h-123v718h123v-718zM514 223q0 -101 -50 -162t-133 -61h-269v718h123v-260h141q85 0 136.5 -64t51.5 -171zM391 226q0 109 -92 109h-114v-212h98q58 0 83 24t25 79z" />
    <glyph glyph-name="afii10046" unicode="&#x42c;" horiz-adv-x="547" 
d="M514 223q0 -101 -50 -162t-133 -61h-269v718h123v-260h141q85 0 136.5 -64t51.5 -171zM391 226q0 109 -92 109h-114v-212h98q58 0 83 24t25 79z" />
    <glyph glyph-name="afii10047" unicode="&#x42d;" horiz-adv-x="592" 
d="M561 357q0 -175 -72.5 -275.5t-197.5 -100.5q-120 0 -189 93q-26 35 -40 72t-26 100h123q12 -53 28 -79q36 -56 102 -56q62 0 100 53.5t45 148.5h-211v127h207q-13 80 -50.5 123.5t-94.5 43.5q-63 0 -97 -48q-18 -30 -29 -76h-123q8 74 37 127q34 61 89.5 94t125.5 33
q126 0 199.5 -102.5t73.5 -277.5z" />
    <glyph glyph-name="afii10048" unicode="&#x42e;" horiz-adv-x="914" 
d="M878 359q0 -185 -81 -283q-78 -95 -202 -95q-77 0 -141 41t-99 113q-37 79 -43 188h-131v-323h-123v718h123v-272h137q15 124 75 196q78 95 206 95q56 0 108.5 -25.5t89.5 -69.5q81 -98 81 -283zM755 362q0 131 -54 196q-41 52 -104 52q-76 0 -119 -66.5t-43 -182.5
q0 -119 42.5 -186t117.5 -67t117.5 67.5t42.5 186.5z" />
    <glyph glyph-name="afii10049" unicode="&#x42f;" horiz-adv-x="570" 
d="M512 0h-123v260l-201 -260h-158l204 260q-80 5 -127 68.5t-47 166.5q0 101 50 162t133 61h269v-718zM389 383v212h-98q-58 0 -83 -24t-25 -79q0 -109 92 -109h114z" />
    <glyph glyph-name="afii10065" unicode="&#x430;" 
d="M432 0h-123q-7 27 -11 63q-34 -43 -65 -60t-73 -17q-63 0 -99.5 42t-36.5 114q0 70 33.5 114t94.5 55l103 19q40 7 40 44q0 60 -71 60q-37 0 -54 -16.5t-22 -57.5h-110q8 75 34 118q46 68 157 68q85 0 131.5 -40.5t46.5 -113.5v-288q0 -70 25 -83v-21zM295 191v68
q-19 -17 -78 -29q-43 -9 -60.5 -27t-17.5 -52q0 -30 15 -47.5t40 -17.5q42 0 71.5 30.5t29.5 74.5z" />
    <glyph glyph-name="afii10066" unicode="&#x431;" horiz-adv-x="501" 
d="M483 776q-9 -34 -13 -47t-17 -37.5t-33 -41.5q-21 -18 -45 -27t-55 -14.5t-48 -10.5q-47 -16 -68.5 -29.5t-31.5 -37.5q38 15 82 15q100 0 160 -77t60 -204t-61 -203t-162 -76t-162 76t-61 203q0 50 0.5 73.5t3 74t10 80.5t19.5 68t32.5 64t48.5 43q37 22 73.5 32
t69.5 12.5t43 5.5q9 2 16 6t11 7t8 9.5t5.5 9.5t5.5 12.5t5 13.5h104zM356 266q0 78 -27 120t-77 42q-106 0 -106 -162q0 -79 27 -120.5t78 -41.5t78 41.5t27 120.5z" />
    <glyph glyph-name="afii10067" unicode="&#x432;" horiz-adv-x="478" 
d="M468 160q0 -67 -51 -112q-31 -28 -70.5 -38t-116.5 -10h-176v532h213q85 0 133.5 -37t48.5 -102q0 -74 -72 -106q48 -19 69 -50q22 -33 22 -77zM345 172q0 56 -89 56h-90v-122h84q48 0 71.5 15t23.5 51zM331 377q0 28 -21 38.5t-70 10.5h-74v-97h77q45 0 66.5 10t21.5 38
z" />
    <glyph glyph-name="afii10068" unicode="&#x433;" horiz-adv-x="384" 
d="M371 418h-204v-418h-114v532h318v-114z" />
    <glyph glyph-name="afii10069" unicode="&#x434;" horiz-adv-x="637" 
d="M607 -120h-104v120h-369v-120h-104v230h75q14 0 30 33.5t28 98.5t12 139v151h361v-422h71v-230zM422 114v304h-133v-31q0 -155 -51 -273h184z" />
    <glyph glyph-name="afii10070" unicode="&#x435;" 
d="M433 227h-299q5 -67 29 -97.5t71 -30.5q59 0 76 58h118q-14 -50 -30 -77.5t-43 -50.5q-49 -43 -123 -43q-102 0 -157.5 73.5t-55.5 208.5q0 130 55 204t152 74q100 0 153.5 -76t53.5 -218v-25zM315 319q-12 112 -90 112q-38 0 -59 -27t-29 -85h178z" />
    <glyph glyph-name="afii10072" unicode="&#x436;" horiz-adv-x="684" 
d="M689 0h-138l-152 208v-208h-115l1 208l-152 -208h-138l207 282l-202 250h141l144 -186v186h114v-186l144 186h141l-202 -250z" />
    <glyph glyph-name="afii10073" unicode="&#x437;" 
d="M426 166q0 -84 -52 -132t-142 -48q-92 0 -148 47q-28 23 -41 52.5t-18 84.5h118q3 -77 93 -77q35 0 55 15t20 40q0 29 -16 51.5t-60 23.5l-47 1v92l37 1q33 1 51 14t21.5 26t3.5 32q0 50 -69 50q-38 0 -55 -15t-23 -54h-113q7 55 20 85t40 52q48 39 131 39q110 0 155 -76
q26 -44 26 -101q0 -53 -27 -89l20 -33q20 -31 20 -81z" />
    <glyph glyph-name="afii10074" unicode="&#x438;" horiz-adv-x="496" 
d="M448 0h-114v342l-150 -342h-131v532h114v-343l150 343h131v-532z" />
    <glyph glyph-name="afii10075" unicode="&#x439;" horiz-adv-x="496" 
d="M395 750q-15 -146 -143 -146q-121 0 -134 146h54q7 -38 26 -53.5t59 -15.5t58.5 15t26.5 54h53zM448 0h-114v342l-150 -342h-131v532h114v-343l150 343h131v-532z" />
    <glyph glyph-name="afii10076" unicode="&#x43a;" 
d="M461 0h-138l-152 208v-208h-114v532h114v-186l144 186h141l-202 -250z" />
    <glyph glyph-name="afii10077" unicode="&#x43b;" horiz-adv-x="496" 
d="M448 0h-114v418h-133v-31q0 -39 -5 -85.5t-18.5 -101.5t-33 -98.5t-53 -72.5t-74.5 -29v115q14 0 30 32.5t28 96t12 137.5v151h361v-532z" />
    <glyph glyph-name="afii10078" unicode="&#x43c;" horiz-adv-x="646" 
d="M593 0h-114v335l-99 -335h-121l-92 313v-313h-114v532h178l91 -396l93 396h178v-532z" />
    <glyph glyph-name="afii10079" unicode="&#x43d;" horiz-adv-x="496" 
d="M448 0h-114v221h-167v-221h-114v532h114v-197h167v197h114v-532z" />
    <glyph glyph-name="afii10080" unicode="&#x43e;" horiz-adv-x="501" 
d="M474 265q0 -127 -61 -203t-162 -76t-162 76t-61 203q0 129 61 205t165 76q100 0 160 -77t60 -204zM356 266q0 78 -27 120t-77 42q-106 0 -106 -162q0 -79 27 -120.5t78 -41.5t78 41.5t27 120.5z" />
    <glyph glyph-name="afii10081" unicode="&#x43f;" horiz-adv-x="501" 
d="M448 0h-114v418h-167v-418h-114v532h395v-532z" />
    <glyph glyph-name="afii10082" unicode="&#x440;" horiz-adv-x="501" 
d="M474 272q0 -131 -50 -208.5t-135 -77.5q-44 0 -72.5 19.5t-51.5 65.5v-278h-114v739h110v-80q25 50 55 72t74 22q83 0 133.5 -75t50.5 -199zM356 265q0 74 -26 116.5t-72 42.5q-97 0 -97 -164q0 -77 25.5 -118t73.5 -41q44 0 70 44.5t26 119.5z" />
    <glyph glyph-name="afii10083" unicode="&#x441;" 
d="M430 342h-116q-8 45 -25.5 65.5t-48.5 20.5q-94 0 -94 -163q0 -164 87 -164q33 0 54.5 25.5t25.5 67.5h116q-13 -101 -64 -154.5t-136 -53.5q-97 0 -149 71t-52 202q0 135 55 211t152 76q54 0 97.5 -24.5t68.5 -69.5q22 -41 29 -110z" />
    <glyph glyph-name="afii10084" unicode="&#x442;" horiz-adv-x="368" 
d="M360 432h-119v-432h-114v432h-119v100h352v-100z" />
    <glyph glyph-name="afii10085" unicode="&#x443;" 
d="M442 532l-150 -523q-44 -154 -68 -186q-27 -37 -98 -37l-55 2v112q16 -2 24 -2q37 0 51.5 15.5t22.5 64.5l-161 554h128l94 -396l90 396h122z" />
    <glyph glyph-name="afii10086" unicode="&#x444;" horiz-adv-x="786" 
d="M759 272q0 -131 -50 -208.5t-135 -77.5q-44 0 -72.5 19.5t-51.5 65.5v-278h-114v278q-23 -46 -51.5 -65.5t-72.5 -19.5q-85 0 -135 77.5t-50 208.5q0 124 50.5 199t133.5 75q94 0 125 -94v185h114v-185q23 53 51.5 73.5t73.5 20.5q83 0 133.5 -75t50.5 -199zM340 260
q0 164 -97 164q-46 0 -72 -42.5t-26 -116.5q0 -75 26 -119.5t70 -44.5q48 0 73.5 41t25.5 118zM641 265q0 74 -26 116.5t-72 42.5q-97 0 -97 -164q0 -77 25.5 -118t73.5 -41q44 0 70 44.5t26 119.5z" />
    <glyph glyph-name="afii10087" unicode="&#x445;" 
d="M444 0h-142l-76 160l-75 -160h-139l149 271l-143 261h139l74 -155l73 155h135l-144 -261z" />
    <glyph glyph-name="afii10088" unicode="&#x446;" horiz-adv-x="576" 
d="M562 -120h-104v120h-405v532h114v-418h167v418h114v-422h114v-230z" />
    <glyph glyph-name="afii10089" unicode="&#x447;" horiz-adv-x="451" 
d="M403 0h-114v204q-6 -7 -15 -12.5t-16.5 -8t-19.5 -3.5t-19 -1.5t-19.5 0t-15.5 0.5q-55 0 -102 38.5t-47 97.5v217h114v-214q0 -42 69 -42q26 0 48.5 10t22.5 35v211h114v-532z" />
    <glyph glyph-name="afii10090" unicode="&#x448;" horiz-adv-x="676" 
d="M623 0h-570v532h114v-418h114v418h114v-418h114v418h114v-532z" />
    <glyph glyph-name="afii10091" unicode="&#x449;" horiz-adv-x="747" 
d="M737 -120h-104v120h-580v532h114v-418h114v418h114v-418h114v418h114v-422h114v-230z" />
    <glyph glyph-name="afii10092" unicode="&#x44a;" horiz-adv-x="562" 
d="M553 160q0 -67 -51 -112q-31 -28 -70.5 -38t-116.5 -10h-176v432h-129v100h241v-203h77q29 0 54 -3t42.5 -7.5t33.5 -12.5t25 -14t18.5 -16t13 -14.5t9.5 -14t7 -10.5q22 -33 22 -77zM430 172q0 56 -89 56h-90v-122h84q48 0 71.5 15t23.5 51z" />
    <glyph glyph-name="afii10093" unicode="&#x44b;" horiz-adv-x="682" 
d="M633 0h-114v532h114v-532zM468 160q0 -67 -51 -112q-31 -28 -70.5 -38t-116.5 -10h-176v532h112v-203h77q29 0 54 -3t42.5 -7.5t33.5 -12.5t25 -14t18.5 -16t13 -14.5t9.5 -14t7 -10.5q22 -33 22 -77zM345 172q0 56 -89 56h-90v-122h84q48 0 71.5 15t23.5 51z" />
    <glyph glyph-name="afii10094" unicode="&#x44c;" horiz-adv-x="478" 
d="M468 160q0 -67 -51 -112q-31 -28 -70.5 -38t-116.5 -10h-176v532h112v-203h77q29 0 54 -3t42.5 -7.5t33.5 -12.5t25 -14t18.5 -16t13 -14.5t9.5 -14t7 -10.5q22 -33 22 -77zM345 172q0 56 -89 56h-90v-122h84q48 0 71.5 15t23.5 51z" />
    <glyph glyph-name="afii10095" unicode="&#x44d;" 
d="M430 259q0 -131 -52 -202t-149 -71q-85 0 -136 53.5t-64 154.5h116q4 -42 25.5 -67.5t54.5 -25.5q74 0 85 120h-109v114h105q-16 93 -88 93q-31 0 -48.5 -20.5t-25.5 -65.5h-116q7 69 29 110q25 45 68.5 69.5t97.5 24.5q97 0 152 -76t55 -211z" />
    <glyph glyph-name="afii10096" unicode="&#x44e;" horiz-adv-x="722" 
d="M695 265q0 -127 -61 -203t-162 -76q-92 0 -150.5 63.5t-69.5 171.5h-85v-221h-114v532h114v-197h88q15 99 73 155t147 56q100 0 160 -77t60 -204zM577 266q0 78 -27 120t-77 42q-106 0 -106 -162q0 -79 27 -120.5t78 -41.5t78 41.5t27 120.5z" />
    <glyph glyph-name="afii10097" unicode="&#x44f;" horiz-adv-x="478" 
d="M424 0h-112v203l-150 -203h-138l151 207q-22 3 -40 8t-32 12.5t-23.5 13.5t-18.5 16t-12.5 14t-10 13.5t-6.5 10.5q-22 33 -22 77q0 67 51 112q31 28 70.5 38t116.5 10h176v-532zM312 304v122h-84q-48 0 -71.5 -15t-23.5 -51q0 -56 89 -56h90z" />
    <glyph glyph-name="uni0450" unicode="&#x450;" 
d="M328 632h-83l-120 146h126zM433 227h-299q5 -67 29 -97.5t71 -30.5q59 0 76 58h118q-14 -50 -30 -77.5t-43 -50.5q-49 -43 -123 -43q-102 0 -157.5 73.5t-55.5 208.5q0 130 55 204t152 74q100 0 153.5 -76t53.5 -218v-25zM315 319q-12 112 -90 112q-38 0 -59 -27t-29 -85
h178z" />
    <glyph glyph-name="afii10071" unicode="&#x451;" 
d="M433 227h-299q5 -67 29 -97.5t71 -30.5q59 0 76 58h118q-14 -50 -30 -77.5t-43 -50.5q-49 -43 -123 -43q-102 0 -157.5 73.5t-55.5 208.5q0 130 55 204t152 74q100 0 153.5 -76t53.5 -218v-25zM315 319q-12 112 -90 112q-38 0 -59 -27t-29 -85h178zM200 614h-103v115h103
v-115zM360 614h-103v115h103v-115z" />
    <glyph glyph-name="afii10099" unicode="&#x452;" horiz-adv-x="511" 
d="M458 -1q0 -100 -48 -139t-140 -39v118q39 0 56.5 24.5t17.5 78.5v231q0 55 -17.5 80t-56.5 25q-43 0 -68 -33t-25 -90v-255h-114v550h-61v73h61v95h114v-95h148v-73h-148v-141q35 87 131 87q68 0 109 -48.5t41 -129.5v-319z" />
    <glyph glyph-name="afii10100" unicode="&#x453;" horiz-adv-x="384" 
d="M373 770l-120 -146h-83l77 146h126zM371 418h-204v-418h-114v532h318v-114z" />
    <glyph glyph-name="afii10101" unicode="&#x454;" 
d="M430 342h-116q-8 45 -25.5 65.5t-48.5 20.5q-72 0 -88 -93h105v-114h-109q11 -120 85 -120q33 0 54.5 25.5t25.5 67.5h116q-13 -101 -64 -154.5t-136 -53.5q-97 0 -149 71t-52 202q0 135 55 211t152 76q54 0 97.5 -24.5t68.5 -69.5q22 -41 29 -110z" />
    <glyph glyph-name="afii10102" unicode="&#x455;" 
d="M426 166q0 -84 -52 -132t-142 -48q-92 0 -148 47q-28 23 -41 52.5t-18 84.5h118q3 -77 93 -77q35 0 55 15t20 40q0 40 -95 59q-91 17 -133 56t-42 106q0 57 26 101q45 76 155 76q83 0 131 -39q27 -22 40 -52t20 -85h-113q-6 39 -23 54t-55 15q-69 0 -69 -50q0 -41 94 -58
q57 -11 99.5 -33.5t59.5 -50.5q20 -34 20 -81z" />
    <glyph glyph-name="afii10103" unicode="&#x456;" horiz-adv-x="228" 
d="M171 0h-114v532h114v-532zM171 595h-114v130h114v-130z" />
    <glyph glyph-name="afii10104" unicode="&#x457;" horiz-adv-x="228" 
d="M171 0h-114v532h114v-532zM86 614h-103v115h103v-115zM246 614h-103v115h103v-115z" />
    <glyph glyph-name="afii10105" unicode="&#x458;" horiz-adv-x="228" 
d="M171 -56q0 -89 -30 -123.5t-109 -34.5h-30v112h21q34 0 34 49v585h114v-588zM171 595h-114v130h114v-130z" />
    <glyph glyph-name="afii10106" unicode="&#x459;" horiz-adv-x="764" 
d="M748 160q0 -67 -51 -112q-31 -28 -70.5 -38t-116.5 -10h-176v418h-133v-31q0 -39 -5 -85.5t-18.5 -101.5t-33 -98.5t-53 -72.5t-74.5 -29v115q14 0 30 32.5t28 96t12 137.5v151h359v-203h77q29 0 54 -3t42.5 -7.5t33.5 -12.5t25 -14t18.5 -16t13 -14.5t9.5 -14t7 -10.5
q22 -33 22 -77zM625 172q0 56 -89 56h-90v-122h84q48 0 71.5 15t23.5 51z" />
    <glyph glyph-name="afii10107" unicode="&#x45a;" horiz-adv-x="758" 
d="M748 160q0 -67 -51 -112q-31 -28 -70.5 -38t-116.5 -10h-176v221h-167v-221h-114v532h114v-197h167v197h112v-203h77q29 0 54 -3t42.5 -7.5t33.5 -12.5t25 -14t18.5 -16t13 -14.5t9.5 -14t7 -10.5q22 -33 22 -77zM625 172q0 56 -89 56h-90v-122h84q48 0 71.5 15t23.5 51z
" />
    <glyph glyph-name="afii10108" unicode="&#x45b;" horiz-adv-x="511" 
d="M458 0h-114v273q0 55 -17.5 80t-56.5 25q-43 0 -68 -33t-25 -90v-255h-114v550h-61v73h61v95h114v-95h148v-73h-148v-141q35 87 131 87q68 0 109 -48.5t41 -129.5v-318z" />
    <glyph glyph-name="afii10109" unicode="&#x45c;" 
d="M394 770l-120 -146h-83l77 146h126zM461 0h-138l-152 208v-208h-114v532h114v-186l144 186h141l-202 -250z" />
    <glyph glyph-name="uni045D" unicode="&#x45d;" horiz-adv-x="496" 
d="M352 632h-83l-120 146h126zM448 0h-114v342l-150 -342h-131v532h114v-343l150 343h131v-532z" />
    <glyph glyph-name="afii10110" unicode="&#x45e;" 
d="M371 750q-15 -146 -143 -146q-121 0 -134 146h54q7 -38 26 -53.5t59 -15.5t58.5 15t26.5 54h53zM442 532l-150 -523q-44 -154 -68 -186q-27 -37 -98 -37l-55 2v112q16 -2 24 -2q37 0 51.5 15.5t22.5 64.5l-161 554h128l94 -396l90 396h122z" />
    <glyph glyph-name="afii10193" unicode="&#x45f;" horiz-adv-x="454" 
d="M425 0h-153v-122h-91v122h-153v532h115v-421h167v421h115v-532z" />
    <glyph glyph-name="uni048C" unicode="&#x48c;" horiz-adv-x="547" 
d="M391 226q0 109 -92 109h-114v-212h98q58 0 83 24t25 79zM514 223q0 -101 -50 -162t-133 -61h-269v575h-67v73h67v70h123v-70h93v-73h-93v-117h141q85 0 136.5 -64t51.5 -171z" />
    <glyph glyph-name="uni048D" unicode="&#x48d;" horiz-adv-x="478" 
d="M345 172q0 56 -89 56h-90v-122h84q48 0 71.5 15t23.5 51zM468 160q0 -83 -50.5 -121.5t-168.5 -38.5h-195v395h-59v73h59v64h112v-64h112v-73h-112v-66h104q52 0 90.5 -12t58.5 -29t31.5 -42t14.5 -44t3 -42z" />
    <glyph glyph-name="uni048E" unicode="&#x48e;" horiz-adv-x="547" 
d="M514 495q0 -107 -51.5 -171t-136.5 -64h-141v-260h-123v718h269q83 0 133 -61t50 -162zM391 492q0 55 -25 79t-83 24h-98v-212h114q92 0 92 109z" />
    <glyph glyph-name="uni048F" unicode="&#x48f;" horiz-adv-x="501" 
d="M474 272q0 -131 -50 -208.5t-135 -77.5q-44 0 -72.5 19.5t-51.5 65.5v-278h-114v739h110v-80q25 50 55 72t74 22q83 0 133.5 -75t50.5 -199zM356 265q0 74 -26 116.5t-72 42.5q-97 0 -97 -164q0 -77 25.5 -118t73.5 -41q44 0 70 44.5t26 119.5z" />
    <glyph glyph-name="afii10050" unicode="&#x490;" horiz-adv-x="501" 
d="M481 591h-296v-591h-123v718h296v104h123v-231z" />
    <glyph glyph-name="afii10098" unicode="&#x491;" horiz-adv-x="384" 
d="M371 418h-204v-418h-114v532l210 1v107h108v-222z" />
    <glyph glyph-name="uni0492" unicode="&#x492;" horiz-adv-x="501" 
d="M481 591h-296v-68h174v-98h-174v-425h-123v425h-62v98h62v195h419v-127z" />
    <glyph glyph-name="uni0493" unicode="&#x493;" horiz-adv-x="384" 
d="M371 418h-204v-73h113v-89h-113v-256h-114v256h-53v89h53v187h318v-114z" />
    <glyph glyph-name="uni0494" unicode="&#x494;" horiz-adv-x="501" 
d="M481 591h-296v-591h-123v718h419v-127z" />
    <glyph glyph-name="uni0495" unicode="&#x495;" horiz-adv-x="384" 
d="M371 418h-204v-418h-114v532h318v-114z" />
    <glyph glyph-name="uni0496" unicode="&#x496;" horiz-adv-x="878" 
d="M878 -120h-107v120h-51l-220 284v-284h-122v284l-220 -284h-158l292 374l-278 344h159l205 -258v258h122v-258l205 258h159l-278 -344l198 -254h94v-240z" />
    <glyph glyph-name="uni0497" unicode="&#x497;" horiz-adv-x="684" 
d="M689 -120h-104v120h-34l-152 208v-208h-115l1 208l-152 -208h-138l207 282l-202 250h141l144 -186v186h114v-186l144 186h141l-202 -250l126 -172h81v-230z" />
    <glyph glyph-name="uni0498" unicode="&#x498;" horiz-adv-x="547" 
d="M516 214q0 -108 -64 -170.5t-175 -62.5q-159 0 -218 117q-24 49 -27 123h118q7 -117 128 -117q57 0 88.5 24t31.5 68t-24.5 78t-82.5 34h-79v117h108q32 0 47 32t15 70q0 40 -28 63.5t-77 23.5q-55 0 -83 -26t-35 -83h-118q7 113 66.5 172.5t165.5 59.5q105 0 164.5 -60
t59.5 -165q0 -95 -50 -143q69 -48 69 -155z" />
    <glyph glyph-name="uni0499" unicode="&#x499;" 
d="M426 166q0 -84 -52 -132t-142 -48q-92 0 -148 47q-28 23 -41 52.5t-18 84.5h118q3 -77 93 -77q35 0 55 15t20 40q0 29 -16 51.5t-60 23.5l-47 1v92l37 1q33 1 51 14t21.5 26t3.5 32q0 50 -69 50q-38 0 -55 -15t-23 -54h-113q7 55 20 85t40 52q48 39 131 39q110 0 155 -76
q26 -44 26 -101q0 -53 -27 -89l20 -33q20 -31 20 -81z" />
    <glyph glyph-name="uni049A" unicode="&#x49a;" horiz-adv-x="592" 
d="M592 -120h-107v120h-51l-240 284v-284h-123v718h123v-258l225 258h159l-298 -344l212 -254h100v-240z" />
    <glyph glyph-name="uni049B" unicode="&#x49b;" 
d="M461 -120h-104v120h-34l-152 208v-208h-114v532h114v-186l144 186h141l-202 -250l126 -172h81v-230z" />
    <glyph glyph-name="uni049C" unicode="&#x49c;" horiz-adv-x="592" 
d="M592 0h-158l-240 284v-284h-123v718h123v-258l225 258h159l-298 -344z" />
    <glyph glyph-name="uni049D" unicode="&#x49d;" 
d="M461 0h-138l-152 208v-208h-114v532h114v-186l144 186h141l-202 -250z" />
    <glyph glyph-name="uni049E" unicode="&#x49e;" horiz-adv-x="592" 
d="M592 0h-158l-240 284v-284h-123v718h123v-258l225 258h159l-298 -344z" />
    <glyph glyph-name="uni049F" unicode="&#x49f;" 
d="M461 0h-138l-152 208v-208h-114v532h114v-186l144 186h141l-202 -250z" />
    <glyph glyph-name="uni04A0" unicode="&#x4a0;" horiz-adv-x="592" 
d="M592 0h-158l-240 284v-284h-123v718h123v-258l225 258h159l-298 -344z" />
    <glyph glyph-name="uni04A1" unicode="&#x4a1;" 
d="M461 0h-138l-152 208v-208h-114v532h114v-186l144 186h141l-202 -250z" />
    <glyph glyph-name="uni04A2" unicode="&#x4a2;" horiz-adv-x="592" 
d="M534 0h-123v323h-230v-323h-123v718h123v-272h230v272h123v-718z" />
    <glyph glyph-name="uni04A3" unicode="&#x4a3;" horiz-adv-x="496" 
d="M448 0h-114v221h-167v-221h-114v532h114v-197h167v197h114v-532z" />
    <glyph glyph-name="uni04A4" unicode="&#x4a4;" horiz-adv-x="592" 
d="M534 0h-123v595h-230v-595h-123v718h476v-718z" />
    <glyph glyph-name="uni04A5" unicode="&#x4a5;" horiz-adv-x="501" 
d="M448 0h-114v418h-167v-418h-114v532h395v-532z" />
    <glyph glyph-name="uni04A6" unicode="&#x4a6;" horiz-adv-x="592" 
d="M561 246q-12 -63 -26 -100t-40 -72q-69 -93 -189 -93q-125 0 -197.5 100.5t-72.5 275.5t73.5 277.5t199.5 102.5q70 0 125.5 -33t89.5 -94q29 -53 37 -127h-123q-11 46 -29 76q-34 48 -97 48q-71 0 -111 -66.5t-40 -184.5q0 -115 39 -180t108 -65q66 0 102 56
q16 26 28 79h123z" />
    <glyph glyph-name="uni04A7" unicode="&#x4a7;" 
d="M430 342h-116q-8 45 -25.5 65.5t-48.5 20.5q-94 0 -94 -163q0 -164 87 -164q33 0 54.5 25.5t25.5 67.5h116q-13 -101 -64 -154.5t-136 -53.5q-97 0 -149 71t-52 202q0 135 55 211t152 76q54 0 97.5 -24.5t68.5 -69.5q22 -41 29 -110z" />
    <glyph glyph-name="uni04A8" unicode="&#x4a8;" horiz-adv-x="592" 
d="M561 246q-12 -63 -26 -100t-40 -72q-69 -93 -189 -93q-125 0 -197.5 100.5t-72.5 275.5t73.5 277.5t199.5 102.5q70 0 125.5 -33t89.5 -94q29 -53 37 -127h-123q-11 46 -29 76q-34 48 -97 48q-71 0 -111 -66.5t-40 -184.5q0 -115 39 -180t108 -65q66 0 102 56
q16 26 28 79h123z" />
    <glyph glyph-name="uni04A9" unicode="&#x4a9;" 
d="M430 342h-116q-8 45 -25.5 65.5t-48.5 20.5q-94 0 -94 -163q0 -164 87 -164q33 0 54.5 25.5t25.5 67.5h116q-13 -101 -64 -154.5t-136 -53.5q-97 0 -149 71t-52 202q0 135 55 211t152 76q54 0 97.5 -24.5t68.5 -69.5q22 -41 29 -110z" />
    <glyph glyph-name="uni04AA" unicode="&#x4aa;" horiz-adv-x="501" 
d="M490 591h-178v-471h92v-240h-107v120h-108v591h-178v127h479v-127z" />
    <glyph glyph-name="uni04AB" unicode="&#x4ab;" horiz-adv-x="368" 
d="M360 432h-119v-322h89v-230h-104v120h-99v432h-119v100h352v-100z" />
    <glyph glyph-name="uni04AC" unicode="&#x4ac;" horiz-adv-x="547" 
d="M535 718l-197 -449v-269h-123v271l-203 447h145l122 -312l117 312h139z" />
    <glyph glyph-name="uni04AD" unicode="&#x4ad;" horiz-adv-x="547" 
d="M515 532l-177 -449v-269h-123v271l-183 447h145l102 -312l97 312h139z" />
    <glyph glyph-name="uni04AE" unicode="&#x4ae;" horiz-adv-x="547" 
d="M535 718l-197 -449v-23h170v-100h-170v-146h-123v146h-170v100h170v25l-203 447h145l122 -312l117 312h139z" />
    <glyph glyph-name="uni04AF" unicode="&#x4af;" horiz-adv-x="547" 
d="M515 532l-177 -447h170v-92h-170v-179h-123v179h-170v92h170l-183 447h145l102 -312l97 312h139z" />
    <glyph glyph-name="uni04B0" unicode="&#x4b0;" horiz-adv-x="547" 
d="M535 -120h-107v120h-43l-112 245l-118 -245h-144l190 367l-179 351h146l105 -232l108 232h142l-180 -345l130 -253h62v-240z" />
    <glyph glyph-name="uni04B1" unicode="&#x4b1;" 
d="M444 -120h-104v120h-38l-76 160l-75 -160h-139l149 271l-143 261h139l74 -155l73 155h135l-144 -261l88 -161h61v-230z" />
    <glyph glyph-name="uni04B2" unicode="&#x4b2;" horiz-adv-x="676" 
d="M651 -120h-107v120h-486v718h123v-595h230v595h123v-598h117v-240z" />
    <glyph glyph-name="uni04B3" unicode="&#x4b3;" horiz-adv-x="576" 
d="M562 -120h-104v120h-405v532h114v-418h167v418h114v-422h114v-230z" />
    <glyph glyph-name="uni04B4" unicode="&#x4b4;" horiz-adv-x="562" 
d="M504 0h-123v268q-38 -27 -123 -27q-99 0 -153.5 44.5t-54.5 131.5v301h123v-297q0 -30 35.5 -43.5t73.5 -13.5q30 0 64.5 14.5t34.5 42.5v297h123v-718z" />
    <glyph glyph-name="uni04B5" unicode="&#x4b5;" horiz-adv-x="451" 
d="M403 0h-114v204q-6 -7 -15 -12.5t-16.5 -8t-19.5 -3.5t-19 -1.5t-19.5 0t-15.5 0.5q-55 0 -102 38.5t-47 97.5v217h114v-214q0 -42 69 -42q26 0 48.5 10t22.5 35v211h114v-532z" />
    <glyph glyph-name="uni04B6" unicode="&#x4b6;" horiz-adv-x="562" 
d="M504 0h-123v268q-38 -27 -123 -27q-99 0 -153.5 44.5t-54.5 131.5v301h123v-297q0 -30 35.5 -43.5t73.5 -13.5q30 0 64.5 14.5t34.5 42.5v297h123v-718z" />
    <glyph glyph-name="uni04B7" unicode="&#x4b7;" horiz-adv-x="451" 
d="M403 0h-114v204q-6 -7 -15 -12.5t-16.5 -8t-19.5 -3.5t-19 -1.5t-19.5 0t-15.5 0.5q-55 0 -102 38.5t-47 97.5v217h114v-214q0 -42 69 -42q26 0 48.5 10t22.5 35v211h114v-532z" />
    <glyph glyph-name="uni04B8" unicode="&#x4b8;" horiz-adv-x="562" 
d="M504 0h-123v297q0 30 -35.5 43.5t-73.5 13.5q-30 0 -64.5 -14.5t-34.5 -42.5v-297h-123v718h123v-268q38 27 123 27q99 0 153.5 -44.5t54.5 -131.5v-301z" />
    <glyph glyph-name="uni04B9" unicode="&#x4b9;" horiz-adv-x="451" 
d="M403 0h-114v214q0 42 -69 42q-26 0 -48.5 -10t-22.5 -35v-211h-114v532h114v-204q6 7 15 12.5t16.5 8t19.5 3.5t19 1.5t19.5 0t15.5 -0.5q55 0 102 -38.5t47 -97.5v-217z" />
    <glyph glyph-name="uni04BA" unicode="&#x4ba;" horiz-adv-x="592" 
d="M561 246q-12 -63 -26 -100t-40 -72q-69 -93 -189 -93q-125 0 -197.5 100.5t-72.5 275.5t73.5 277.5t199.5 102.5q70 0 125.5 -33t89.5 -94q29 -53 37 -127h-123q-11 46 -29 76q-34 48 -97 48q-71 0 -111 -66.5t-40 -184.5q0 -115 39 -180t108 -65q66 0 102 56
q16 26 28 79h123z" />
    <glyph glyph-name="uni04BB" unicode="&#x4bb;" 
d="M430 342h-116q-8 45 -25.5 65.5t-48.5 20.5q-94 0 -94 -163q0 -164 87 -164q33 0 54.5 25.5t25.5 67.5h116q-13 -101 -64 -154.5t-136 -53.5q-97 0 -149 71t-52 202q0 135 55 211t152 76q54 0 97.5 -24.5t68.5 -69.5q22 -41 29 -110z" />
    <glyph glyph-name="uni04BC" unicode="&#x4bc;" horiz-adv-x="592" 
d="M561 246q-12 -63 -26 -100t-40 -72q-69 -93 -189 -93q-125 0 -197.5 100.5t-72.5 275.5t73.5 277.5t199.5 102.5q70 0 125.5 -33t89.5 -94q29 -53 37 -127h-123q-11 46 -29 76q-34 48 -97 48q-71 0 -111 -66.5t-40 -184.5q0 -115 39 -180t108 -65q66 0 102 56
q16 26 28 79h123z" />
    <glyph glyph-name="uni04BD" unicode="&#x4bd;" 
d="M430 342h-116q-8 45 -25.5 65.5t-48.5 20.5q-94 0 -94 -163q0 -164 87 -164q33 0 54.5 25.5t25.5 67.5h116q-13 -101 -64 -154.5t-136 -53.5q-97 0 -149 71t-52 202q0 135 55 211t152 76q54 0 97.5 -24.5t68.5 -69.5q22 -41 29 -110z" />
    <glyph glyph-name="uni04BE" unicode="&#x4be;" horiz-adv-x="228" 
d="M175 0h-123v718h123v-718z" />
    <glyph glyph-name="uni04BF" unicode="&#x4bf;" horiz-adv-x="878" 
d="M577 964q-15 -146 -143 -146q-121 0 -134 146h54q7 -38 26 -53.5t59 -15.5t58.5 15t26.5 54h53zM878 0h-158l-220 284v-284h-122v284l-220 -284h-158l292 374l-278 344h159l205 -258v258h122v-258l205 258h159l-278 -344z" />
    <glyph glyph-name="uni04C0" unicode="&#x4c0;" horiz-adv-x="684" 
d="M481 778q-15 -146 -143 -146q-121 0 -134 146h54q7 -38 26 -53.5t59 -15.5t58.5 15t26.5 54h53zM689 0h-138l-152 208v-208h-115l1 208l-152 -208h-138l207 282l-202 250h141l144 -186v186h114v-186l144 186h141l-202 -250z" />
    <glyph glyph-name="uni04C1" unicode="&#x4c1;" horiz-adv-x="592" 
d="M592 0h-158l-240 284v-284h-123v718h123v-258l225 258h159l-298 -344z" />
    <glyph glyph-name="uni04C2" unicode="&#x4c2;" 
d="M461 0h-138l-152 208v-208h-114v532h114v-186l144 186h141l-202 -250z" />
    <glyph glyph-name="uni04C3" unicode="&#x4c3;" horiz-adv-x="592" 
d="M534 0h-123v323h-230v-323h-123v718h123v-272h230v272h123v-718z" />
    <glyph glyph-name="uni04C4" unicode="&#x4c4;" horiz-adv-x="496" 
d="M448 0h-114v221h-167v-221h-114v532h114v-197h167v197h114v-532z" />
    <glyph glyph-name="uni04C7" unicode="&#x4c7;" horiz-adv-x="562" 
d="M504 0h-123v268q-38 -27 -123 -27q-99 0 -153.5 44.5t-54.5 131.5v301h123v-297q0 -30 35.5 -43.5t73.5 -13.5q30 0 64.5 14.5t34.5 42.5v297h123v-718z" />
    <glyph glyph-name="uni04C8" unicode="&#x4c8;" horiz-adv-x="451" 
d="M403 0h-114v204q-6 -7 -15 -12.5t-16.5 -8t-19.5 -3.5t-19 -1.5t-19.5 0t-15.5 0.5q-55 0 -102 38.5t-47 97.5v217h114v-214q0 -42 69 -42q26 0 48.5 10t22.5 35v211h114v-532z" />
    <glyph glyph-name="uni04CB" unicode="&#x4cb;" horiz-adv-x="592" 
d="M435 964q-15 -146 -143 -146q-121 0 -134 146h54q7 -38 26 -53.5t59 -15.5t58.5 15t26.5 54h53zM576 0h-134l-38 148h-217l-41 -148h-130l210 718h142zM370 271l-74 288l-76 -288h150z" />
    <glyph glyph-name="uni04CC" unicode="&#x4cc;" 
d="M305 778q-15 -146 -143 -146q-121 0 -134 146h54q7 -38 26 -53.5t59 -15.5t58.5 15t26.5 54h53zM432 0h-123q-7 27 -11 63q-34 -43 -65 -60t-73 -17q-63 0 -99.5 42t-36.5 114q0 70 33.5 114t94.5 55l103 19q40 7 40 44q0 60 -71 60q-37 0 -54 -16.5t-22 -57.5h-110
q8 75 34 118q46 68 157 68q85 0 131.5 -40.5t46.5 -113.5v-288q0 -70 25 -83v-21zM295 191v68q-19 -17 -78 -29q-43 -9 -60.5 -27t-17.5 -52q0 -30 15 -47.5t40 -17.5q42 0 71.5 30.5t29.5 74.5z" />
    <glyph glyph-name="uni04D0" unicode="&#x4d0;" horiz-adv-x="592" 
d="M268 818h-103v115h103v-115zM428 818h-103v115h103v-115zM576 0h-134l-38 148h-217l-41 -148h-130l210 718h142zM370 271l-74 288l-76 -288h150z" />
    <glyph glyph-name="uni04D1" unicode="&#x4d1;" 
d="M138 632h-103v115h103v-115zM298 632h-103v115h103v-115zM432 0h-123q-7 27 -11 63q-34 -43 -65 -60t-73 -17q-63 0 -99.5 42t-36.5 114q0 70 33.5 114t94.5 55l103 19q40 7 40 44q0 60 -71 60q-37 0 -54 -16.5t-22 -57.5h-110q8 75 34 118q46 68 157 68
q85 0 131.5 -40.5t46.5 -113.5v-288q0 -70 25 -83v-21zM295 191v68q-19 -17 -78 -29q-43 -9 -60.5 -27t-17.5 -52q0 -30 15 -47.5t40 -17.5q42 0 71.5 30.5t29.5 74.5z" />
    <glyph glyph-name="uni04D2" unicode="&#x4d2;" horiz-adv-x="820" 
d="M782 0h-430v153h-176l-43 -153h-129l215 718h557v-127h-304v-151h274v-127h-274v-186h310v-127zM352 271v320h-53l-91 -320h144z" />
    <glyph glyph-name="uni04D3" unicode="&#x4d3;" horiz-adv-x="729" 
d="M704 227h-299q5 -67 29 -97.5t71 -30.5q59 0 76 58h118q-14 -50 -30 -77.5t-43 -50.5q-50 -43 -125 -43q-57 0 -91.5 19t-65.5 67q-51 -86 -165 -86q-75 0 -115 42t-40 119q0 62 29 102.5t82 51.5l107 22q39 8 49 17t10 34q0 31 -18 45.5t-58 14.5q-37 0 -54 -18t-19 -57
h-112q7 73 32 113q48 74 159 74q82 0 140 -59q34 33 63.5 46t68.5 13q87 0 139 -65q62 -77 62 -229v-25zM299 188v66q-16 -17 -85 -30q-44 -8 -59.5 -23.5t-15.5 -49.5q0 -31 16 -48t45 -17q39 0 69 31t30 71zM586 319q-12 112 -90 112q-38 0 -59 -27t-29 -85h178z" />
    <glyph glyph-name="uni04D4" unicode="&#x4d4;" horiz-adv-x="547" 
d="M417 964q-15 -146 -143 -146q-121 0 -134 146h54q7 -38 26 -53.5t59 -15.5t58.5 15t26.5 54h53zM509 0h-447v718h433v-127h-313v-151h288v-127h-288v-186h327v-127z" />
    <glyph glyph-name="uni04D5" unicode="&#x4d5;" 
d="M365 778q-15 -146 -143 -146q-121 0 -134 146h54q7 -38 26 -53.5t59 -15.5t58.5 15t26.5 54h53zM433 227h-299q5 -67 29 -97.5t71 -30.5q59 0 76 58h118q-14 -50 -30 -77.5t-43 -50.5q-49 -43 -123 -43q-102 0 -157.5 73.5t-55.5 208.5q0 130 55 204t152 74
q100 0 153.5 -76t53.5 -218v-25zM315 319q-12 112 -90 112q-38 0 -59 -27t-29 -85h178z" />
    <glyph glyph-name="uni04D6" unicode="&#x4d6;" horiz-adv-x="592" 
d="M561 361q0 -175 -73.5 -277.5t-199.5 -102.5q-70 0 -125.5 33t-89.5 94q-29 53 -37 127h123q11 -46 29 -76q34 -48 97 -48q71 0 111 66.5t40 184.5q0 115 -39 180t-108 65q-66 0 -102 -56q-16 -26 -28 -79h-123q12 63 26 100t40 72q69 93 189 93q125 0 197.5 -100.5
t72.5 -275.5z" />
    <glyph glyph-name="uni04D7" unicode="&#x4d7;" 
d="M430 259q0 -131 -52 -202t-149 -71q-85 0 -136 53.5t-64 154.5h116q4 -42 25.5 -67.5t54.5 -25.5q87 0 87 164q0 163 -94 163q-31 0 -48.5 -20.5t-25.5 -65.5h-116q7 69 29 110q25 45 68.5 69.5t97.5 24.5q97 0 152 -76t55 -211z" />
    <glyph glyph-name="uni04D8" unicode="&#x4d8;" horiz-adv-x="592" 
d="M208 818h-103v115h103v-115zM368 818h-103v115h103v-115zM561 361q0 -175 -73.5 -277.5t-199.5 -102.5q-70 0 -125.5 33t-89.5 94q-29 53 -37 127h123q11 -46 29 -76q34 -48 97 -48q71 0 111 66.5t40 184.5q0 115 -39 180t-108 65q-66 0 -102 -56q-16 -26 -28 -79h-123
q12 63 26 100t40 72q69 93 189 93q125 0 197.5 -100.5t72.5 -275.5z" />
    <glyph glyph-name="afii10846" unicode="&#x4d9;" 
d="M142 632h-103v115h103v-115zM302 632h-103v115h103v-115zM430 259q0 -131 -52 -202t-149 -71q-85 0 -136 53.5t-64 154.5h116q4 -42 25.5 -67.5t54.5 -25.5q87 0 87 164q0 163 -94 163q-31 0 -48.5 -20.5t-25.5 -65.5h-116q7 69 29 110q25 45 68.5 69.5t97.5 24.5
q97 0 152 -76t55 -211z" />
    <glyph glyph-name="uni04DA" unicode="&#x4da;" horiz-adv-x="878" 
d="M410 818h-103v115h103v-115zM570 818h-103v115h103v-115zM878 0h-158l-220 284v-284h-122v284l-220 -284h-158l292 374l-278 344h159l205 -258v258h122v-258l205 258h159l-278 -344z" />
    <glyph glyph-name="uni04DB" unicode="&#x4db;" horiz-adv-x="684" 
d="M314 632h-103v115h103v-115zM474 632h-103v115h103v-115zM689 0h-138l-152 208v-208h-115l1 208l-152 -208h-138l207 282l-202 250h141l144 -186v186h114v-186l144 186h141l-202 -250z" />
    <glyph glyph-name="uni04DC" unicode="&#x4dc;" horiz-adv-x="547" 
d="M242 818h-103v115h103v-115zM402 818h-103v115h103v-115zM516 214q0 -108 -64 -170.5t-175 -62.5q-159 0 -218 117q-24 49 -27 123h118q7 -117 128 -117q57 0 88.5 24t31.5 68t-24.5 78t-82.5 34h-79v117h108q32 0 47 32t15 70q0 40 -28 63.5t-77 23.5q-55 0 -83 -26
t-35 -83h-118q7 113 66.5 172.5t165.5 59.5q105 0 164.5 -60t59.5 -165q0 -95 -50 -143q69 -48 69 -155z" />
    <glyph glyph-name="uni04DD" unicode="&#x4dd;" 
d="M198 632h-103v115h103v-115zM358 632h-103v115h103v-115zM426 166q0 -84 -52 -132t-142 -48q-92 0 -148 47q-28 23 -41 52.5t-18 84.5h118q3 -77 93 -77q35 0 55 15t20 40q0 29 -16 51.5t-60 23.5l-47 1v92l37 1q33 1 51 14t21.5 26t3.5 32q0 50 -69 50q-38 0 -55 -15
t-23 -54h-113q7 55 20 85t40 52q48 39 131 39q110 0 155 -76q26 -44 26 -101q0 -53 -27 -89l20 -33q20 -31 20 -81z" />
    <glyph glyph-name="uni04DE" unicode="&#x4de;" horiz-adv-x="547" 
d="M516 214q0 -108 -64 -170.5t-175 -62.5q-159 0 -218 117q-24 49 -27 123h118q7 -117 128 -117q57 0 88.5 24t31.5 68t-24.5 78t-82.5 34h-79v117h108q32 0 47 32t15 70q0 40 -28 63.5t-77 23.5q-55 0 -83 -26t-35 -83h-118q7 113 66.5 172.5t165.5 59.5q105 0 164.5 -60
t59.5 -165q0 -95 -50 -143q69 -48 69 -155z" />
    <glyph glyph-name="uni04DF" unicode="&#x4df;" 
d="M426 166q0 -84 -52 -132t-142 -48q-92 0 -148 47q-28 23 -41 52.5t-18 84.5h118q3 -77 93 -77q35 0 55 15t20 40q0 29 -16 51.5t-60 23.5l-47 1v92l37 1q33 1 51 14t21.5 26t3.5 32q0 50 -69 50q-38 0 -55 -15t-23 -54h-113q7 55 20 85t40 52q48 39 131 39q110 0 155 -76
q26 -44 26 -101q0 -53 -27 -89l20 -33q20 -31 20 -81z" />
    <glyph glyph-name="uni04E0" unicode="&#x4e0;" horiz-adv-x="592" 
d="M438 818h-283v73h283v-73zM536 0h-114v504l-236 -504h-129v718h114v-515l243 515h122v-718z" />
    <glyph glyph-name="uni04E1" unicode="&#x4e1;" horiz-adv-x="496" 
d="M392 632h-283v73h283v-73zM448 0h-114v342l-150 -342h-131v532h114v-343l150 343h131v-532z" />
    <glyph glyph-name="uni04E2" unicode="&#x4e2;" horiz-adv-x="592" 
d="M268 818h-103v115h103v-115zM428 818h-103v115h103v-115zM536 0h-114v504l-236 -504h-129v718h114v-515l243 515h122v-718z" />
    <glyph glyph-name="uni04E3" unicode="&#x4e3;" horiz-adv-x="496" 
d="M222 632h-103v115h103v-115zM382 632h-103v115h103v-115zM448 0h-114v342l-150 -342h-131v532h114v-343l150 343h131v-532z" />
    <glyph glyph-name="uni04E4" unicode="&#x4e4;" horiz-adv-x="638" 
d="M290 818h-103v115h103v-115zM450 818h-103v115h103v-115zM602 359q0 -185 -81 -283q-78 -95 -202 -95q-77 0 -141 41t-99 113q-43 91 -43 223q0 186 81 284q78 95 206 95q56 0 108.5 -25.5t89.5 -69.5q81 -98 81 -283zM479 362q0 131 -54 196q-41 52 -104 52
q-76 0 -119 -66.5t-43 -182.5q0 -119 42.5 -186t117.5 -67t117.5 67.5t42.5 186.5z" />
    <glyph glyph-name="uni04E5" unicode="&#x4e5;" horiz-adv-x="501" 
d="M222 632h-103v115h103v-115zM382 632h-103v115h103v-115zM474 265q0 -127 -61 -203t-162 -76t-162 76t-61 203q0 129 61 205t165 76q100 0 160 -77t60 -204zM356 266q0 78 -27 120t-77 42q-106 0 -106 -162q0 -79 27 -120.5t78 -41.5t78 41.5t27 120.5z" />
    <glyph glyph-name="uni04E6" unicode="&#x4e6;" horiz-adv-x="638" 
d="M602 359q0 -185 -81 -283q-78 -95 -202 -95q-77 0 -141 41t-99 113q-43 91 -43 223q0 186 81 284q78 95 206 95q56 0 108.5 -25.5t89.5 -69.5q81 -98 81 -283zM478 397q-8 107 -53 161q-41 52 -104 52q-69 0 -111.5 -56.5t-49.5 -156.5h318zM478 324h-318
q7 -102 48.5 -159t110.5 -57t110.5 57t48.5 159z" />
    <glyph glyph-name="uni04E7" unicode="&#x4e7;" horiz-adv-x="501" 
d="M474 265q0 -127 -61 -203t-162 -76t-162 76t-61 203q0 129 61 205t165 76q100 0 160 -77t60 -204zM354 301q-5 62 -31.5 94.5t-70.5 32.5q-93 0 -105 -127h207zM354 228h-206q12 -124 103 -124t103 124z" />
    <glyph glyph-name="uni04E8" unicode="&#x4e8;" horiz-adv-x="638" 
d="M290 818h-103v115h103v-115zM450 818h-103v115h103v-115zM602 359q0 -185 -81 -283q-78 -95 -202 -95q-77 0 -141 41t-99 113q-43 91 -43 223q0 186 81 284q78 95 206 95q56 0 108.5 -25.5t89.5 -69.5q81 -98 81 -283zM478 397q-8 107 -53 161q-41 52 -104 52
q-69 0 -111.5 -56.5t-49.5 -156.5h318zM478 324h-318q7 -102 48.5 -159t110.5 -57t110.5 57t48.5 159z" />
    <glyph glyph-name="uni04E9" unicode="&#x4e9;" horiz-adv-x="501" 
d="M222 632h-103v115h103v-115zM382 632h-103v115h103v-115zM474 265q0 -127 -61 -203t-162 -76t-162 76t-61 203q0 129 61 205t165 76q100 0 160 -77t60 -204zM354 301q-5 62 -31.5 94.5t-70.5 32.5q-93 0 -105 -127h207zM354 228h-206q12 -124 103 -124t103 124z" />
    <glyph glyph-name="uni04EA" unicode="&#x4ea;" horiz-adv-x="592" 
d="M204 818h-103v115h103v-115zM364 818h-103v115h103v-115zM561 357q0 -175 -72.5 -275.5t-197.5 -100.5q-120 0 -189 93q-26 35 -40 72t-26 100h123q12 -53 28 -79q36 -56 102 -56q62 0 100 53.5t45 148.5h-211v127h207q-13 80 -50.5 123.5t-94.5 43.5q-63 0 -97 -48
q-18 -30 -29 -76h-123q8 74 37 127q34 61 89.5 94t125.5 33q126 0 199.5 -102.5t73.5 -277.5z" />
    <glyph glyph-name="uni04EB" unicode="&#x4eb;" 
d="M138 632h-103v115h103v-115zM298 632h-103v115h103v-115zM430 259q0 -131 -52 -202t-149 -71q-85 0 -136 53.5t-64 154.5h116q4 -42 25.5 -67.5t54.5 -25.5q74 0 85 120h-109v114h105q-16 93 -88 93q-31 0 -48.5 -20.5t-25.5 -65.5h-116q7 69 29 110q25 45 68.5 69.5
t97.5 24.5q97 0 152 -76t55 -211z" />
    <glyph glyph-name="uni04EC" unicode="&#x4ec;" horiz-adv-x="547" 
d="M415 818h-283v73h283v-73zM535 718l-310 -718h-139l128 282l-202 436h145l127 -290l112 290h139z" />
    <glyph glyph-name="uni04ED" unicode="&#x4ed;" 
d="M366 632h-283v73h283v-73zM442 532l-150 -523q-44 -154 -68 -186q-27 -37 -98 -37l-55 2v112q16 -2 24 -2q37 0 51.5 15.5t22.5 64.5l-161 554h128l94 -396l90 396h122z" />
    <glyph glyph-name="uni04EE" unicode="&#x4ee;" horiz-adv-x="547" 
d="M245 818h-103v115h103v-115zM405 818h-103v115h103v-115zM535 718l-310 -718h-139l128 282l-202 436h145l127 -290l112 290h139z" />
    <glyph glyph-name="uni04EF" unicode="&#x4ef;" 
d="M196 632h-103v115h103v-115zM356 632h-103v115h103v-115zM442 532l-150 -523q-44 -154 -68 -186q-27 -37 -98 -37l-55 2v112q16 -2 24 -2q37 0 51.5 15.5t22.5 64.5l-161 554h128l94 -396l90 396h122z" />
    <glyph glyph-name="uni04F0" unicode="&#x4f0;" horiz-adv-x="547" 
d="M281 964l-121 -146h-83l77 146h127zM469 964l-121 -146h-83l77 146h127zM535 718l-310 -718h-139l128 282l-202 436h145l127 -290l112 290h139z" />
    <glyph glyph-name="uni04F1" unicode="&#x4f1;" 
d="M233 778l-121 -146h-83l77 146h127zM421 778l-121 -146h-83l77 146h127zM442 532l-150 -523q-44 -154 -68 -186q-27 -37 -98 -37l-55 2v112q16 -2 24 -2q37 0 51.5 15.5t22.5 64.5l-161 554h128l94 -396l90 396h122z" />
    <glyph glyph-name="uni04F2" unicode="&#x4f2;" horiz-adv-x="562" 
d="M248 797h-103v115h103v-115zM408 797h-103v115h103v-115zM504 0h-123v268q-38 -27 -123 -27q-99 0 -153.5 44.5t-54.5 131.5v301h123v-297q0 -30 35.5 -43.5t73.5 -13.5q30 0 64.5 14.5t34.5 42.5v297h123v-718z" />
    <glyph glyph-name="uni04F3" unicode="&#x4f3;" horiz-adv-x="451" 
d="M190 606h-103v115h103v-115zM350 606h-103v115h103v-115zM403 0h-114v204q-6 -7 -15 -12.5t-16.5 -8t-19.5 -3.5t-19 -1.5t-19.5 0t-15.5 0.5q-55 0 -102 38.5t-47 97.5v217h114v-214q0 -42 69 -42q26 0 48.5 10t22.5 35v211h114v-532z" />
    <glyph glyph-name="uni04F4" unicode="&#x4f4;" horiz-adv-x="728" 
d="M338 818h-103v115h103v-115zM498 818h-103v115h103v-115zM670 0h-123v718h123v-718zM514 223q0 -101 -50 -162t-133 -61h-269v718h123v-260h141q85 0 136.5 -64t51.5 -171zM391 226q0 109 -92 109h-114v-212h98q58 0 83 24t25 79z" />
    <glyph glyph-name="uni04F5" unicode="&#x4f5;" horiz-adv-x="682" 
d="M315 632h-103v115h103v-115zM475 632h-103v115h103v-115zM633 0h-114v532h114v-532zM468 160q0 -67 -51 -112q-31 -28 -70.5 -38t-116.5 -10h-176v532h112v-203h77q29 0 54 -3t42.5 -7.5t33.5 -12.5t25 -14t18.5 -16t13 -14.5t9.5 -14t7 -10.5q22 -33 22 -77zM345 172
q0 56 -89 56h-90v-122h84q48 0 71.5 15t23.5 51z" />
    <glyph glyph-name="uni04F8" unicode="&#x4f8;" horiz-adv-x="384" 
d="M371 418h-204v-418h-114v532h318v-114z" />
    <glyph glyph-name="uni04F9" unicode="&#x4f9;" horiz-adv-x="501" 
d="M483 776q-9 -34 -13 -47t-17 -37.5t-33 -41.5q-8 -7 -15.5 -12.5t-17.5 -10t-16.5 -7.5t-18.5 -6t-17 -4.5t-19.5 -4t-17.5 -3t-19 -2.5t-18 -2q-55 -7 -72 -31q-11 -16 14 -20q2 -1 5 -1h46q100 0 160 -77t60 -204t-61 -203t-162 -76t-162 76t-61 203q3 81 19.5 134.5
t64.5 96.5q-52 26 -46.5 63t32.5 68t53 41q41 16 74 25.5t64 16t39 8.5q9 2 16 6t11 7t8 9.5t5.5 9.5t5.5 12.5t5 13.5h104zM356 266q0 78 -27 120t-77 42q-106 0 -106 -162q0 -79 27 -120.5t78 -41.5t78 41.5t27 120.5z" />
    <glyph glyph-name="baht" unicode="&#xe3f;" horiz-adv-x="592" 
d="M549 216q0 -90 -51 -152q-30 -36 -68.5 -49.5t-112.5 -14.5v-83h-82v83h-173v718h173v83h82v-83h31q85 0 133.5 -50t48.5 -137q0 -53 -17 -87t-55 -57q91 -50 91 -171zM426 225q0 43 -23.5 66.5t-65.5 23.5h-20v-192h14q95 0 95 102zM235 315h-55v-192h55v192zM412 519
q0 76 -91 76h-4v-158h7q42 0 65 21t23 61zM235 595h-55v-158h55v158z" />
    <glyph glyph-name="Ddotbelow" unicode="&#x1e0c;" horiz-adv-x="592" 
d="M562 374q0 -165 -64 -269.5t-181 -104.5h-255v718h260q114 0 177 -90.5t63 -253.5zM437 370q0 225 -137 225h-118v-472h120q64 0 99.5 65t35.5 182zM358 -200h-114v115h114v-115z" />
    <glyph glyph-name="ddotbelow" unicode="&#x1e0d;" horiz-adv-x="501" 
d="M452 0h-112v70q-41 -84 -128 -84q-84 0 -134 77.5t-50 208.5q0 124 50 199t133 75q42 0 71.5 -20t55.5 -66v258h114v-718zM342 260q0 78 -25 121t-71 43q-47 0 -73.5 -42t-26.5 -118q0 -75 26 -119t70 -44q48 0 74 41.5t26 117.5zM309 -200h-114v115h114v-115z" />
    <glyph glyph-name="Dlinebelow" unicode="&#x1e0e;" horiz-adv-x="592" 
d="M562 374q0 -165 -64 -269.5t-181 -104.5h-255v718h260q114 0 177 -90.5t63 -253.5zM437 370q0 225 -137 225h-118v-472h120q64 0 99.5 65t35.5 182zM442 -179h-283v73h283v-73z" />
    <glyph glyph-name="dlinebelow" unicode="&#x1e0f;" horiz-adv-x="501" 
d="M452 0h-112v70q-41 -84 -128 -84q-84 0 -134 77.5t-50 208.5q0 124 50 199t133 75q42 0 71.5 -20t55.5 -66v258h114v-718zM342 260q0 78 -25 121t-71 43q-47 0 -73.5 -42t-26.5 -118q0 -75 26 -119t70 -44q48 0 74 41.5t26 117.5zM392 -179h-283v73h283v-73z" />
    <glyph glyph-name="Hdotbelow" unicode="&#x1e24;" horiz-adv-x="592" 
d="M534 0h-123v323h-230v-323h-123v718h123v-272h230v272h123v-718zM354 -200h-114v115h114v-115z" />
    <glyph glyph-name="hdotbelow" unicode="&#x1e25;" horiz-adv-x="501" 
d="M448 0h-114v323q0 55 -17.5 80t-56.5 25q-43 0 -68 -33t-25 -90v-305h-114v718h114v-259q35 87 131 87q68 0 109 -48.5t41 -129.5v-368zM309 -200h-114v115h114v-115z" />
    <glyph glyph-name="Hdieresis" unicode="&#x1e26;" horiz-adv-x="592" 
d="M534 0h-123v323h-230v-323h-123v718h123v-272h230v272h123v-718zM262 794h-96v115h96v-115zM427 794h-96v115h96v-115z" />
    <glyph glyph-name="hdieresis" unicode="&#x1e27;" horiz-adv-x="501" 
d="M448 0h-114v323q0 55 -17.5 80t-56.5 25q-43 0 -68 -33t-25 -90v-305h-114v718h114v-259q35 87 131 87q68 0 109 -48.5t41 -129.5v-368zM216 794h-96v115h96v-115zM381 794h-96v115h96v-115z" />
    <glyph glyph-name="Hbrevebelow" unicode="&#x1e2a;" horiz-adv-x="592" 
d="M534 0h-123v323h-230v-323h-123v718h123v-272h230v272h123v-718zM444 -80q-33 -126 -153 -126q-113 0 -144 126h54q16 -25 36.5 -37t58.5 -12t57 12t28 37h63z" />
    <glyph glyph-name="hbrevebelow" unicode="&#x1e2b;" horiz-adv-x="501" 
d="M448 0h-114v323q0 55 -17.5 80t-56.5 25q-43 0 -68 -33t-25 -90v-305h-114v718h114v-259q35 87 131 87q68 0 109 -48.5t41 -129.5v-368zM399 -80q-33 -126 -153 -126q-113 0 -144 126h54q16 -25 36.5 -37t58.5 -12t57 12t28 37h63z" />
    <glyph glyph-name="Ldotbelow" unicode="&#x1e36;" horiz-adv-x="501" 
d="M478 0h-416v718h123v-588h293v-130zM328 -200h-114v115h114v-115z" />
    <glyph glyph-name="ldotbelow" unicode="&#x1e37;" horiz-adv-x="228" 
d="M171 0h-114v718h114v-718zM172 -200h-114v115h114v-115z" />
    <glyph glyph-name="Ldotbelowmacron" unicode="&#x1e38;" horiz-adv-x="501" 
d="M478 0h-416v718h123v-588h293v-130zM328 -200h-114v115h114v-115zM265 815h-283v73h283v-73z" />
    <glyph glyph-name="ldotbelowmacron" unicode="&#x1e39;" horiz-adv-x="228" 
d="M171 0h-114v718h114v-718zM172 -200h-114v115h114v-115zM256 815h-283v73h283v-73z" />
    <glyph glyph-name="Mdotbelow" unicode="&#x1e42;" horiz-adv-x="683" 
d="M627 0h-114v609l-112 -609h-121l-109 609v-609h-114v718h179l108 -570l106 570h177v-718zM400 -200h-114v115h114v-115z" />
    <glyph glyph-name="mdotbelow" unicode="&#x1e43;" horiz-adv-x="729" 
d="M677 0h-114v323q0 105 -65 105q-77 0 -77 -109v-319h-114v320q0 60 -15 84t-53 24q-73 0 -73 -104v-324h-114v532h110v-81q20 50 51 72.5t77 22.5q41 0 66.5 -18t51.5 -67q25 46 53 65.5t69 19.5q66 0 106.5 -49t40.5 -129v-368zM423 -200h-114v115h114v-115z" />
    <glyph glyph-name="Ndotaccent" unicode="&#x1e44;" horiz-adv-x="592" 
d="M536 0h-122l-243 515v-515h-114v718h129l236 -504v504h114v-718zM356 794h-114v115h114v-115z" />
    <glyph glyph-name="ndotaccent" unicode="&#x1e45;" horiz-adv-x="501" 
d="M448 0h-114v323q0 55 -17.5 80t-56.5 25q-43 0 -68 -33t-25 -90v-305h-114v532h110v-81q45 95 134 95q69 0 110 -48t41 -130v-368zM309 618h-114v115h114v-115z" />
    <glyph glyph-name="Ndotbelow" unicode="&#x1e46;" horiz-adv-x="592" 
d="M536 0h-122l-243 515v-515h-114v718h129l236 -504v504h114v-718zM355 -200h-114v115h114v-115z" />
    <glyph glyph-name="ndotbelow" unicode="&#x1e47;" horiz-adv-x="501" 
d="M448 0h-114v323q0 55 -17.5 80t-56.5 25q-43 0 -68 -33t-25 -90v-305h-114v532h110v-81q45 95 134 95q69 0 110 -48t41 -130v-368zM309 -200h-114v115h114v-115z" />
    <glyph glyph-name="Rdotaccent" unicode="&#x1e58;" horiz-adv-x="592" 
d="M555 0h-136q-14 64 -14 144q0 65 -10 94t-27 35.5t-59 6.5h-127v-280h-120v718h297q85 0 135.5 -55.5t50.5 -148.5q0 -127 -91 -170q48 -26 61.5 -65t13.5 -151q0 -61 4.5 -81t21.5 -28v-19zM422 498q0 47 -22.5 72t-63.5 25h-154v-193h145q49 0 72 23.5t23 72.5z
M338 794h-114v115h114v-115z" />
    <glyph glyph-name="rdotaccent" unicode="&#x1e59;" horiz-adv-x="319" 
d="M306 402q-16 2 -29 2q-111 0 -111 -127v-277h-114v532h110v-95q26 61 52.5 85t68.5 24q10 0 23 -2v-142zM224 618h-114v115h114v-115z" />
    <glyph glyph-name="Rdotbelow" unicode="&#x1e5a;" horiz-adv-x="592" 
d="M555 0h-136q-14 64 -14 144q0 65 -10 94t-27 35.5t-59 6.5h-127v-280h-120v718h297q85 0 135.5 -55.5t50.5 -148.5q0 -127 -91 -170q48 -26 61.5 -65t13.5 -151q0 -61 4.5 -81t21.5 -28v-19zM422 498q0 47 -22.5 72t-63.5 25h-154v-193h145q49 0 72 23.5t23 72.5z
M337 -200h-114v115h114v-115z" />
    <glyph glyph-name="rdotbelow" unicode="&#x1e5b;" horiz-adv-x="319" 
d="M306 402q-16 2 -29 2q-111 0 -111 -127v-277h-114v532h110v-95q26 61 52.5 85t68.5 24q10 0 23 -2v-142zM167 -200h-114v115h114v-115z" />
    <glyph glyph-name="Rdotbelowmacron" unicode="&#x1e5c;" horiz-adv-x="592" 
d="M555 0h-136q-14 64 -14 144q0 65 -10 94t-27 35.5t-59 6.5h-127v-280h-120v718h297q85 0 135.5 -55.5t50.5 -148.5q0 -127 -91 -170q48 -26 61.5 -65t13.5 -151q0 -61 4.5 -81t21.5 -28v-19zM422 498q0 47 -22.5 72t-63.5 25h-154v-193h145q49 0 72 23.5t23 72.5z
M337 -200h-114v115h114v-115zM421 815h-283v73h283v-73z" />
    <glyph glyph-name="rdotbelowmacron" unicode="&#x1e5d;" horiz-adv-x="319" 
d="M306 402q-16 2 -29 2q-111 0 -111 -127v-277h-114v532h110v-95q26 61 52.5 85t68.5 24q10 0 23 -2v-142zM167 -200h-114v115h114v-115zM307 653h-283v73h283v-73z" />
    <glyph glyph-name="Sdotbelow" unicode="&#x1e62;" horiz-adv-x="547" 
d="M516 214q0 -108 -64 -170.5t-175 -62.5q-114 0 -177.5 61t-67.5 179h118q7 -117 128 -117q57 0 88.5 24t31.5 68q0 35 -22.5 54t-84.5 37l-63 18q-114 32 -150.5 76t-36.5 131q0 105 59.5 165t164.5 60q106 0 165.5 -59.5t66.5 -172.5h-118q-7 57 -35 83t-83 26
q-49 0 -77 -23.5t-28 -63.5q0 -31 14 -48t48 -27l144 -43q82 -25 118 -70t36 -125zM329 -200h-114v115h114v-115z" />
    <glyph glyph-name="sdotbelow" unicode="&#x1e63;" 
d="M426 166q0 -84 -52 -132t-142 -48q-190 0 -207 184h118q3 -77 93 -77q35 0 55 15t20 40q0 40 -95 59q-91 17 -133 56t-42 106q0 82 48.5 129.5t132.5 47.5q87 0 133 -40t58 -136h-113q-6 39 -23 54t-55 15q-69 0 -69 -50q0 -41 94 -58q94 -18 136.5 -59t42.5 -106z
M286 -200h-114v115h114v-115z" />
    <glyph glyph-name="Tdotbelow" unicode="&#x1e6c;" horiz-adv-x="501" 
d="M490 591h-178v-591h-123v591h-178v127h479v-127zM309 -200h-114v115h114v-115z" />
    <glyph glyph-name="tdotbelow" unicode="&#x1e6d;" horiz-adv-x="273" 
d="M253 -4q-39 -2 -55 -2h-15q-63 0 -89.5 26t-26.5 89v323h-59v100h59v144h114v-144h72v-100h-72v-289q0 -28 8.5 -35.5t38.5 -7.5q12 0 25 2v-106zM218 -200h-114v115h114v-115z" />
    <glyph glyph-name="Tlinebelow" unicode="&#x1e6e;" horiz-adv-x="501" 
d="M490 591h-178v-591h-123v591h-178v127h479v-127zM393 -179h-283v73h283v-73z" />
    <glyph glyph-name="tlinebelow" unicode="&#x1e6f;" horiz-adv-x="273" 
d="M253 -4q-39 -2 -55 -2h-15q-63 0 -89.5 26t-26.5 89v323h-59v100h59v144h114v-144h72v-100h-72v-289q0 -28 8.5 -35.5t38.5 -7.5q12 0 25 2v-106zM302 -179h-283v73h283v-73z" />
    <glyph glyph-name="Wgrave" unicode="&#x1e80;" horiz-adv-x="774" 
d="M762 718l-166 -718h-118l-92 565l-67 -423l-25 -142h-114l-167 718h131q80 -418 95 -531l82 531h131l88 -531l97 531h125zM427 788h-78l-125 126h131z" />
    <glyph glyph-name="wgrave" unicode="&#x1e81;" horiz-adv-x="638" 
d="M631 532l-126 -532h-118l-69 393l-69 -393h-118l-123 532h122l69 -387l63 387h115l67 -387l69 387h118zM361 602h-83l-120 146h126z" />
    <glyph glyph-name="Wacute" unicode="&#x1e82;" horiz-adv-x="774" 
d="M762 718l-166 -718h-118l-92 565l-67 -423l-25 -142h-114l-167 718h131q80 -418 95 -531l82 531h131l88 -531l97 531h125zM551 914l-125 -126h-78l72 126h131z" />
    <glyph glyph-name="wacute" unicode="&#x1e83;" horiz-adv-x="638" 
d="M631 532l-126 -532h-118l-69 393l-69 -393h-118l-123 532h122l69 -387l63 387h115l67 -387l69 387h118zM480 748l-120 -146h-83l77 146h126z" />
    <glyph glyph-name="Wdieresis" unicode="&#x1e84;" horiz-adv-x="774" 
d="M762 718l-166 -718h-118l-92 565l-67 -423l-25 -142h-114l-167 718h131q80 -418 95 -531l82 531h131l88 -531l97 531h125zM353 794h-96v115h96v-115zM518 794h-96v115h96v-115z" />
    <glyph glyph-name="wdieresis" unicode="&#x1e85;" horiz-adv-x="638" 
d="M631 532l-126 -532h-118l-69 393l-69 -393h-118l-123 532h122l69 -387l63 387h115l67 -387l69 387h118zM284 618h-96v115h96v-115zM449 618h-96v115h96v-115z" />
    <glyph glyph-name="Zdotbelow" unicode="&#x1e92;" horiz-adv-x="501" 
d="M481 0h-461v127l305 464h-297v127h451v-118l-309 -473h311v-127zM312 -200h-114v115h114v-115z" />
    <glyph glyph-name="zdotbelow" unicode="&#x1e93;" horiz-adv-x="410" 
d="M394 0h-378v109l225 311h-209v112h354v-115l-221 -302h229v-115zM263 -200h-114v115h114v-115z" />
    <glyph glyph-name="tdieresis" unicode="&#x1e97;" horiz-adv-x="273" 
d="M253 -4q-39 -2 -55 -2h-15q-63 0 -89.5 26t-26.5 89v323h-59v100h59v144h114v-144h72v-100h-72v-289q0 -28 8.5 -35.5t38.5 -7.5q12 0 25 2v-106zM90 752h-96v115h96v-115zM255 752h-96v115h96v-115z" />
    <glyph glyph-name="Adotbelow" unicode="&#x1ea0;" horiz-adv-x="592" 
d="M576 0h-134l-38 148h-217l-41 -148h-130l210 718h142zM370 271l-74 288l-76 -288h150zM354 -200h-114v115h114v-115z" />
    <glyph glyph-name="adotbelow" unicode="&#x1ea1;" 
d="M432 0h-123q-7 27 -11 63q-34 -43 -65 -60t-73 -17q-63 0 -99.5 42t-36.5 114q0 70 33.5 114t94.5 55l103 19q40 7 40 44q0 60 -71 60q-37 0 -54 -16.5t-22 -57.5h-110q10 101 55 143.5t136 42.5q85 0 131.5 -40.5t46.5 -113.5v-288q0 -70 25 -83v-21zM295 191v68
q-19 -17 -78 -29q-43 -9 -60.5 -27t-17.5 -52q0 -30 15 -47.5t40 -17.5q42 0 71.5 30.5t29.5 74.5zM287 -200h-114v115h114v-115z" />
    <glyph glyph-name="Ahookabove" unicode="&#x1ea2;" horiz-adv-x="592" 
d="M576 0h-134l-38 148h-217l-41 -148h-130l210 718h142zM370 271l-74 288l-76 -288h150zM413 882q0 -19 -10.5 -32t-39.5 -30q-23 -15 -29 -20t-6 -12v-24h-62v27q0 18 11 30t42 28v-1q32 20 32 34q0 11 -14 18t-37 7q-34 0 -45 -14v1q-7 -8 -7 -35h-61q0 92 116 92
q51 0 80.5 -18.5t29.5 -50.5z" />
    <glyph glyph-name="ahookabove" unicode="&#x1ea3;" 
d="M432 0h-123q-7 27 -11 63q-34 -43 -65 -60t-73 -17q-63 0 -99.5 42t-36.5 114q0 70 33.5 114t94.5 55l103 19q40 7 40 44q0 60 -71 60q-37 0 -54 -16.5t-22 -57.5h-110q10 101 55 143.5t136 42.5q85 0 131.5 -40.5t46.5 -113.5v-288q0 -70 25 -83v-21zM295 191v68
q-19 -17 -78 -29q-43 -9 -60.5 -27t-17.5 -52q0 -30 15 -47.5t40 -17.5q42 0 71.5 30.5t29.5 74.5zM345 696q0 -19 -10.5 -32t-39.5 -30q-23 -15 -29 -20t-6 -12v-24h-62v27q0 18 11 30t42 28v-1q32 20 32 34q0 11 -14 18t-37 7q-34 0 -45 -14v1q-7 -8 -7 -35h-61
q0 92 116 92q51 0 80.5 -18.5t29.5 -50.5z" />
    <glyph glyph-name="Acircumflexacute" unicode="&#x1ea4;" horiz-adv-x="592" 
d="M576 0h-134l-38 148h-217l-41 -148h-130l210 718h142zM370 271l-74 288l-76 -288h150zM461 1060l-125 -126h-78l72 126h131zM452 788h-93l-62 62l-61 -62h-93l103 126h103z" />
    <glyph glyph-name="acircumflexacute" unicode="&#x1ea5;" 
d="M432 0h-123q-7 27 -11 63q-34 -43 -65 -60t-73 -17q-63 0 -99.5 42t-36.5 114q0 70 33.5 114t94.5 55l103 19q40 7 40 44q0 60 -71 60q-37 0 -54 -16.5t-22 -57.5h-110q10 101 55 143.5t136 42.5q85 0 131.5 -40.5t46.5 -113.5v-288q0 -70 25 -83v-21zM295 191v68
q-19 -17 -78 -29q-43 -9 -60.5 -27t-17.5 -52q0 -30 15 -47.5t40 -17.5q42 0 71.5 30.5t29.5 74.5zM393 874l-125 -126h-78l72 126h131zM384 602h-93l-62 62l-61 -62h-93l103 126h103z" />
    <glyph glyph-name="Acircumflexgrave" unicode="&#x1ea6;" horiz-adv-x="592" 
d="M576 0h-134l-38 148h-217l-41 -148h-130l210 718h142zM370 271l-74 288l-76 -288h150zM337 934h-78l-125 126h131zM452 788h-93l-62 62l-61 -62h-93l103 126h103z" />
    <glyph glyph-name="acircumflexgrave" unicode="&#x1ea7;" 
d="M432 0h-123q-7 27 -11 63q-34 -43 -65 -60t-73 -17q-63 0 -99.5 42t-36.5 114q0 70 33.5 114t94.5 55l103 19q40 7 40 44q0 60 -71 60q-37 0 -54 -16.5t-22 -57.5h-110q10 101 55 143.5t136 42.5q85 0 131.5 -40.5t46.5 -113.5v-288q0 -70 25 -83v-21zM295 191v68
q-19 -17 -78 -29q-43 -9 -60.5 -27t-17.5 -52q0 -30 15 -47.5t40 -17.5q42 0 71.5 30.5t29.5 74.5zM269 748h-78l-125 126h131zM384 602h-93l-62 62l-61 -62h-93l103 126h103z" />
    <glyph glyph-name="Acircumflexhookabove" unicode="&#x1ea8;" horiz-adv-x="592" 
d="M576 0h-134l-38 148h-217l-41 -148h-130l210 718h142zM370 271l-74 288l-76 -288h150zM452 1040q0 -17 -10.5 -29t-39.5 -27q-22 -12 -28.5 -17t-6.5 -11v-22h-62v24q0 17 11 27.5t42 25.5v-1q32 17 32 30q0 10 -14 16.5t-37 6.5q-34 0 -45 -13v1q-7 -8 -7 -31h-61
q0 82 116 82q51 0 80.5 -17t29.5 -45zM452 788h-93l-62 62l-61 -62h-93l103 126h103z" />
    <glyph glyph-name="acircumflexhookabove" unicode="&#x1ea9;" 
d="M432 0h-123q-7 27 -11 63q-34 -43 -65 -60t-73 -17q-63 0 -99.5 42t-36.5 114q0 70 33.5 114t94.5 55l103 19q40 7 40 44q0 60 -71 60q-37 0 -54 -16.5t-22 -57.5h-110q10 101 55 143.5t136 42.5q85 0 131.5 -40.5t46.5 -113.5v-288q0 -70 25 -83v-21zM295 191v68
q-19 -17 -78 -29q-43 -9 -60.5 -27t-17.5 -52q0 -30 15 -47.5t40 -17.5q42 0 71.5 30.5t29.5 74.5zM384 854q0 -17 -10.5 -29t-39.5 -27q-22 -12 -28.5 -17t-6.5 -11v-22h-62v24q0 17 11 27.5t42 25.5v-1q32 17 32 30q0 10 -14 16.5t-37 6.5q-34 0 -45 -13v1q-7 -8 -7 -31
h-61q0 82 116 82q51 0 80.5 -17t29.5 -45zM384 602h-93l-62 62l-61 -62h-93l103 126h103z" />
    <glyph glyph-name="Acircumflextilde" unicode="&#x1eaa;" horiz-adv-x="592" 
d="M576 0h-134l-38 148h-217l-41 -148h-130l210 718h142zM370 271l-74 288l-76 -288h150zM448 1071q-20 -120 -88 -120q-11 0 -62 18t-61 18q-29 0 -38 -43h-52q21 123 99 123q6 0 55.5 -18t54.5 -18q29 0 39 40h53zM452 788h-93l-62 62l-61 -62h-93l103 126h103z" />
    <glyph glyph-name="acircumflextilde" unicode="&#x1eab;" 
d="M432 0h-123q-7 27 -11 63q-34 -43 -65 -60t-73 -17q-63 0 -99.5 42t-36.5 114q0 70 33.5 114t94.5 55l103 19q40 7 40 44q0 60 -71 60q-37 0 -54 -16.5t-22 -57.5h-110q10 101 55 143.5t136 42.5q85 0 131.5 -40.5t46.5 -113.5v-288q0 -70 25 -83v-21zM295 191v68
q-19 -17 -78 -29q-43 -9 -60.5 -27t-17.5 -52q0 -30 15 -47.5t40 -17.5q42 0 71.5 30.5t29.5 74.5zM380 885q-20 -120 -88 -120q-11 0 -62 18t-61 18q-29 0 -38 -43h-52q21 123 99 123q6 0 55.5 -18t54.5 -18q29 0 39 40h53zM384 602h-93l-62 62l-61 -62h-93l103 126h103z
" />
    <glyph glyph-name="Acircumflexdotbelow" unicode="&#x1eac;" horiz-adv-x="592" 
d="M576 0h-134l-38 148h-217l-41 -148h-130l210 718h142zM370 271l-74 288l-76 -288h150zM451 788h-93l-62 62l-61 -62h-93l103 126h103zM354 -200h-114v115h114v-115z" />
    <glyph glyph-name="acircumflexdotbelow" unicode="&#x1ead;" 
d="M432 0h-123q-7 27 -11 63q-34 -43 -65 -60t-73 -17q-63 0 -99.5 42t-36.5 114q0 70 33.5 114t94.5 55l103 19q40 7 40 44q0 60 -71 60q-37 0 -54 -16.5t-22 -57.5h-110q10 101 55 143.5t136 42.5q85 0 131.5 -40.5t46.5 -113.5v-288q0 -70 25 -83v-21zM295 191v68
q-19 -17 -78 -29q-43 -9 -60.5 -27t-17.5 -52q0 -30 15 -47.5t40 -17.5q42 0 71.5 30.5t29.5 74.5zM373 602h-93l-52 82l-51 -82h-93l93 146h103zM287 -200h-114v115h114v-115z" />
    <glyph glyph-name="Abreveacute" unicode="&#x1eae;" horiz-adv-x="592" 
d="M576 0h-134l-38 148h-217l-41 -148h-130l210 718h142zM370 271l-74 288l-76 -288h150zM461 1069l-125 -126h-78l72 126h131zM446 914q-33 -126 -153 -126q-113 0 -144 126h54q16 -25 36.5 -37t58.5 -12t57 12t28 37h63z" />
    <glyph glyph-name="abreveacute" unicode="&#x1eaf;" 
d="M432 0h-123q-7 27 -11 63q-34 -43 -65 -60t-73 -17q-63 0 -99.5 42t-36.5 114q0 70 33.5 114t94.5 55l103 19q40 7 40 44q0 60 -71 60q-37 0 -54 -16.5t-22 -57.5h-110q10 101 55 143.5t136 42.5q85 0 131.5 -40.5t46.5 -113.5v-288q0 -70 25 -83v-21zM295 191v68
q-19 -17 -78 -29q-43 -9 -60.5 -27t-17.5 -52q0 -30 15 -47.5t40 -17.5q42 0 71.5 30.5t29.5 74.5zM393 883l-125 -126h-78l72 126h131zM378 728q-33 -126 -153 -126q-113 0 -144 126h54q16 -25 36.5 -37t58.5 -12t57 12t28 37h63z" />
    <glyph glyph-name="Abrevegrave" unicode="&#x1eb0;" horiz-adv-x="592" 
d="M576 0h-134l-38 148h-217l-41 -148h-130l210 718h142zM370 271l-74 288l-76 -288h150zM337 943h-78l-125 126h131zM446 914q-33 -126 -153 -126q-113 0 -144 126h54q16 -25 36.5 -37t58.5 -12t57 12t28 37h63z" />
    <glyph glyph-name="abrevegrave" unicode="&#x1eb1;" 
d="M432 0h-123q-7 27 -11 63q-34 -43 -65 -60t-73 -17q-63 0 -99.5 42t-36.5 114q0 70 33.5 114t94.5 55l103 19q40 7 40 44q0 60 -71 60q-37 0 -54 -16.5t-22 -57.5h-110q10 101 55 143.5t136 42.5q85 0 131.5 -40.5t46.5 -113.5v-288q0 -70 25 -83v-21zM295 191v68
q-19 -17 -78 -29q-43 -9 -60.5 -27t-17.5 -52q0 -30 15 -47.5t40 -17.5q42 0 71.5 30.5t29.5 74.5zM269 757h-78l-125 126h131zM378 728q-33 -126 -153 -126q-113 0 -144 126h54q16 -25 36.5 -37t58.5 -12t57 12t28 37h63z" />
    <glyph glyph-name="Abrevehookabove" unicode="&#x1eb2;" horiz-adv-x="592" 
d="M576 0h-134l-38 148h-217l-41 -148h-130l210 718h142zM370 271l-74 288l-76 -288h150zM411 1010q0 -17 -10.5 -29t-39.5 -27q-22 -12 -28.5 -17t-6.5 -11v-22h-62v24q0 17 11 27.5t42 25.5v-1q32 17 32 30q0 10 -14 16.5t-37 6.5q-34 0 -45 -13v1q-7 -8 -7 -31h-61
q0 82 116 82q51 0 80.5 -17t29.5 -45zM446 914q-33 -126 -153 -126q-113 0 -144 126h54q16 -25 36.5 -37t58.5 -12t57 12t28 37h63z" />
    <glyph glyph-name="abrevehookabove" unicode="&#x1eb3;" 
d="M432 0h-123q-7 27 -11 63q-34 -43 -65 -60t-73 -17q-63 0 -99.5 42t-36.5 114q0 70 33.5 114t94.5 55l103 19q40 7 40 44q0 60 -71 60q-37 0 -54 -16.5t-22 -57.5h-110q10 101 55 143.5t136 42.5q85 0 131.5 -40.5t46.5 -113.5v-288q0 -70 25 -83v-21zM295 191v68
q-19 -17 -78 -29q-43 -9 -60.5 -27t-17.5 -52q0 -30 15 -47.5t40 -17.5q42 0 71.5 30.5t29.5 74.5zM343 824q0 -17 -10.5 -29t-39.5 -27q-23 -12 -29 -17t-6 -11v-22h-62v24q0 17 11 27.5t42 25.5v-1q32 17 32 30q0 10 -14 16.5t-37 6.5q-34 0 -45 -13v1q-7 -8 -7 -31h-61
q0 82 116 82q51 0 80.5 -17t29.5 -45zM378 728q-33 -126 -153 -126q-113 0 -144 126h54q16 -25 36.5 -37t58.5 -12t57 12t28 37h63z" />
    <glyph glyph-name="Abrevetilde" unicode="&#x1eb4;" horiz-adv-x="592" 
d="M576 0h-134l-38 148h-217l-41 -148h-130l210 718h142zM370 271l-74 288l-76 -288h150zM448 1079q-20 -120 -88 -120q-11 0 -62 18t-61 18q-29 0 -38 -43h-52q21 123 99 123q6 0 55.5 -18t54.5 -18q29 0 39 40h53zM446 914q-33 -126 -153 -126q-113 0 -144 126h54
q16 -25 36.5 -37t58.5 -12t57 12t28 37h63z" />
    <glyph glyph-name="abrevetilde" unicode="&#x1eb5;" 
d="M432 0h-123q-7 27 -11 63q-34 -43 -65 -60t-73 -17q-63 0 -99.5 42t-36.5 114q0 70 33.5 114t94.5 55l103 19q40 7 40 44q0 60 -71 60q-37 0 -54 -16.5t-22 -57.5h-110q10 101 55 143.5t136 42.5q85 0 131.5 -40.5t46.5 -113.5v-288q0 -70 25 -83v-21zM295 191v68
q-19 -17 -78 -29q-43 -9 -60.5 -27t-17.5 -52q0 -30 15 -47.5t40 -17.5q42 0 71.5 30.5t29.5 74.5zM380 893q-20 -120 -88 -120q-11 0 -62 18t-61 18q-29 0 -38 -43h-52q21 123 99 123q6 0 55.5 -18t54.5 -18q29 0 39 40h53zM378 728q-33 -126 -153 -126q-113 0 -144 126h54
q16 -25 36.5 -37t58.5 -12t57 12t28 37h63z" />
    <glyph glyph-name="Abrevedotbelow" unicode="&#x1eb6;" horiz-adv-x="592" 
d="M576 0h-134l-38 148h-217l-41 -148h-130l210 718h142zM370 271l-74 288l-76 -288h150zM445 914q-33 -126 -153 -126q-113 0 -144 126h54q16 -25 36.5 -37t58.5 -12t57 12t28 37h63zM354 -200h-114v115h114v-115z" />
    <glyph glyph-name="abrevedotbelow" unicode="&#x1eb7;" 
d="M432 0h-123q-7 27 -11 63q-34 -43 -65 -60t-73 -17q-63 0 -99.5 42t-36.5 114q0 70 33.5 114t94.5 55l103 19q40 7 40 44q0 60 -71 60q-37 0 -54 -16.5t-22 -57.5h-110q10 101 55 143.5t136 42.5q85 0 131.5 -40.5t46.5 -113.5v-288q0 -70 25 -83v-21zM295 191v68
q-19 -17 -78 -29q-43 -9 -60.5 -27t-17.5 -52q0 -30 15 -47.5t40 -17.5q42 0 71.5 30.5t29.5 74.5zM367 748q-15 -146 -143 -146q-121 0 -134 146h54q7 -38 26 -53.5t59 -15.5t58.5 15t26.5 54h53zM287 -200h-114v115h114v-115z" />
    <glyph glyph-name="Edotbelow" unicode="&#x1eb8;" horiz-adv-x="547" 
d="M509 0h-447v718h433v-127h-313v-151h288v-127h-288v-186h327v-127zM332 -200h-114v115h114v-115z" />
    <glyph glyph-name="edotbelow" unicode="&#x1eb9;" 
d="M433 227h-299q5 -67 29 -97.5t71 -30.5q59 0 76 58h118q-49 -171 -196 -171q-102 0 -157.5 73.5t-55.5 208.5q0 130 55 204t152 74q100 0 153.5 -76t53.5 -218v-25zM315 319q-12 112 -90 112q-38 0 -59 -27t-29 -85h178zM286 -200h-114v115h114v-115z" />
    <glyph glyph-name="Ehookabove" unicode="&#x1eba;" horiz-adv-x="547" 
d="M509 0h-447v718h433v-127h-313v-151h288v-127h-288v-186h327v-127zM395 882q0 -19 -10.5 -32t-39.5 -30q-23 -15 -29 -20t-6 -12v-24h-62v27q0 18 11 30t42 28v-1q32 20 32 34q0 11 -14 18t-37 7q-34 0 -45 -14v1q-7 -8 -7 -35h-61q0 92 116 92q51 0 80.5 -18.5
t29.5 -50.5z" />
    <glyph glyph-name="ehookabove" unicode="&#x1ebb;" 
d="M433 227h-299q5 -67 29 -97.5t71 -30.5q59 0 76 58h118q-49 -171 -196 -171q-102 0 -157.5 73.5t-55.5 208.5q0 130 55 204t152 74q100 0 153.5 -76t53.5 -218v-25zM315 319q-12 112 -90 112q-38 0 -59 -27t-29 -85h178zM344 696q0 -19 -10.5 -32t-39.5 -30
q-23 -15 -29 -20t-6 -12v-24h-62v27q0 18 11 30t42 28v-1q32 20 32 34q0 11 -14 18t-37 7q-34 0 -45 -14v1q-7 -8 -7 -35h-61q0 92 116 92q51 0 80.5 -18.5t29.5 -50.5z" />
    <glyph glyph-name="Etilde" unicode="&#x1ebc;" horiz-adv-x="547" 
d="M509 0h-447v718h433v-127h-313v-151h288v-127h-288v-186h327v-127zM430 915q-20 -120 -88 -120q-11 0 -62 18t-61 18q-29 0 -38 -43h-52q21 123 99 123q6 0 55.5 -18t54.5 -18q29 0 39 40h53z" />
    <glyph glyph-name="etilde" unicode="&#x1ebd;" 
d="M433 227h-299q5 -67 29 -97.5t71 -30.5q59 0 76 58h118q-49 -171 -196 -171q-102 0 -157.5 73.5t-55.5 208.5q0 130 55 204t152 74q100 0 153.5 -76t53.5 -218v-25zM315 319q-12 112 -90 112q-38 0 -59 -27t-29 -85h178zM378 739q-20 -120 -88 -120q-11 0 -62 18t-61 18
q-29 0 -38 -43h-52q21 123 99 123q6 0 55.5 -18t54.5 -18q29 0 39 40h53z" />
    <glyph glyph-name="Ecircumflexacute" unicode="&#x1ebe;" horiz-adv-x="547" 
d="M509 0h-447v718h433v-127h-313v-151h288v-127h-288v-186h327v-127zM443 1060l-125 -126h-78l72 126h131zM434 788h-93l-62 62l-61 -62h-93l103 126h103z" />
    <glyph glyph-name="ecircumflexacute" unicode="&#x1ebf;" 
d="M433 227h-299q5 -67 29 -97.5t71 -30.5q59 0 76 58h118q-49 -171 -196 -171q-102 0 -157.5 73.5t-55.5 208.5q0 130 55 204t152 74q100 0 153.5 -76t53.5 -218v-25zM315 319q-12 112 -90 112q-38 0 -59 -27t-29 -85h178zM392 874l-125 -126h-78l72 126h131zM383 602h-93
l-62 62l-61 -62h-93l103 126h103z" />
    <glyph glyph-name="Ecircumflexgrave" unicode="&#x1ec0;" horiz-adv-x="547" 
d="M509 0h-447v718h433v-127h-313v-151h288v-127h-288v-186h327v-127zM319 934h-78l-125 126h131zM434 788h-93l-62 62l-61 -62h-93l103 126h103z" />
    <glyph glyph-name="ecircumflexgrave" unicode="&#x1ec1;" 
d="M433 227h-299q5 -67 29 -97.5t71 -30.5q59 0 76 58h118q-49 -171 -196 -171q-102 0 -157.5 73.5t-55.5 208.5q0 130 55 204t152 74q100 0 153.5 -76t53.5 -218v-25zM315 319q-12 112 -90 112q-38 0 -59 -27t-29 -85h178zM268 748h-78l-125 126h131zM383 602h-93l-62 62
l-61 -62h-93l103 126h103z" />
    <glyph glyph-name="Ecircumflexhookabove" unicode="&#x1ec2;" horiz-adv-x="547" 
d="M509 0h-447v718h433v-127h-313v-151h288v-127h-288v-186h327v-127zM434 1040q0 -17 -10.5 -29t-39.5 -27q-22 -12 -28.5 -17t-6.5 -11v-22h-62v24q0 17 11 27.5t42 25.5v-1q32 17 32 30q0 10 -14 16.5t-37 6.5q-34 0 -45 -13v1q-7 -8 -7 -31h-61q0 82 116 82
q51 0 80.5 -17t29.5 -45zM434 788h-93l-62 62l-61 -62h-93l103 126h103z" />
    <glyph glyph-name="ecircumflexhookabove" unicode="&#x1ec3;" 
d="M433 227h-299q5 -67 29 -97.5t71 -30.5q59 0 76 58h118q-49 -171 -196 -171q-102 0 -157.5 73.5t-55.5 208.5q0 130 55 204t152 74q100 0 153.5 -76t53.5 -218v-25zM315 319q-12 112 -90 112q-38 0 -59 -27t-29 -85h178zM383 854q0 -17 -10.5 -29t-39.5 -27
q-23 -12 -29 -17t-6 -11v-22h-62v24q0 17 11 27.5t42 25.5v-1q32 17 32 30q0 10 -14 16.5t-37 6.5q-34 0 -45 -13v1q-7 -8 -7 -31h-61q0 82 116 82q51 0 80.5 -17t29.5 -45zM383 602h-93l-62 62l-61 -62h-93l103 126h103z" />
    <glyph glyph-name="Ecircumflextilde" unicode="&#x1ec4;" horiz-adv-x="547" 
d="M509 0h-447v718h433v-127h-313v-151h288v-127h-288v-186h327v-127zM430 1071q-20 -120 -88 -120q-11 0 -62 18t-61 18q-29 0 -38 -43h-52q21 123 99 123q6 0 55.5 -18t54.5 -18q29 0 39 40h53zM434 788h-93l-62 62l-61 -62h-93l103 126h103z" />
    <glyph glyph-name="ecircumflextilde" unicode="&#x1ec5;" 
d="M433 227h-299q5 -67 29 -97.5t71 -30.5q59 0 76 58h118q-49 -171 -196 -171q-102 0 -157.5 73.5t-55.5 208.5q0 130 55 204t152 74q100 0 153.5 -76t53.5 -218v-25zM315 319q-12 112 -90 112q-38 0 -59 -27t-29 -85h178zM379 885q-19 -120 -88 -120q-11 0 -62 18t-61 18
q-29 0 -38 -43h-52q20 123 99 123q6 0 55.5 -18t54.5 -18q29 0 39 40h53zM383 602h-93l-62 62l-61 -62h-93l103 126h103z" />
    <glyph glyph-name="Ecircumflexdotbelow" unicode="&#x1ec6;" horiz-adv-x="547" 
d="M509 0h-447v718h433v-127h-313v-151h288v-127h-288v-186h327v-127zM433 788h-93l-62 62l-61 -62h-93l103 126h103zM332 -200h-114v115h114v-115z" />
    <glyph glyph-name="ecircumflexdotbelow" unicode="&#x1ec7;" 
d="M433 227h-299q5 -67 29 -97.5t71 -30.5q59 0 76 58h118q-49 -171 -196 -171q-102 0 -157.5 73.5t-55.5 208.5q0 130 55 204t152 74q100 0 153.5 -76t53.5 -218v-25zM315 319q-12 112 -90 112q-38 0 -59 -27t-29 -85h178zM372 602h-93l-52 82l-51 -82h-93l93 146h103z
M286 -200h-114v115h114v-115z" />
    <glyph glyph-name="Ihookabove" unicode="&#x1ec8;" horiz-adv-x="228" 
d="M175 0h-123v718h123v-718zM230 882q0 -19 -10.5 -32t-39.5 -30q-23 -15 -29 -20t-6 -12v-24h-62v27q0 18 11 30t42 28v-1q32 20 32 34q0 11 -14 18t-37 7q-34 0 -45 -14v1q-7 -8 -7 -35h-61q0 92 116 92q51 0 80.5 -18.5t29.5 -50.5z" />
    <glyph glyph-name="ihookabove" unicode="&#x1ec9;" horiz-adv-x="228" 
d="M171 0h-114v532h114v-532zM230 696q0 -19 -10.5 -32t-39.5 -30q-23 -15 -29 -20t-6 -12v-24h-62v27q0 18 11 30t42 28v-1q32 20 32 34q0 11 -14 18t-37 7q-34 0 -45 -14v1q-7 -8 -7 -35h-61q0 92 116 92q51 0 80.5 -18.5t29.5 -50.5z" />
    <glyph glyph-name="Idotbelow" unicode="&#x1eca;" horiz-adv-x="228" 
d="M175 0h-123v718h123v-718zM172 -200h-114v115h114v-115z" />
    <glyph glyph-name="idotbelow" unicode="&#x1ecb;" horiz-adv-x="228" 
d="M171 0h-114v532h114v-532zM172 618h-114v115h114v-115zM172 -200h-114v115h114v-115z" />
    <glyph glyph-name="Odotbelow" unicode="&#x1ecc;" horiz-adv-x="638" 
d="M602 359q0 -177 -77 -277.5t-206 -100.5q-130 0 -206.5 101t-76.5 276q0 179 77.5 279t209.5 100q125 0 202 -101t77 -277zM479 362q0 113 -43 180.5t-115 67.5q-76 0 -119 -66.5t-43 -182.5q0 -119 42.5 -186t117.5 -67t117.5 67.5t42.5 186.5zM381 -200h-114v115h114
v-115z" />
    <glyph glyph-name="odotbelow" unicode="&#x1ecd;" horiz-adv-x="501" 
d="M474 265q0 -127 -61 -203t-162 -76t-162 76t-61 203q0 129 61 205t165 76q100 0 160 -77t60 -204zM356 266q0 78 -27 120t-77 42q-106 0 -106 -162q0 -79 27 -120.5t78 -41.5t78 41.5t27 120.5zM309 -200h-114v115h114v-115z" />
    <glyph glyph-name="Ohookabove" unicode="&#x1ece;" horiz-adv-x="638" 
d="M602 359q0 -177 -77 -277.5t-206 -100.5q-130 0 -206.5 101t-76.5 276q0 179 77.5 279t209.5 100q125 0 202 -101t77 -277zM479 362q0 113 -43 180.5t-115 67.5q-76 0 -119 -66.5t-43 -182.5q0 -119 42.5 -186t117.5 -67t117.5 67.5t42.5 186.5zM439 882q0 -19 -10.5 -32
t-39.5 -30q-23 -15 -29 -20t-6 -12v-24h-62v27q0 18 11 30t42 28v-1q32 20 32 34q0 11 -14 18t-37 7q-34 0 -45 -14v1q-7 -8 -7 -35h-61q0 92 116 92q51 0 80.5 -18.5t29.5 -50.5z" />
    <glyph glyph-name="ohookabove" unicode="&#x1ecf;" horiz-adv-x="501" 
d="M474 265q0 -127 -61 -203t-162 -76t-162 76t-61 203q0 129 61 205t165 76q100 0 160 -77t60 -204zM356 266q0 78 -27 120t-77 42q-106 0 -106 -162q0 -79 27 -120.5t78 -41.5t78 41.5t27 120.5zM367 696q0 -19 -10.5 -32t-39.5 -30q-23 -15 -29 -20t-6 -12v-24h-62v27
q0 18 11 30t42 28v-1q32 20 32 34q0 11 -14 18t-37 7q-34 0 -45 -14v1q-7 -8 -7 -35h-61q0 92 116 92q51 0 80.5 -18.5t29.5 -50.5z" />
    <glyph glyph-name="Ocircumflexacute" unicode="&#x1ed0;" horiz-adv-x="638" 
d="M602 359q0 -177 -77 -277.5t-206 -100.5q-130 0 -206.5 101t-76.5 276q0 179 77.5 279t209.5 100q125 0 202 -101t77 -277zM479 362q0 113 -43 180.5t-115 67.5q-76 0 -119 -66.5t-43 -182.5q0 -119 42.5 -186t117.5 -67t117.5 67.5t42.5 186.5zM487 1060l-125 -126h-78
l72 126h131zM478 788h-93l-62 62l-61 -62h-93l103 126h103z" />
    <glyph glyph-name="ocircumflexacute" unicode="&#x1ed1;" horiz-adv-x="501" 
d="M474 265q0 -127 -61 -203t-162 -76t-162 76t-61 203q0 129 61 205t165 76q100 0 160 -77t60 -204zM356 266q0 78 -27 120t-77 42q-106 0 -106 -162q0 -79 27 -120.5t78 -41.5t78 41.5t27 120.5zM414 874l-125 -126h-78l72 126h131zM405 602h-93l-62 62l-61 -62h-93
l103 126h103z" />
    <glyph glyph-name="Ocircumflexgrave" unicode="&#x1ed2;" horiz-adv-x="638" 
d="M602 359q0 -177 -77 -277.5t-206 -100.5q-130 0 -206.5 101t-76.5 276q0 179 77.5 279t209.5 100q125 0 202 -101t77 -277zM479 362q0 113 -43 180.5t-115 67.5q-76 0 -119 -66.5t-43 -182.5q0 -119 42.5 -186t117.5 -67t117.5 67.5t42.5 186.5zM363 934h-78l-125 126
h131zM478 788h-93l-62 62l-61 -62h-93l103 126h103z" />
    <glyph glyph-name="ocircumflexgrave" unicode="&#x1ed3;" horiz-adv-x="501" 
d="M474 265q0 -127 -61 -203t-162 -76t-162 76t-61 203q0 129 61 205t165 76q100 0 160 -77t60 -204zM356 266q0 78 -27 120t-77 42q-106 0 -106 -162q0 -79 27 -120.5t78 -41.5t78 41.5t27 120.5zM290 748h-78l-125 126h131zM405 602h-93l-62 62l-61 -62h-93l103 126h103z
" />
    <glyph glyph-name="Ocircumflexhookabove" unicode="&#x1ed4;" horiz-adv-x="638" 
d="M602 359q0 -177 -77 -277.5t-206 -100.5q-130 0 -206.5 101t-76.5 276q0 179 77.5 279t209.5 100q125 0 202 -101t77 -277zM479 362q0 113 -43 180.5t-115 67.5q-76 0 -119 -66.5t-43 -182.5q0 -119 42.5 -186t117.5 -67t117.5 67.5t42.5 186.5zM478 1040
q0 -17 -10.5 -29t-39.5 -27q-22 -12 -28.5 -17t-6.5 -11v-22h-62v24q0 17 11 27.5t42 25.5v-1q32 17 32 30q0 10 -14 16.5t-37 6.5q-34 0 -45 -13v1q-7 -8 -7 -31h-61q0 82 116 82q51 0 80.5 -17t29.5 -45zM478 788h-93l-62 62l-61 -62h-93l103 126h103z" />
    <glyph glyph-name="ocircumflexhookabove" unicode="&#x1ed5;" horiz-adv-x="501" 
d="M474 265q0 -127 -61 -203t-162 -76t-162 76t-61 203q0 129 61 205t165 76q100 0 160 -77t60 -204zM356 266q0 78 -27 120t-77 42q-106 0 -106 -162q0 -79 27 -120.5t78 -41.5t78 41.5t27 120.5zM405 854q0 -17 -10.5 -29t-39.5 -27q-23 -12 -29 -17t-6 -11v-22h-62v24
q0 17 11 27.5t42 25.5v-1q32 17 32 30q0 10 -14 16.5t-37 6.5q-34 0 -45 -13v1q-7 -8 -7 -31h-61q0 82 116 82q51 0 80.5 -17t29.5 -45zM405 602h-93l-62 62l-61 -62h-93l103 126h103z" />
    <glyph glyph-name="Ocircumflextilde" unicode="&#x1ed6;" horiz-adv-x="638" 
d="M602 359q0 -177 -77 -277.5t-206 -100.5q-130 0 -206.5 101t-76.5 276q0 179 77.5 279t209.5 100q125 0 202 -101t77 -277zM479 362q0 113 -43 180.5t-115 67.5q-76 0 -119 -66.5t-43 -182.5q0 -119 42.5 -186t117.5 -67t117.5 67.5t42.5 186.5zM474 1071
q-20 -120 -88 -120q-11 0 -62 18t-61 18q-29 0 -38 -43h-52q21 123 99 123q6 0 55.5 -18t54.5 -18q29 0 39 40h53zM478 788h-93l-62 62l-61 -62h-93l103 126h103z" />
    <glyph glyph-name="ocircumflextilde" unicode="&#x1ed7;" horiz-adv-x="501" 
d="M474 265q0 -127 -61 -203t-162 -76t-162 76t-61 203q0 129 61 205t165 76q100 0 160 -77t60 -204zM356 266q0 78 -27 120t-77 42q-106 0 -106 -162q0 -79 27 -120.5t78 -41.5t78 41.5t27 120.5zM401 885q-20 -120 -88 -120q-11 0 -62 18t-61 18q-29 0 -38 -43h-52
q20 123 99 123q6 0 55.5 -18t54.5 -18q29 0 39 40h53zM405 602h-93l-62 62l-61 -62h-93l103 126h103z" />
    <glyph glyph-name="Ocircumflexdotbelow" unicode="&#x1ed8;" horiz-adv-x="638" 
d="M602 359q0 -177 -77 -277.5t-206 -100.5q-130 0 -206.5 101t-76.5 276q0 179 77.5 279t209.5 100q125 0 202 -101t77 -277zM479 362q0 113 -43 180.5t-115 67.5q-76 0 -119 -66.5t-43 -182.5q0 -119 42.5 -186t117.5 -67t117.5 67.5t42.5 186.5zM477 788h-93l-62 62
l-61 -62h-93l103 126h103zM381 -200h-114v115h114v-115z" />
    <glyph glyph-name="ocircumflexdotbelow" unicode="&#x1ed9;" horiz-adv-x="501" 
d="M474 265q0 -127 -61 -203t-162 -76t-162 76t-61 203q0 129 61 205t165 76q100 0 160 -77t60 -204zM356 266q0 78 -27 120t-77 42q-106 0 -106 -162q0 -79 27 -120.5t78 -41.5t78 41.5t27 120.5zM395 602h-93l-52 82l-51 -82h-93l93 146h103zM309 -200h-114v115h114v-115z
" />
    <glyph glyph-name="Ohornacute" unicode="&#x1eda;" horiz-adv-x="638" 
d="M603 719q0 -86 -44 -141q43 -89 43 -219q0 -177 -77 -277.5t-206 -100.5q-130 0 -206.5 101t-76.5 276q0 179 77.5 279t209.5 100q128 0 204 -104q19 34 19 86h-57v115h114v-115zM479 362q0 113 -43 180.5t-115 67.5q-76 0 -119 -66.5t-43 -182.5q0 -119 42.5 -186
t117.5 -67t117.5 67.5t42.5 186.5zM487 914l-125 -126h-78l72 126h131z" />
    <glyph glyph-name="ohornacute" unicode="&#x1edb;" horiz-adv-x="512" 
d="M493 533q0 -82 -40 -136q21 -57 21 -132q0 -127 -61 -203t-162 -76t-162 76t-61 203q0 129 61 205t165 76q109 0 168 -89q14 31 14 76h-57v115h114v-115zM356 266q0 78 -27 120t-77 42q-106 0 -106 -162q0 -79 27 -120.5t78 -41.5t78 41.5t27 120.5zM412 748l-120 -146
h-83l77 146h126z" />
    <glyph glyph-name="Ohorngrave" unicode="&#x1edc;" horiz-adv-x="638" 
d="M603 719q0 -86 -44 -141q43 -89 43 -219q0 -177 -77 -277.5t-206 -100.5q-130 0 -206.5 101t-76.5 276q0 179 77.5 279t209.5 100q128 0 204 -104q19 34 19 86h-57v115h114v-115zM479 362q0 113 -43 180.5t-115 67.5q-76 0 -119 -66.5t-43 -182.5q0 -119 42.5 -186
t117.5 -67t117.5 67.5t42.5 186.5zM363 788h-78l-125 126h131z" />
    <glyph glyph-name="ohorngrave" unicode="&#x1edd;" horiz-adv-x="512" 
d="M493 533q0 -82 -40 -136q21 -57 21 -132q0 -127 -61 -203t-162 -76t-162 76t-61 203q0 129 61 205t165 76q109 0 168 -89q14 31 14 76h-57v115h114v-115zM356 266q0 78 -27 120t-77 42q-106 0 -106 -162q0 -79 27 -120.5t78 -41.5t78 41.5t27 120.5zM292 602h-83
l-120 146h126z" />
    <glyph glyph-name="Ohornhookabove" unicode="&#x1ede;" horiz-adv-x="638" 
d="M603 719q0 -86 -44 -141q43 -89 43 -219q0 -177 -77 -277.5t-206 -100.5q-130 0 -206.5 101t-76.5 276q0 179 77.5 279t209.5 100q128 0 204 -104q19 34 19 86h-57v115h114v-115zM479 362q0 113 -43 180.5t-115 67.5q-76 0 -119 -66.5t-43 -182.5q0 -119 42.5 -186
t117.5 -67t117.5 67.5t42.5 186.5zM439 882q0 -19 -10.5 -32t-39.5 -30q-23 -15 -29 -20t-6 -12v-24h-62v27q0 18 11 30t42 28v-1q32 20 32 34q0 11 -14 18t-37 7q-34 0 -45 -14v1q-7 -8 -7 -35h-61q0 92 116 92q51 0 80.5 -18.5t29.5 -50.5z" />
    <glyph glyph-name="ohornhookabove" unicode="&#x1edf;" horiz-adv-x="512" 
d="M493 533q0 -82 -40 -136q21 -57 21 -132q0 -127 -61 -203t-162 -76t-162 76t-61 203q0 129 61 205t165 76q109 0 168 -89q14 31 14 76h-57v115h114v-115zM356 266q0 78 -27 120t-77 42q-106 0 -106 -162q0 -79 27 -120.5t78 -41.5t78 41.5t27 120.5zM367 696
q0 -19 -10.5 -32t-39.5 -30q-23 -15 -29 -20t-6 -12v-24h-62v27q0 18 11 30t42 28v-1q32 20 32 34q0 11 -14 18t-37 7q-34 0 -45 -14v1q-7 -8 -7 -35h-61q0 92 116 92q51 0 80.5 -18.5t29.5 -50.5z" />
    <glyph glyph-name="Ohorntilde" unicode="&#x1ee0;" horiz-adv-x="638" 
d="M603 719q0 -86 -44 -141q43 -89 43 -219q0 -177 -77 -277.5t-206 -100.5q-130 0 -206.5 101t-76.5 276q0 179 77.5 279t209.5 100q128 0 204 -104q19 34 19 86h-57v115h114v-115zM479 362q0 113 -43 180.5t-115 67.5q-76 0 -119 -66.5t-43 -182.5q0 -119 42.5 -186
t117.5 -67t117.5 67.5t42.5 186.5zM474 915q-20 -120 -88 -120q-11 0 -62 18t-61 18q-29 0 -38 -43h-52q21 123 99 123q6 0 55.5 -18t54.5 -18q29 0 39 40h53z" />
    <glyph glyph-name="ohorntilde" unicode="&#x1ee1;" horiz-adv-x="512" 
d="M493 533q0 -82 -40 -136q21 -57 21 -132q0 -127 -61 -203t-162 -76t-162 76t-61 203q0 129 61 205t165 76q109 0 168 -89q14 31 14 76h-57v115h114v-115zM356 266q0 78 -27 120t-77 42q-106 0 -106 -162q0 -79 27 -120.5t78 -41.5t78 41.5t27 120.5zM401 739
q-20 -120 -88 -120q-11 0 -62 18t-61 18q-29 0 -38 -43h-52q20 123 99 123q6 0 55.5 -18t54.5 -18q29 0 39 40h53z" />
    <glyph glyph-name="Ohorndotbelow" unicode="&#x1ee2;" horiz-adv-x="638" 
d="M603 719q0 -86 -44 -141q43 -89 43 -219q0 -177 -77 -277.5t-206 -100.5q-130 0 -206.5 101t-76.5 276q0 179 77.5 279t209.5 100q128 0 204 -104q19 34 19 86h-57v115h114v-115zM479 362q0 113 -43 180.5t-115 67.5q-76 0 -119 -66.5t-43 -182.5q0 -119 42.5 -186
t117.5 -67t117.5 67.5t42.5 186.5zM381 -200h-114v115h114v-115z" />
    <glyph glyph-name="ohorndotbelow" unicode="&#x1ee3;" horiz-adv-x="512" 
d="M493 533q0 -82 -40 -136q21 -57 21 -132q0 -127 -61 -203t-162 -76t-162 76t-61 203q0 129 61 205t165 76q109 0 168 -89q14 31 14 76h-57v115h114v-115zM356 266q0 78 -27 120t-77 42q-106 0 -106 -162q0 -79 27 -120.5t78 -41.5t78 41.5t27 120.5zM309 -200h-114v115
h114v-115z" />
    <glyph glyph-name="Udotbelow" unicode="&#x1ee4;" horiz-adv-x="592" 
d="M534 251q0 -132 -61 -201t-178 -69q-113 0 -174.5 68.5t-61.5 192.5v476h125v-466q0 -69 29 -106.5t82 -37.5q56 0 85 35t29 102v473h125v-467zM355 -200h-114v115h114v-115z" />
    <glyph glyph-name="udotbelow" unicode="&#x1ee5;" horiz-adv-x="501" 
d="M447 0h-110v78q-44 -92 -136 -92q-70 0 -108.5 51t-38.5 145v350h114v-330q0 -98 74 -98q43 0 67 32.5t24 88.5v307h114v-532zM309 -200h-114v115h114v-115z" />
    <glyph glyph-name="Uhookabove" unicode="&#x1ee6;" horiz-adv-x="592" 
d="M534 251q0 -132 -61 -201t-178 -69q-113 0 -174.5 68.5t-61.5 192.5v476h125v-466q0 -69 29 -106.5t82 -37.5q56 0 85 35t29 102v473h125v-467zM413 882q0 -19 -10.5 -32t-39.5 -30q-23 -15 -29 -20t-6 -12v-24h-62v27q0 18 11 30t42 28v-1q32 20 32 34q0 11 -14 18
t-37 7q-34 0 -45 -14v1q-7 -8 -7 -35h-61q0 92 116 92q51 0 80.5 -18.5t29.5 -50.5z" />
    <glyph glyph-name="uhookabove" unicode="&#x1ee7;" horiz-adv-x="501" 
d="M447 0h-110v78q-44 -92 -136 -92q-70 0 -108.5 51t-38.5 145v350h114v-330q0 -98 74 -98q43 0 67 32.5t24 88.5v307h114v-532zM367 696q0 -19 -10.5 -32t-39.5 -30q-23 -15 -29 -20t-6 -12v-24h-62v27q0 18 11 30t42 28v-1q32 20 32 34q0 11 -14 18t-37 7q-34 0 -45 -14
v1q-7 -8 -7 -35h-61q0 92 116 92q51 0 80.5 -18.5t29.5 -50.5z" />
    <glyph glyph-name="Uhornacute" unicode="&#x1ee8;" horiz-adv-x="686" 
d="M667 719q0 -75 -36 -130.5t-97 -55.5v-282q0 -132 -61 -201t-178 -69q-113 0 -174.5 68.5t-61.5 192.5v476h125v-466q0 -69 29 -106.5t82 -37.5q56 0 85 35t29 102v473h125v-123q38 0 57 36.5t19 87.5h-57v115h114v-115zM461 914l-125 -126h-78l72 126h131z" />
    <glyph glyph-name="uhornacute" unicode="&#x1ee9;" horiz-adv-x="599" 
d="M580 533q0 -75 -36 -130.5t-97 -55.5v-347h-110v78q-44 -92 -136 -92q-70 0 -108.5 51t-38.5 145v350h114v-330q0 -98 74 -98q43 0 67 32.5t24 88.5v307h114v-123q38 0 57 36.5t19 87.5h-57v115h114v-115zM412 748l-120 -146h-83l77 146h126z" />
    <glyph glyph-name="Uhorngrave" unicode="&#x1eea;" horiz-adv-x="686" 
d="M667 719q0 -75 -36 -130.5t-97 -55.5v-282q0 -132 -61 -201t-178 -69q-113 0 -174.5 68.5t-61.5 192.5v476h125v-466q0 -69 29 -106.5t82 -37.5q56 0 85 35t29 102v473h125v-123q38 0 57 36.5t19 87.5h-57v115h114v-115zM337 788h-78l-125 126h131z" />
    <glyph glyph-name="uhorngrave" unicode="&#x1eeb;" horiz-adv-x="599" 
d="M580 533q0 -75 -36 -130.5t-97 -55.5v-347h-110v78q-44 -92 -136 -92q-70 0 -108.5 51t-38.5 145v350h114v-330q0 -98 74 -98q43 0 67 32.5t24 88.5v307h114v-123q38 0 57 36.5t19 87.5h-57v115h114v-115zM292 602h-83l-120 146h126z" />
    <glyph glyph-name="Uhornhookabove" unicode="&#x1eec;" horiz-adv-x="686" 
d="M667 719q0 -75 -36 -130.5t-97 -55.5v-282q0 -132 -61 -201t-178 -69q-113 0 -174.5 68.5t-61.5 192.5v476h125v-466q0 -69 29 -106.5t82 -37.5q56 0 85 35t29 102v473h125v-123q38 0 57 36.5t19 87.5h-57v115h114v-115zM413 882q0 -19 -10.5 -32t-39.5 -30
q-23 -15 -29 -20t-6 -12v-24h-62v27q0 18 11 30t42 28v-1q32 20 32 34q0 11 -14 18t-37 7q-34 0 -45 -14v1q-7 -8 -7 -35h-61q0 92 116 92q51 0 80.5 -18.5t29.5 -50.5z" />
    <glyph glyph-name="uhornhookabove" unicode="&#x1eed;" horiz-adv-x="599" 
d="M580 533q0 -75 -36 -130.5t-97 -55.5v-347h-110v78q-44 -92 -136 -92q-70 0 -108.5 51t-38.5 145v350h114v-330q0 -98 74 -98q43 0 67 32.5t24 88.5v307h114v-123q38 0 57 36.5t19 87.5h-57v115h114v-115zM367 696q0 -19 -10.5 -32t-39.5 -30q-23 -15 -29 -20t-6 -12v-24
h-62v27q0 18 11 30t42 28v-1q32 20 32 34q0 11 -14 18t-37 7q-34 0 -45 -14v1q-7 -8 -7 -35h-61q0 92 116 92q51 0 80.5 -18.5t29.5 -50.5z" />
    <glyph glyph-name="Uhorntilde" unicode="&#x1eee;" horiz-adv-x="686" 
d="M667 719q0 -75 -36 -130.5t-97 -55.5v-282q0 -132 -61 -201t-178 -69q-113 0 -174.5 68.5t-61.5 192.5v476h125v-466q0 -69 29 -106.5t82 -37.5q56 0 85 35t29 102v473h125v-123q38 0 57 36.5t19 87.5h-57v115h114v-115zM448 915q-20 -120 -88 -120q-11 0 -62 18t-61 18
q-29 0 -38 -43h-52q21 123 99 123q6 0 55.5 -18t54.5 -18q29 0 39 40h53z" />
    <glyph glyph-name="uhorntilde" unicode="&#x1eef;" horiz-adv-x="599" 
d="M580 533q0 -75 -36 -130.5t-97 -55.5v-347h-110v78q-44 -92 -136 -92q-70 0 -108.5 51t-38.5 145v350h114v-330q0 -98 74 -98q43 0 67 32.5t24 88.5v307h114v-123q38 0 57 36.5t19 87.5h-57v115h114v-115zM401 739q-20 -120 -88 -120q-11 0 -62 18t-61 18q-29 0 -38 -43
h-52q20 123 99 123q6 0 55.5 -18t54.5 -18q29 0 39 40h53z" />
    </font>
</defs>
</svg>
