<?xml version="1.0" standalone="no"?>
<!DOCTYPE svg PUBLIC "-//W3C//DTD SVG 1.1//EN" "http://www.w3.org/Graphics/SVG/1.1/DTD/svg11.dtd" >
<svg xmlns="http://www.w3.org/2000/svg" xmlns:xlink="http://www.w3.org/1999/xlink" version="1.1">
<metadata>
Created by FontForge 20170731 at Fri Feb 22 16:56:51 2008
 By Aleksey,,,
Copyright (URW)++, copyright 1999 by (URW)++ Design &#38; Development; Cyrillic glyphs added by Valek Filippov, copyright 2001-2002; Vietnamese characters were added by Han The Thanh; copyright 2006, 2008 for TeX Gyre extensions by B. Jackowski and J.M. Nowacki (on behalf of TeX users groups). This work is released under the GUST Font License --  see http://tug.org/fonts/licenses/GUST-FONT-LICENSE.txt for details.
</metadata>
<defs>
<font id="TeXGyreHerosCondensed-Italic" horiz-adv-x="456" >
  <font-face 
    font-family="TeXGyreHerosCn"
    font-weight="400"
    font-style="italic"
    font-stretch="condensed"
    units-per-em="1000"
    panose-1="0 0 5 6 0 0 0 0 0 0"
    ascent="793"
    descent="-207"
    x-height="523"
    cap-height="718"
    bbox="-441 -286 1122 1089"
    underline-thickness="50"
    underline-position="-175"
    slope="-9.89999"
    unicode-range="U+0020-FB04"
  />
<missing-glyph horiz-adv-x="280" 
 />
    <glyph glyph-name="I_J" unicode="IJ" horiz-adv-x="595" 
d="M94 0h-79l125 718h79zM534 194q-18 -102 -72 -157.5t-135 -55.5q-67 0 -103 36t-36 103q0 20 3 40l13 71h74l-8 -50q-5 -32 -4 -42q0 -75 72 -75q93 0 115 124l93 530h79z" />
    <glyph glyph-name="i_j" unicode="ij" horiz-adv-x="364" 
d="M87 0h-72l91 523h72zM200 607h-86l17 96h86zM256 -77q-12 -68 -44 -100.5t-87 -32.5q-15 0 -32 3l13 76h15q34 0 45 11t19 53l103 590h72zM382 607h-86l17 96h86z" />
    <glyph glyph-name="f_k" unicode="fk" horiz-adv-x="638" 
d="M266 523l-13 -73h-72l-78 -450h-72l78 450h-59l13 73h59l15 90q9 56 42.5 85.5t87.5 29.5q12 0 34 -2l-14 -79q-26 2 -29 2q-43 0 -53 -61l-11 -65h72zM599 0h-93l-87 264l-72 -66l-34 -198h-70l125 718h70l-73 -416l223 221h92l-198 -195z" />
    <glyph glyph-name="f_f" unicode="ff" horiz-adv-x="438" 
d="M478 523l-13 -73h-72l-78 -450h-72l78 450h-140l-78 -450h-72l78 450h-59l13 73h59l15 90q9 56 42.5 85.5t87.5 29.5q12 0 34 -2l-14 -79q-26 2 -29 2q-43 0 -53 -61l-11 -65h140l15 90q9 56 42.5 85.5t87.5 29.5q12 0 34 -2l-14 -79q-26 2 -29 2q-43 0 -53 -61l-11 -65
h72z" />
    <glyph glyph-name="f_i" unicode="fi" horiz-adv-x="410" 
d="M266 523l-13 -73h-72l-78 -450h-72l78 450h-59l13 73h59l15 90q9 56 42.5 85.5t87.5 29.5q12 0 34 -2l-14 -79q-26 2 -29 2q-43 0 -53 -61l-11 -65h72zM315 0h-72l91 523h72zM428 607h-86l17 96h86z" />
    <glyph glyph-name="f_l" unicode="fl" horiz-adv-x="410" 
d="M266 523l-13 -73h-72l-78 -450h-72l78 450h-59l13 73h59l15 90q9 56 42.5 85.5t87.5 29.5q12 0 34 -2l-14 -79q-26 2 -29 2q-43 0 -53 -61l-11 -65h72zM315 0h-72l125 718h72z" />
    <glyph glyph-name="f_f_i" unicode="ffi" horiz-adv-x="622" 
d="M478 523l-13 -73h-72l-78 -450h-72l78 450h-140l-78 -450h-72l78 450h-59l13 73h59l15 90q9 56 42.5 85.5t87.5 29.5q12 0 34 -2l-14 -79q-26 2 -29 2q-43 0 -53 -61l-11 -65h140l15 90q9 56 42.5 85.5t87.5 29.5q12 0 34 -2l-14 -79q-26 2 -29 2q-43 0 -53 -61l-11 -65
h72zM527 0h-72l91 523h72zM640 607h-86l17 96h86z" />
    <glyph glyph-name="f_f_l" unicode="ffl" horiz-adv-x="622" 
d="M478 523l-13 -73h-72l-78 -450h-72l78 450h-140l-78 -450h-72l78 450h-59l13 73h59l15 90q9 56 42.5 85.5t87.5 29.5q12 0 34 -2l-14 -79q-26 2 -29 2q-43 0 -53 -61l-11 -65h140l15 90q9 56 42.5 85.5t87.5 29.5q12 0 34 -2l-14 -79q-26 2 -29 2q-43 0 -53 -61l-11 -65
h72zM527 0h-72l125 718h72z" />
    <glyph glyph-name=".notdef" horiz-adv-x="280" 
 />
    <glyph glyph-name=".null" horiz-adv-x="0" 
 />
    <glyph glyph-name="nonmarkingreturn" horiz-adv-x="333" 
 />
    <glyph glyph-name="space" unicode=" " horiz-adv-x="228" 
 />
    <glyph glyph-name="exclam" unicode="!" horiz-adv-x="228" 
d="M131 102l-18 -102h-79l18 102h79zM197 481l-74 -310h-40l35 310l41 237h79z" />
    <glyph glyph-name="quotedbl" unicode="&#x22;" horiz-adv-x="291" 
d="M158 463h-60l44 255h60zM275 463h-60l44 255h60z" />
    <glyph glyph-name="numbersign" unicode="#" 
d="M477 478l-18 -63h-85l-41 -142h85l-19 -63h-84l-60 -210h-55l61 210h-103l-60 -210h-54l60 210h-84l18 63h85l40 142h-84l18 63h84l61 210h55l-61 -210h102l60 210h55l-60 -210h84zM319 415h-101l-41 -142h102z" />
    <glyph glyph-name="dollar" unicode="$" 
d="M426 248q0 -110 -61 -184.5t-162 -82.5l-16 -96h-39l17 96q-80 9 -114 46.5t-34 105.5q0 24 7 80h72q-4 -48 -4 -64q0 -42 19 -63t67 -32l46 265q-79 24 -109.5 57.5t-30.5 94.5q0 94 59 164t149 76l11 64h39l-11 -64q71 -11 103 -45.5t32 -95.5q0 -13 -2 -49h-70
q1 9 1 23q0 40 -17.5 61t-59.5 33l-42 -239q93 -35 121.5 -63t28.5 -88zM240 409l39 229q-53 -3 -86.5 -44t-33.5 -96q0 -69 81 -89zM348 206q0 29 -12.5 52.5t-33.5 32.5l-42 17l-44 -254q59 3 95.5 47.5t36.5 104.5z" />
    <glyph glyph-name="percent" unicode="%" horiz-adv-x="729" 
d="M340 572q0 -102 -45 -176.5t-118 -74.5q-97 0 -97 123q0 100 44.5 175.5t117.5 75.5q98 0 98 -123zM283 571q0 71 -49 71q-43 0 -70 -59.5t-27 -137.5q0 -71 49 -71q44 0 70.5 60t26.5 137zM631 703l-450 -722h-45l450 722h45zM689 244q0 -100 -45 -175.5t-117 -75.5
q-98 0 -98 123q0 100 44.5 175.5t117.5 75.5q98 0 98 -123zM632 243q0 71 -49 71q-44 0 -70.5 -59.5t-26.5 -137.5q0 -71 50 -71q43 0 69.5 60t26.5 137z" />
    <glyph glyph-name="ampersand" unicode="&#x26;" horiz-adv-x="547" 
d="M488 0h-93l-41 82q-49 -54 -91 -75.5t-96 -21.5q-69 0 -106.5 38.5t-37.5 109.5q0 92 47 158q19 28 46 50t82 58q-38 77 -38 122q0 80 51 138.5t121 58.5q50 0 79 -31t29 -84q0 -63 -31 -113t-111 -108l81 -156q24 50 43 112h68q-22 -90 -79 -183zM326 141l-98 198
q-85 -59 -108 -95.5t-23 -88.5q0 -41 25.5 -67.5t64.5 -26.5q72 0 139 80zM368 585q0 27 -14 42t-39 15q-35 0 -58.5 -28t-23.5 -68q0 -46 38 -107q51 38 74 71.5t23 74.5z" />
    <glyph glyph-name="quotesingle" unicode="'" horiz-adv-x="157" 
d="M149 463h-60l44 255h60z" />
    <glyph glyph-name="parenleft" unicode="(" horiz-adv-x="273" 
d="M169 -207h-48q-42 114 -57 183.5t-15 146.5q0 152 51.5 291.5t181.5 318.5h50q-70 -114 -101.5 -178t-53.5 -137q-55 -174 -55 -322q0 -106 47 -303z" />
    <glyph glyph-name="parenright" unicode=")" horiz-adv-x="273" 
d="M236 403q0 -151 -51.5 -291t-181.5 -319h-50q70 114 101.5 178t53.5 137q55 176 55 322q0 105 -47 303h48q42 -114 57 -183.5t15 -146.5z" />
    <glyph glyph-name="asterisk" unicode="*" horiz-adv-x="319" 
d="M349 591l-94 -34l38 -92l-46 -34l-36 94l-70 -94l-34 34l71 92l-83 34l26 55l79 -38l20 110h49l-19 -110l92 38z" />
    <glyph glyph-name="plus" unicode="+" horiz-adv-x="479" 
d="M430 221h-155v-155h-58v155h-156v58h156v156h58v-156h155v-58z" />
    <glyph glyph-name="comma" unicode="," horiz-adv-x="228" 
d="M118 8q-25 -138 -112 -155l8 46q43 6 61 101h-43l18 106h85z" />
    <glyph glyph-name="hyphen" unicode="-" horiz-adv-x="273" 
d="M253 322l-16 -90h-200l16 90h200z" />
    <glyph glyph-name="period" unicode="." horiz-adv-x="228" 
d="M135 106l-19 -106h-85l19 106h85z" />
    <glyph glyph-name="slash" unicode="/" horiz-adv-x="228" 
d="M330 737l-332 -756h-55l333 756h54z" />
    <glyph glyph-name="zero" unicode="0" 
d="M459 483q0 -88 -23 -187t-59 -172q-73 -143 -192 -143q-72 0 -110 55.5t-38 161.5q0 123 32 236.5t96 191t146 77.5q148 0 148 -220zM382 484q0 67 -22 103.5t-63 36.5q-40 0 -75.5 -39t-58.5 -100.5t-36 -136.5t-13 -149q0 -67 22 -103t63 -36q54 0 97.5 68t64.5 163.5
t21 192.5z" />
    <glyph glyph-name="one" unicode="1" 
d="M255 0h-78l87 499h-134l12 70q82 6 115 31t63 103h57z" />
    <glyph glyph-name="two" unicode="2" 
d="M376 0h-395q20 98 63.5 164.5t120.5 114.5l86 54q51 32 72.5 50t35.5 41q28 45 28 101q0 47 -25 73t-69 26q-56 0 -91 -41t-55 -132h-73q52 252 240 252q70 0 111 -43.5t41 -116.5q0 -94 -51 -166q-22 -31 -53 -55t-96 -64l-66 -40q-104 -62 -123 -135h313z" />
    <glyph glyph-name="three" unicode="3" 
d="M429 253q0 -110 -71.5 -191t-177.5 -81q-75 0 -117 43t-42 121q0 33 4 70h75q-4 -29 -4 -55q0 -48 26 -74t73 -26q65 0 109.5 49t44.5 120q0 48 -29 72t-77 24h-11q-14 -1 -32 -1l13 76q22 -2 38 -2q58 0 95 38.5t37 100.5q0 41 -23.5 64t-66.5 23q-54 0 -86 -35.5
t-52 -115.5h-71q47 230 224 230q71 0 111.5 -38.5t40.5 -106.5q0 -65 -28 -115t-77 -71q40 -20 57 -47.5t17 -71.5z" />
    <glyph glyph-name="four" unicode="4" 
d="M419 171h-85l-30 -171h-72l30 171h-252l15 86l342 446h60l-80 -456h85zM275 247l56 322l-241 -322h185z" />
    <glyph glyph-name="five" unicode="5" 
d="M425 280q0 -119 -72.5 -209t-181.5 -90q-74 0 -115 41.5t-41 116.5q0 22 1 36h75q-1 -7 -1 -20q0 -45 26.5 -71.5t71.5 -26.5q64 0 110.5 59t46.5 142q0 53 -28 84.5t-75 31.5q-61 0 -119 -67l-62 4l109 377h299l-15 -86h-245l-58 -193q58 44 119 44q68 0 111.5 -48.5
t43.5 -124.5z" />
    <glyph glyph-name="six" unicode="6" 
d="M428 282q0 -119 -72 -210t-168 -91q-73 0 -113.5 54.5t-40.5 154.5q0 73 18.5 162t47.5 157q40 94 98 144t127 50q62 0 100.5 -40t38.5 -104q0 -9 -2 -43h-71q0 56 -18.5 82t-59.5 26q-63 0 -110.5 -68t-74.5 -198q61 90 151 90q67 0 108 -46t41 -120zM351 259
q0 53 -24.5 81.5t-69.5 28.5q-62 0 -105 -56.5t-43 -136.5q0 -53 26 -84.5t70 -31.5q59 0 102.5 59t43.5 140z" />
    <glyph glyph-name="seven" unicode="7" 
d="M496 611q-225 -246 -344 -611h-80q45 150 133.5 306t207.5 296h-318l15 86h399z" />
    <glyph glyph-name="eight" unicode="8" 
d="M423 246q0 -105 -68 -185t-167 -80q-76 0 -122 44t-46 116q0 163 133 232q-57 35 -57 102q0 89 61.5 158.5t149.5 69.5q70 0 110 -39t40 -106q0 -126 -103 -184q69 -45 69 -128zM344 229q0 47 -26 74t-72 27q-62 0 -104 -47.5t-42 -117.5q0 -51 26 -78t76 -27
q64 0 103 46.5t39 122.5zM381 541q0 39 -24 61t-65 22q-52 0 -86 -38t-34 -95q0 -37 23.5 -61t60.5 -24q51 0 88 40t37 95z" />
    <glyph glyph-name="nine" unicode="9" 
d="M459 504q0 -84 -24.5 -186.5t-63.5 -179.5q-79 -157 -204 -157q-64 0 -102 39.5t-38 105.5q0 16 3 43h72q-1 -12 -1 -29q0 -40 21 -63t58 -23q57 0 99 56t87 215q-55 -90 -151 -90q-67 0 -106 45t-39 122q0 120 68 210.5t166 90.5q75 0 115 -51t40 -148zM383 518
q0 50 -24 78t-68 28q-61 0 -103 -60.5t-42 -148.5q0 -101 91 -101q64 0 105 59.5t41 144.5z" />
    <glyph glyph-name="colon" unicode=":" horiz-adv-x="228" 
d="M117 0h-86l19 106h85zM207 516l-19 -106h-85l18 106h86z" />
    <glyph glyph-name="semicolon" unicode=";" horiz-adv-x="228" 
d="M136 106l-18 -98q-25 -138 -112 -155l8 46q43 6 61 101h-43l18 106h86zM189 410h-86l19 106h85z" />
    <glyph glyph-name="less" unicode="&#x3c;" horiz-adv-x="479" 
d="M375 -65l-280 295v40l280 295v-84l-219 -231l219 -231v-84z" />
    <glyph glyph-name="equal" unicode="=" horiz-adv-x="479" 
d="M430 311h-369v58h369v-58zM430 131h-369v58h369v-58z" />
    <glyph glyph-name="greater" unicode="&#x3e;" horiz-adv-x="479" 
d="M375 230l-280 -295v84l219 231l-219 231v84l280 -295v-40z" />
    <glyph glyph-name="question" unicode="?" 
d="M460 576q0 -63 -21 -103.5t-89 -106.5q-57 -55 -74.5 -86t-28.5 -97h-72q14 78 34 116t81 99q57 58 71 82q21 36 21 83q0 42 -21.5 65t-60.5 23q-54 0 -87 -38.5t-49 -119.5h-72q14 67 29 101t43 64q66 69 152 69q66 0 105 -41t39 -110zM239 102l-18 -102h-80l18 102h80z
" />
    <glyph glyph-name="at" unicode="@" horiz-adv-x="832" 
d="M751 487q0 -81 -39 -163.5t-98.5 -135t-115.5 -52.5q-18 0 -29.5 13t-11.5 34q0 10 1 17q-63 -64 -114 -64q-40 0 -66.5 34t-26.5 87q0 68 34.5 141.5t91.5 123.5t115 50q32 0 51 -18t29 -60l27 62h56l-67 -164q-63 -153 -65 -168v-7q0 -16 13 -16q53 0 106.5 91
t53.5 182q0 89 -52 145t-135 56q-81 0 -153.5 -54.5t-116 -144.5t-43.5 -190q0 -107 57.5 -175t148.5 -68q113 0 220 114h55q-127 -176 -288 -176q-111 0 -182 84t-71 215q0 116 54 222t143.5 170.5t186.5 64.5q100 0 165.5 -70.5t65.5 -179.5zM533 429q0 31 -14.5 50
t-38.5 21q-51 0 -105.5 -74t-54.5 -148q0 -32 14.5 -51t38.5 -19q47 0 103.5 74.5t56.5 146.5z" />
    <glyph glyph-name="A" unicode="A" horiz-adv-x="547" 
d="M496 0h-87l-22 209h-236l-98 -209h-82l347 718h90zM374 295l-33 319l-150 -319h183z" />
    <glyph glyph-name="B" unicode="B" horiz-adv-x="547" 
d="M515 258q0 -108 -70 -183t-171 -75h-253l125 718h259q65 0 101.5 -37.5t36.5 -103.5q0 -126 -108 -190q44 -24 62 -53t18 -76zM461 558q0 77 -106 77h-144l-39 -221h144q71 0 108 38.5t37 105.5zM434 244q0 91 -119 91h-156l-44 -252h169q67 0 108.5 45t41.5 116z" />
    <glyph glyph-name="C" unicode="C" horiz-adv-x="592" 
d="M564 264q-31 -86 -57.5 -131t-66.5 -80q-83 -72 -183 -72q-98 0 -153.5 69.5t-55.5 191.5q0 205 101 350t250 145q92 0 146.5 -56.5t54.5 -152.5q0 -15 -1 -26h-77q-6 149 -137 149q-108 0 -181 -114.5t-73 -281.5q0 -91 38 -139.5t110 -48.5q68 0 118.5 46t89.5 151h77z
" />
    <glyph glyph-name="D" unicode="D" horiz-adv-x="592" 
d="M586 472q0 -120 -40.5 -227.5t-116 -176t-167.5 -68.5h-236l125 718h239q92 0 144 -65t52 -181zM503 461q0 84 -35.5 129t-102.5 45h-149l-96 -552h154q98 0 163.5 112t65.5 266z" />
    <glyph glyph-name="E" unicode="E" horiz-adv-x="547" 
d="M466 0h-435l125 718h429l-15 -86h-349l-39 -220h323l-15 -86h-323l-41 -240h355z" />
    <glyph glyph-name="F" unicode="F" horiz-adv-x="501" 
d="M548 632h-328l-38 -220h288l-15 -86h-288l-57 -326h-79l125 718h407z" />
    <glyph glyph-name="G" unicode="G" horiz-adv-x="638" 
d="M538 0h-52l-3 93q-95 -112 -218 -112q-103 0 -158.5 77t-55.5 188q0 128 48 241t130 181.5t176 68.5t152 -59t58 -154v-24h-77q-11 151 -146 151q-108 0 -182.5 -115.5t-74.5 -283.5q0 -188 156 -188q82 0 142 58.5t82 178.5h-183l14 83h258z" />
    <glyph glyph-name="H" unicode="H" horiz-adv-x="592" 
d="M490 0h-80l59 335h-308l-58 -335h-80l125 718h80l-52 -297h308l51 297h80z" />
    <glyph glyph-name="I" unicode="I" horiz-adv-x="228" 
d="M114 0h-79l125 718h79z" />
    <glyph glyph-name="J" unicode="J" horiz-adv-x="410" 
d="M345 194q-18 -102 -72 -157.5t-135 -55.5q-67 0 -103 36t-36 103q0 20 3 40l13 71h74l-8 -50q-5 -32 -4 -42q0 -75 72 -75q93 0 115 124l93 530h79z" />
    <glyph glyph-name="K" unicode="K" horiz-adv-x="547" 
d="M503 0h-103l-143 360l-112 -108l-43 -252h-80l125 718h80l-61 -348l346 348h110l-296 -290z" />
    <glyph glyph-name="L" unicode="L" 
d="M400 0h-378l125 718h80l-110 -632h298z" />
    <glyph glyph-name="M" unicode="M" horiz-adv-x="683" 
d="M584 0h-77l74 424l34 185l-274 -609h-78l-62 608l-23 -138q-4 -22 -7 -46l-74 -424h-77l125 718h114l63 -610l274 610h113z" />
    <glyph glyph-name="N" unicode="N" horiz-adv-x="592" 
d="M490 0h-90l-199 583l-102 -583h-77l125 718h95l194 -583l102 583h77z" />
    <glyph glyph-name="O" unicode="O" horiz-adv-x="638" 
d="M637 456q0 -120 -46 -228.5t-130 -177.5t-185 -69q-110 0 -170 73.5t-60 206.5q0 122 46.5 231t130.5 177t184 68q109 0 169.5 -73.5t60.5 -207.5zM554 445q0 96 -43 151t-119 55q-109 0 -186 -110.5t-77 -266.5q0 -97 43 -152t118 -55q109 0 186.5 112t77.5 266z" />
    <glyph glyph-name="P" unicode="P" horiz-adv-x="547" 
d="M564 565q0 -105 -62 -183.5t-154 -78.5h-185l-53 -303h-79l125 718h265q66 0 104.5 -41t38.5 -112zM481 549q0 86 -99 86h-161l-43 -249h158q70 0 107.5 45t37.5 118z" />
    <glyph glyph-name="Q" unicode="Q" horiz-adv-x="638" 
d="M561 2l-50 -58l-75 85q-76 -48 -160 -48q-111 0 -170.5 74t-59.5 206q0 121 46 230t130 177.5t185 68.5q111 0 170.5 -74t59.5 -207q0 -216 -143 -378zM554 443q0 97 -43 152.5t-118 55.5q-109 0 -186.5 -110.5t-77.5 -266.5q0 -97 43 -152t119 -55q45 0 91 23l-52 58
l51 60l62 -71q111 123 111 306z" />
    <glyph glyph-name="R" unicode="R" horiz-adv-x="592" 
d="M524 16l-3 -16h-98v17q0 57 18 163q5 33 5 50q0 78 -88 78h-193l-53 -308h-80l125 718h273q80 0 122 -36.5t42 -106.5q0 -143 -116 -222q29 -17 39.5 -35t10.5 -55q0 -23 -3 -45l-18 -130q-3 -21 -3 -34q0 -21 20 -38zM509 552q0 83 -88 83h-199l-42 -244h184
q71 0 108 43.5t37 117.5z" />
    <glyph glyph-name="S" unicode="S" horiz-adv-x="547" 
d="M507 246q0 -118 -76.5 -191.5t-198.5 -73.5q-93 0 -145.5 49t-52.5 127q0 33 7 75h75q-4 -24 -4 -46q0 -57 37 -89.5t102 -32.5q81 0 128.5 41.5t47.5 111.5q0 36 -23 56.5t-84 38.5l-114 34q-100 30 -100 129q0 107 71.5 184.5t180.5 77.5q88 0 137 -44.5t49 -123.5
q0 -29 -4 -61h-75q2 26 2 33q0 52 -33 82.5t-90 30.5q-69 0 -113 -41.5t-44 -106.5q0 -53 56 -69l159 -47q105 -30 105 -144z" />
    <glyph glyph-name="T" unicode="T" horiz-adv-x="501" 
d="M560 632h-199l-110 -632h-80l110 632h-199l15 86h478z" />
    <glyph glyph-name="U" unicode="U" horiz-adv-x="592" 
d="M532 252q-22 -124 -98.5 -197.5t-184.5 -73.5q-90 0 -139 51t-49 144q0 37 5 63l84 479h79l-78 -452q-6 -32 -6 -64q0 -65 31.5 -100t90.5 -35q73 0 121.5 51.5t65.5 145.5l80 454h79z" />
    <glyph glyph-name="V" unicode="V" horiz-adv-x="547" 
d="M616 718l-340 -718h-84l-90 718h89l61 -615l275 615h89z" />
    <glyph glyph-name="W" unicode="W" horiz-adv-x="774" 
d="M846 718l-280 -718h-115v599l-241 -599h-112v718h94v-588l236 588h117v-588l213 588h88z" />
    <glyph glyph-name="X" unicode="X" horiz-adv-x="547" 
d="M491 0h-98l-107 295l-214 -295h-96l274 368l-136 350h100l101 -275l197 275h95l-258 -350z" />
    <glyph glyph-name="Y" unicode="Y" horiz-adv-x="547" 
d="M621 718l-297 -429l-50 -289h-80l50 289l-147 429h93l108 -345l230 345h93z" />
    <glyph glyph-name="Z" unicode="Z" horiz-adv-x="501" 
d="M442 0h-463l14 81l457 551h-334l15 86h436l-15 -84l-457 -548h362z" />
    <glyph glyph-name="bracketleft" unicode="[" horiz-adv-x="228" 
d="M279 651h-89l-136 -776h89l-12 -71h-154l160 918h154z" />
    <glyph glyph-name="backslash" unicode="\" horiz-adv-x="228" 
d="M199 -19h-55l-69 756h54z" />
    <glyph glyph-name="bracketright" unicode="]" horiz-adv-x="228" 
d="M102 -196h-153l12 71h89l135 776h-89l13 71h153z" />
    <glyph glyph-name="asciicircum" unicode="^" horiz-adv-x="385" 
d="M402 264h-63l-80 344l-200 -344h-64l248 424h59z" />
    <glyph glyph-name="underscore" unicode="_" 
d="M403 -75l-9 -50h-456l9 50h456z" />
    <glyph glyph-name="grave" unicode="`" horiz-adv-x="273" 
d="M226 584h-55l-83 141h99z" />
    <glyph glyph-name="a" unicode="a" 
d="M406 64l-12 -64l-9 -3q-19 -7 -34 -7q-62 0 -62 56q0 6 2 24q-81 -85 -167 -85q-53 0 -83.5 31t-30.5 85q0 79 44.5 134t117.5 65l122 18q50 8 50 82q0 65 -86 65q-47 0 -74 -23t-44 -78h-66q39 174 202 174q67 0 104.5 -30.5t37.5 -84.5q0 -16 -3 -31l-54 -312
q0 -20 19 -20q9 0 26 4zM306 181l15 86q-19 -16 -125 -33q-57 -10 -83 -37t-26 -76q0 -63 63 -63q55 0 101 36.5t55 86.5z" />
    <glyph glyph-name="b" unicode="b" 
d="M439 355q0 -90 -30.5 -174.5t-88 -140t-126.5 -55.5q-41 0 -65.5 19t-40.5 64l-12 -68h-68l125 718h72l-46 -263q36 44 69 63.5t73 19.5q64 0 101 -49t37 -134zM364 348q0 53 -23.5 82t-67.5 29q-49 0 -86.5 -45t-55.5 -107.5t-18 -127.5q0 -54 25 -86t67 -32
q69 0 114 87t45 200z" />
    <glyph glyph-name="c" unicode="c" horiz-adv-x="410" 
d="M384 185q-62 -200 -210 -200q-71 0 -112 49.5t-41 137.5q0 147 75 256.5t187 109.5q61 0 96 -39.5t35 -108.5q0 -9 -2 -43h-70q-2 61 -20.5 86.5t-61.5 25.5q-70 0 -115.5 -83.5t-45.5 -195.5q0 -119 88 -119q82 0 127 124h70z" />
    <glyph glyph-name="d" unicode="d" 
d="M369 0h-68l13 75q-32 -49 -64 -69.5t-76 -20.5q-70 0 -107.5 52t-37.5 148q0 147 67 250t164 103q44 0 71 -22t43 -72l48 274h72zM347 334q0 125 -88 125q-50 0 -86.5 -41.5t-53 -101.5t-16.5 -130q0 -59 22.5 -92t62.5 -33q68 0 113.5 75.5t45.5 197.5z" />
    <glyph glyph-name="e" unicode="e" 
d="M423 233h-313q-6 -37 -6 -62q0 -51 26 -80.5t72 -29.5q44 0 81 29t50 74h72q-28 -85 -86 -132t-133 -47t-116 49t-41 138q0 147 74.5 256.5t185.5 109.5q74 0 109.5 -52t35.5 -132q0 -44 -11 -121zM361 303q2 36 2 47q0 50 -24.5 79.5t-66.5 29.5q-52 0 -93 -43t-57 -113
h239z" />
    <glyph glyph-name="f" unicode="f" horiz-adv-x="228" 
d="M266 523l-13 -73h-72l-78 -450h-72l78 450h-59l13 73h59l15 90q9 56 42.5 85.5t87.5 29.5q12 0 34 -2l-14 -79q-26 2 -29 2q-43 0 -53 -61l-11 -65h72z" />
    <glyph glyph-name="g" unicode="g" 
d="M460 523l-84 -480q-23 -136 -83 -199.5t-160 -63.5q-70 0 -104.5 35t-34.5 111v10h72q2 -44 21.5 -63.5t60.5 -19.5q65 0 101.5 40.5t53.5 143.5l4 21q-54 -73 -131 -73q-68 0 -106 52.5t-38 146.5q0 148 67.5 251t163.5 103q43 0 69 -20.5t46 -71.5l14 77h68zM351 334
q0 125 -89 125q-74 0 -115 -81.5t-41 -192.5q0 -58 22.5 -91t63.5 -33q68 0 113.5 75.5t45.5 197.5z" />
    <glyph glyph-name="h" unicode="h" 
d="M363 0h-72l59 342q5 27 5 48q0 69 -68 69q-58 0 -98 -45.5t-54 -128.5l-50 -285h-72l125 718h73l-47 -267q40 49 72 68t75 19q56 0 87.5 -33.5t31.5 -94.5q0 -22 -5 -54z" />
    <glyph glyph-name="i" unicode="i" horiz-adv-x="182" 
d="M87 0h-72l91 523h72zM200 607h-86l17 96h86z" />
    <glyph glyph-name="j" unicode="j" horiz-adv-x="182" 
d="M74 -77q-12 -68 -44 -100.5t-87 -32.5q-15 0 -32 3l13 76h15q34 0 45 11t19 53l103 590h72zM200 607h-86l17 96h86z" />
    <glyph glyph-name="k" unicode="k" horiz-adv-x="410" 
d="M371 0h-93l-87 264l-72 -66l-34 -198h-70l125 718h70l-73 -416l223 221h92l-198 -195z" />
    <glyph glyph-name="l" unicode="l" horiz-adv-x="182" 
d="M87 0h-72l125 718h72z" />
    <glyph glyph-name="m" unicode="m" horiz-adv-x="683" 
d="M591 0h-72l59 338q4 21 4 49q0 72 -61 72q-43 0 -79.5 -40.5t-47.5 -99.5l-56 -319h-72l63 362q3 15 3 31q0 66 -52 66q-53 0 -92 -47t-53 -127l-50 -285h-72l91 523h69l-14 -77q37 49 71.5 70.5t77.5 21.5q40 0 63 -20t35 -65q47 50 76 67.5t68 17.5q51 0 80 -33t29 -91
q0 -24 -5 -52z" />
    <glyph glyph-name="n" unicode="n" 
d="M363 0h-72l56 322q5 33 5 60q0 77 -69 77q-55 0 -94.5 -46.5t-53.5 -127.5l-50 -285h-72l91 523h68l-13 -77q38 49 73.5 70.5t79.5 21.5q55 0 86.5 -34t31.5 -94q0 -22 -5 -54z" />
    <glyph glyph-name="o" unicode="o" 
d="M439 336q0 -136 -74.5 -243t-179.5 -107q-74 0 -115.5 54t-41.5 149q0 136 74.5 242.5t179.5 106.5q73 0 115 -53.5t42 -148.5zM364 325q0 66 -25 101.5t-71 35.5q-69 0 -117 -80.5t-48 -183.5q0 -66 24.5 -101t71.5 -35q69 0 117 81t48 182z" />
    <glyph glyph-name="p" unicode="p" 
d="M439 355q0 -90 -30.5 -174.5t-88 -140t-126.5 -55.5q-77 0 -104 73l-47 -265h-72l127 730h69l-14 -77q39 52 71.5 72t76.5 20q64 0 101 -49t37 -134zM364 348q0 53 -23.5 82t-67.5 29q-50 0 -88 -47t-55 -109.5t-17 -124.5q0 -53 25 -85t67 -32q67 0 113 86t46 201z" />
    <glyph glyph-name="q" unicode="q" 
d="M329 -207h-72l46 265q-54 -73 -130 -73q-69 0 -106.5 52.5t-37.5 147.5q0 147 67 250t164 103q43 0 68.5 -20.5t46.5 -71.5l13 77h68zM347 335q0 124 -88 124q-73 0 -114.5 -79.5t-41.5 -193.5q0 -59 22.5 -92t62.5 -33q70 0 114.5 76.5t44.5 197.5z" />
    <glyph glyph-name="r" unicode="r" horiz-adv-x="273" 
d="M325 535l-16 -91h-27q-47 0 -85.5 -39.5t-48.5 -100.5l-53 -304h-72l91 523h68l-16 -90q39 57 71 81t70 24q9 0 18 -3z" />
    <glyph glyph-name="s" unicode="s" horiz-adv-x="410" 
d="M371 189q0 -85 -60.5 -144.5t-146.5 -59.5q-73 0 -112.5 34.5t-39.5 96.5q0 24 4 52h70q-2 -22 -2 -29q0 -37 24.5 -57.5t69.5 -20.5q51 0 84 27t33 70q0 21 -16.5 34.5t-57.5 26.5l-79 25q-79 25 -79 98q0 82 56.5 139t138.5 57q63 0 99.5 -34.5t36.5 -95.5q0 -6 -2 -34
h-70q2 18 2 22q0 31 -22 48.5t-61 17.5q-46 0 -75 -25t-29 -65q0 -20 13.5 -31t52.5 -23l69 -22q52 -17 75.5 -42.5t23.5 -64.5z" />
    <glyph glyph-name="t" unicode="t" horiz-adv-x="228" 
d="M171 0q-56 -7 -60 -7q-67 0 -67 70q0 23 4 42l60 345h-58l13 73h58l25 146h73l-26 -146h69l-13 -73h-69l-59 -340q-1 -4 -1 -12q0 -29 37 -29h26z" />
    <glyph glyph-name="u" unicode="u" 
d="M361 0h-68l14 81q-38 -54 -71.5 -75t-80.5 -21q-56 0 -87 31t-31 87q0 24 4 44l65 376h73l-61 -347q-3 -20 -3 -40q0 -75 67 -75q54 0 94 47t54 127l50 288h72z" />
    <glyph glyph-name="v" unicode="v" horiz-adv-x="410" 
d="M455 523l-254 -523h-78l-65 523h84l37 -429l197 429h79z" />
    <glyph glyph-name="w" unicode="w" horiz-adv-x="592" 
d="M633 523l-216 -523h-91v409l-156 -409h-74l-33 523h89v-415l156 415h93v-415l160 415h72z" />
    <glyph glyph-name="x" unicode="x" horiz-adv-x="410" 
d="M362 0h-92l-72 197l-138 -197h-91l198 269l-100 254h93l67 -184l132 184h88l-189 -254z" />
    <glyph glyph-name="y" unicode="y" horiz-adv-x="410" 
d="M452 523l-244 -513q-41 -84 -62 -123t-44.5 -65t-42 -31t-52.5 -5q-13 0 -29 6l-6 2l14 80q21 -9 42 -9q23 0 36 13t34 54l27 54l-65 537h82l40 -429l190 429h80z" />
    <glyph glyph-name="z" unicode="z" horiz-adv-x="410" 
d="M357 73l-13 -73h-359l12 69l325 381h-239l13 73h332l-13 -72l-321 -378h263z" />
    <glyph glyph-name="braceleft" unicode="{" horiz-adv-x="274" 
d="M314 657h-36q-38 0 -52 -82l-30 -170q-8 -46 -38 -88.5t-61 -52.5q52 -28 52 -109q0 -19 -3 -35l-29 -169q-4 -20 -4 -39q0 -43 27 -43h36l-11 -65h-55q-28 0 -46 26t-18 67q0 18 3 36l30 171q3 21 3 45q0 78 -47 85l10 60q29 1 54 36.5t35 90.5l30 172q10 56 40 92.5
t66 36.5h55z" />
    <glyph glyph-name="bar" unicode="|" horiz-adv-x="213" 
d="M142 -196h-58v918h58v-918z" />
    <glyph glyph-name="braceright" unicode="}" horiz-adv-x="274" 
d="M241 234q-29 -1 -54 -37t-36 -93l-30 -171q-10 -55 -40 -92t-66 -37h-55l11 65h37q38 0 52 82l29 169q8 49 37 90.5t63 53.5q-53 24 -53 109q0 15 3 32l30 170q1 7 2 15t1.5 15t0.5 10q0 42 -28 42h-36l11 65h55q29 0 47 -26t18 -67q0 -18 -3 -36l-30 -172q-5 -24 -4 -43
q0 -77 48 -84z" />
    <glyph glyph-name="asciitilde" unicode="~" horiz-adv-x="479" 
d="M436 267q-34 -47 -61 -66.5t-58 -19.5q-32 0 -77 33q-48 35 -86 35q-36 0 -70 -49l-33 36q54 86 117 86q20 0 40 -8.5t67 -36.5q37 -23 58 -23q28 0 68 51z" />
    <glyph glyph-name="uni00A0" unicode="&#xa0;" horiz-adv-x="228" 
 />
    <glyph glyph-name="exclamdown" unicode="&#xa1;" horiz-adv-x="228" 
d="M205 523l-18 -102h-79l18 102h79zM80 -195h-79l41 237l74 310h40l-35 -310z" />
    <glyph glyph-name="cent" unicode="&#xa2;" 
d="M413 183q-31 -98 -87.5 -150t-131.5 -52q-15 0 -50 7l-43 -103h-34l48 114q-77 59 -77 170q0 98 32.5 182t92.5 135.5t134 51.5q21 0 35 -6l37 91h32l-38 -100q76 -36 76 -144q0 -20 -1 -34h-67q-2 45 -10.5 68t-27.5 34l-158 -386q12 -4 27 -4q50 0 81.5 28t59.5 98h70z
M303 459q-9 3 -19 3q-73 0 -122.5 -83t-49.5 -189q0 -76 35 -112z" />
    <glyph glyph-name="sterling" unicode="&#xa3;" 
d="M408 32q-62 -48 -111 -48q-14 0 -81.5 22.5t-83.5 22.5q-41 0 -104 -40l-28 69q66 50 100.5 106t34.5 105q0 19 -5 48h-88l11 63h57q-15 64 -15 97q0 100 69 170.5t167 70.5q72 0 110.5 -42t38.5 -121q0 -29 -4 -50l-3 -15h-72l1 9q3 18 3 36q0 50 -24.5 78.5t-67.5 28.5
q-56 0 -97.5 -45t-41.5 -107q0 -34 19 -110h138l-11 -63h-114q1 -7 1 -17q0 -70 -33 -125t-109 -114q69 41 120 41q15 0 69 -17.5t63 -17.5q33 0 69 31z" />
    <glyph glyph-name="currency" unicode="&#xa4;" 
d="M398 141l-41 -41l-32 31q-40 -27 -89 -27t-90 27l-31 -31l-41 41l31 31q-27 41 -27 90q0 48 27 89l-31 31l41 41l31 -31q43 28 90 28q48 0 89 -28l32 31l41 -41l-32 -31q28 -43 28 -89q0 -47 -28 -90zM336 262q0 41 -29.5 70.5t-70.5 29.5q-42 0 -71 -29.5t-29 -70.5
q0 -42 29 -71t71 -29q41 0 70.5 29t29.5 71z" />
    <glyph glyph-name="yen" unicode="&#xa5;" 
d="M533 688l-211 -304h127l-10 -57h-158l-15 -85h158l-10 -57h-158l-32 -185h-72l32 185h-157l10 57h157l15 85h-157l10 57h126l-105 304h81l92 -295l195 295h82z" />
    <glyph glyph-name="brokenbar" unicode="&#xa6;" horiz-adv-x="213" 
d="M142 355h-58v367h58v-367zM142 -196h-58v367h58v-367z" />
    <glyph glyph-name="section" unicode="&#xa7;" 
d="M426 281q0 -117 -116 -197q26 -44 26 -83q0 -77 -55.5 -134.5t-129.5 -57.5q-58 0 -93 35.5t-35 94.5q0 20 5 58h72q-4 -21 -4 -40q0 -34 17 -53t48 -19q43 0 72 28t29 70q0 32 -33 64l-147 140q-35 33 -35 92q0 112 112 188q-24 43 -24 73q0 74 53.5 135.5t126.5 61.5
q57 0 90.5 -33.5t33.5 -91.5q0 -20 -5 -58h-70q3 23 3 38q0 32 -17 50.5t-46 18.5q-38 0 -65.5 -28t-27.5 -67q0 -40 45 -76l105 -86q65 -54 65 -123zM353 245q0 45 -36 76l-124 107q-74 -45 -74 -121q0 -39 25 -61l133 -122q41 29 58.5 57t17.5 64z" />
    <glyph glyph-name="dieresis" unicode="&#xa8;" horiz-adv-x="273" 
d="M166 607h-88l17 96h88zM327 607h-88l17 96h88z" />
    <glyph glyph-name="copyright" unicode="&#xa9;" horiz-adv-x="604" 
d="M590 329q0 -141 -79.5 -244.5t-202.5 -103.5t-202.5 103.5t-79.5 244.5t79.5 244.5t202.5 103.5t202.5 -103.5t79.5 -244.5zM550 329q0 124 -67.5 216t-174.5 92t-174.5 -92t-67.5 -216t67.5 -216t174.5 -92t174.5 92t67.5 216zM472 420q0 -10 -1 -18h-52q-3 79 -78 79
q-62 0 -102.5 -59.5t-38.5 -146.5q1 -47 23 -72t62 -25q77 0 117 105h53q-30 -84 -74 -119q-50 -39 -109 -39t-93 37.5t-35 104.5q-2 111 57.5 189t147.5 78q56 0 89 -31t34 -83z" />
    <glyph glyph-name="ordfeminine" unicode="&#xaa;" horiz-adv-x="303" 
d="M323 454l-8 -44l-6 -2q-15 -3 -22 -3q-40 0 -40 34q0 11 1 17q-52 -51 -108 -51q-34 0 -54.5 19.5t-20.5 52.5q0 49 30 81.5t81 39.5l74 10q11 1 18.5 14t7.5 30q0 33 -54 33q-59 0 -74 -53h-44q25 105 130 105q44 0 69 -18.5t25 -52.5q0 -5 -2 -17l-31 -178v-7
q0 -12 12 -12zM263 570q-12 -10 -79 -20q-36 -5 -50.5 -18.5t-14.5 -39.5q0 -35 40 -35q36 0 63.5 21t33.5 53zM293 352l-9 -48h-242l8 48h243z" />
    <glyph glyph-name="guillemotleft" unicode="&#xab;" 
d="M203 196l-16 -88l-107 123l16 92l150 123l-15 -88l-100 -81zM399 358l-100 -81l71 -81l-15 -88l-107 123l16 92l150 123z" />
    <glyph glyph-name="logicalnot" unicode="&#xac;" horiz-adv-x="479" 
d="M430 369v-209h-58v151h-311v58h369z" />
    <glyph glyph-name="uni00AD" unicode="&#xad;" horiz-adv-x="273" 
d="M253 322l-16 -90h-200l16 90h200z" />
    <glyph glyph-name="registered" unicode="&#xae;" horiz-adv-x="604" 
d="M590 329q0 -141 -79.5 -244.5t-202.5 -103.5t-202.5 103.5t-79.5 244.5t79.5 244.5t202.5 103.5t202.5 -103.5t79.5 -244.5zM550 329q0 124 -67.5 216t-174.5 92t-174.5 -92t-67.5 -216t67.5 -216t174.5 -92t174.5 92t67.5 216zM473 445q1 -76 -62 -118q26 -14 27 -48
q0 -8 -2 -24l-9 -69q-1 -8 -1 -18t12 -19l-2 -10q0 -4 -4 -4h-61v12q0 35 9 87q3 17 3 26q-2 39 -49 39h-109l-29 -164h-54l68 389h163q98 0 100 -79zM416 431q0 41 -49 41h-112l-21 -122h104q39 0 59 22t19 59z" />
    <glyph glyph-name="macron" unicode="&#xaf;" horiz-adv-x="273" 
d="M344 684l-10 -57h-257l10 57h257z" />
    <glyph glyph-name="degree" unicode="&#xb0;" horiz-adv-x="328" 
d="M344 589q0 -70 -44.5 -124t-103.5 -54q-44 0 -71 31.5t-27 82.5q0 71 45 124.5t104 53.5q43 0 70 -31.5t27 -82.5zM303 577q0 35 -18.5 59t-45.5 24q-37 0 -68.5 -39t-31.5 -84q0 -35 18.5 -59t45.5 -24q37 0 68.5 39t31.5 84z" />
    <glyph glyph-name="plusminus" unicode="&#xb1;" horiz-adv-x="479" 
d="M430 279h-155v-155h-58v155h-156v58h156v156h58v-156h155v-58zM430 0h-369v58h369v-58z" />
    <glyph glyph-name="two.superior" unicode="&#xb2;" horiz-adv-x="273" 
d="M285 342l-11 -61h-262q13 59 40.5 99t74.5 68l55 33q38 23 51 33t21 23q17 25 17 63q0 26 -16 41t-43 15q-35 0 -57 -25t-34 -79h-49q30 162 156 162q46 0 73 -29.5t27 -79.5q0 -54 -26 -92t-99 -78l-41 -23q-50 -29 -78 -70h201z" />
    <glyph glyph-name="three.superior" unicode="&#xb3;" horiz-adv-x="273" 
d="M300 442q0 -72 -47 -122t-115 -50q-49 0 -76.5 30t-27.5 83q0 8 2 38h56q-2 -22 -2 -28q0 -65 59 -65q42 0 67 27.5t25 73.5q0 28 -17 40.5t-57 12.5h-19l9 51h22q37 0 58.5 21.5t21.5 57.5q0 44 -56 44q-32 0 -51.5 -18.5t-29.5 -61.5h-50q30 138 146 138q46 0 73 -24
t27 -65q0 -39 -18 -68t-50 -42q28 -11 39 -27.5t11 -45.5z" />
    <glyph glyph-name="acute" unicode="&#xb4;" horiz-adv-x="273" 
d="M358 725l-132 -141h-55l88 141h99z" />
    <glyph glyph-name="mu" unicode="&#xb5;" 
d="M361 0h-68l14 81q-38 -53 -71.5 -74.5t-79.5 -21.5q-45 0 -64 36l-40 -228h-72l127 730h72l-60 -347q-5 -31 -4 -40q0 -75 67 -75q53 0 93.5 47.5t54.5 126.5l50 288h72z" />
    <glyph glyph-name="paragraph" unicode="&#xb6;" horiz-adv-x="440" 
d="M493 718l-156 -891h-60l145 831h-97l-146 -831h-59l90 517q-73 4 -110 42.5t-37 103.5q0 100 61.5 164t164.5 64h204z" />
    <glyph glyph-name="periodcentered" unicode="&#xb7;" horiz-adv-x="228" 
d="M163 250q0 -18 -12.5 -30.5t-30.5 -12.5t-30.5 12.5t-12.5 30.5t12.5 30.5t30.5 12.5t30.5 -12.5t12.5 -30.5z" />
    <glyph glyph-name="cedilla" unicode="&#xb8;" horiz-adv-x="273" 
d="M151 -121q0 -46 -33 -77.5t-81 -31.5q-35 0 -75 22l21 40q29 -15 49 -15q25 0 40 13.5t15 36.5q0 14 -9.5 23.5t-23.5 9.5q-19 0 -33 -5l-11 19l68 88h48l-39 -60h8q26 0 41 -17.5t15 -45.5z" />
    <glyph glyph-name="one.superior" unicode="&#xb9;" horiz-adv-x="273" 
d="M265 703l-74 -422h-58l52 296h-89l8 46q53 4 74.5 19t40.5 61h46z" />
    <glyph glyph-name="ordmasculine" unicode="&#xba;" horiz-adv-x="299" 
d="M344 621q0 -93 -45.5 -154.5t-117.5 -61.5q-50 0 -77.5 30t-27.5 85q0 95 46 156t117 61q50 0 77.5 -30t27.5 -86zM288 609q0 76 -58 76q-43 0 -70.5 -46t-27.5 -106q0 -76 58 -76q44 0 71 46.5t27 105.5zM285 304h-243l8 48h243z" />
    <glyph glyph-name="guillemotright" unicode="&#xbb;" 
d="M225 323l-17 -92l-150 -123l15 88l101 81l-72 81l15 88zM377 231l-151 -123l16 88l100 81l-72 81l15 88l108 -123z" />
    <glyph glyph-name="onequarter" unicode="&#xbc;" horiz-adv-x="684" 
d="M596 94h-55l-16 -94h-52l16 94h-169l10 60l216 268h53l-48 -270h55zM618 703l-489 -728h-47l489 728h47zM287 703l-74 -422h-56l53 299h-89l7 43q53 4 74.5 19t40.5 61h44zM499 152l33 190l-151 -190h118z" />
    <glyph glyph-name="onehalf" unicode="&#xbd;" horiz-adv-x="684" 
d="M589 703l-490 -728h-47l490 728h47zM191 281h-59l52 296h-89l8 46q54 4 75 18.5t40 61.5h46zM605 61l-11 -61h-262q13 59 40.5 99t74.5 68l55 33q37 22 50.5 32.5t21.5 23.5q17 25 17 63q0 26 -16 41t-43 15q-35 0 -57 -25t-34 -79h-49q32 162 156 162q46 0 73 -29.5
t27 -79.5q0 -54 -26 -92t-99 -78l-41 -23q-49 -27 -78 -70h201z" />
    <glyph glyph-name="threequarters" unicode="&#xbe;" horiz-adv-x="684" 
d="M640 94h-55l-16 -94h-53l17 94h-169l10 60l216 268h52l-47 -270h55zM666 703l-489 -728h-47l489 728h47zM332 443q0 -73 -47 -123t-115 -50q-49 0 -76.5 30t-27.5 83q0 8 2 38h56q-2 -22 -2 -28q0 -65 59 -65q42 0 67 27.5t25 73.5q0 28 -17 40.5t-57 12.5h-19l9 51h22
q37 0 58.5 21.5t21.5 57.5q0 44 -56 44q-32 0 -51.5 -18.5t-29.5 -61.5h-50q30 138 146 138q47 0 73.5 -23.5t26.5 -65.5q0 -83 -68 -110q28 -11 39 -27.5t11 -44.5zM543 152l33 190l-151 -190h118z" />
    <glyph glyph-name="questiondown" unicode="&#xbf;" 
d="M375 30q-14 -67 -29 -101t-43 -64q-66 -69 -152 -69q-66 0 -105 41t-39 110q0 63 21 103.5t89 106.5q57 55 74.5 86t28.5 97h72q-14 -78 -34 -116t-81 -99q-57 -58 -71 -82q-21 -36 -21 -83q0 -42 21.5 -65t60.5 -23q54 0 87 38.5t49 119.5h72zM326 523l-18 -102h-80
l18 102h80z" />
    <glyph glyph-name="Agrave" unicode="&#xc0;" horiz-adv-x="547" 
d="M496 0h-87l-22 209h-236l-98 -209h-82l347 718h90zM374 295l-33 319l-150 -319h183zM402 779h-55l-86 121h99z" />
    <glyph glyph-name="Aacute" unicode="&#xc1;" horiz-adv-x="547" 
d="M496 0h-87l-22 209h-236l-98 -209h-82l347 718h90zM374 295l-33 319l-150 -319h183zM529 900l-128 -121h-55l84 121h99z" />
    <glyph glyph-name="Acircumflex" unicode="&#xc2;" horiz-adv-x="547" 
d="M496 0h-87l-22 209h-236l-98 -209h-82l347 718h90zM374 295l-33 319l-150 -319h183zM508 780h-66l-56 73l-82 -73h-65l117 121h77z" />
    <glyph glyph-name="Atilde" unicode="&#xc3;" horiz-adv-x="547" 
d="M496 0h-87l-22 209h-236l-98 -209h-82l347 718h90zM374 295l-33 319l-150 -319h183zM535 898q-34 -109 -102 -109q-16 0 -45 13l-20 9q-34 15 -47 15q-28 0 -47 -44h-39q17 56 42 81.5t62 25.5q25 0 53 -15l17 -9q24 -13 38 -13q30 0 47 46h41z" />
    <glyph glyph-name="Adieresis" unicode="&#xc4;" horiz-adv-x="547" 
d="M496 0h-87l-22 209h-236l-98 -209h-82l347 718h90zM374 295l-33 319l-150 -319h183zM340 792h-88l17 96h88zM501 792h-88l17 96h88z" />
    <glyph glyph-name="Aring" unicode="&#xc5;" horiz-adv-x="547" 
d="M496 0h-87l-22 209h-236l-98 -209h-82l347 718h90zM374 295l-33 319l-150 -319h183zM489 858q-6 -35 -39 -58.5t-76 -23.5q-44 0 -68.5 23.5t-18.5 60.5q7 35 40 58.5t76 23.5q44 0 68.5 -23.5t17.5 -60.5zM445 858q4 20 -10.5 34t-37.5 14t-42.5 -13.5t-23.5 -32.5
q-3 -20 11 -34t38 -14t43 13.5t22 32.5z" />
    <glyph glyph-name="AE" unicode="&#xc6;" horiz-adv-x="820" 
d="M740 0h-405l36 209h-217l-101 -209h-86l364 718h528l-15 -86h-320l-38 -220h292l-15 -86h-292l-42 -240h326zM445 632h-79l-168 -337h188z" />
    <glyph glyph-name="Ccedilla" unicode="&#xc7;" horiz-adv-x="592" 
d="M564 264q-31 -86 -57.5 -131t-66.5 -80q-68 -58 -146 -69l-27 -42h8q26 0 41 -17.5t15 -45.5q0 -46 -33 -77.5t-81 -31.5q-35 0 -75 22l21 40q29 -15 49 -15q25 0 40 13.5t15 36.5q0 14 -9.5 23.5t-23.5 9.5q-19 0 -33 -5l-11 19l52 67q-92 6 -143 74.5t-51 186.5
q0 205 101 350t250 145q92 0 146.5 -56.5t54.5 -152.5q0 -15 -1 -26h-77q-6 149 -137 149q-108 0 -181 -114.5t-73 -281.5q0 -91 38 -139.5t110 -48.5q68 0 118.5 46t89.5 151h77z" />
    <glyph glyph-name="Egrave" unicode="&#xc8;" horiz-adv-x="547" 
d="M466 0h-435l125 718h429l-15 -86h-349l-39 -220h323l-15 -86h-323l-41 -240h355zM409 779h-55l-86 121h99z" />
    <glyph glyph-name="Eacute" unicode="&#xc9;" horiz-adv-x="547" 
d="M466 0h-435l125 718h429l-15 -86h-349l-39 -220h323l-15 -86h-323l-41 -240h355zM536 900l-128 -121h-55l84 121h99z" />
    <glyph glyph-name="Ecircumflex" unicode="&#xca;" horiz-adv-x="547" 
d="M466 0h-435l125 718h429l-15 -86h-349l-39 -220h323l-15 -86h-323l-41 -240h355zM515 780h-66l-56 73l-82 -73h-65l117 121h77z" />
    <glyph glyph-name="Edieresis" unicode="&#xcb;" horiz-adv-x="547" 
d="M466 0h-435l125 718h429l-15 -86h-349l-39 -220h323l-15 -86h-323l-41 -240h355zM347 792h-88l17 96h88zM508 792h-88l17 96h88z" />
    <glyph glyph-name="Igrave" unicode="&#xcc;" horiz-adv-x="228" 
d="M114 0h-79l125 718h79zM250 779h-55l-86 121h99z" />
    <glyph glyph-name="Iacute" unicode="&#xcd;" horiz-adv-x="228" 
d="M114 0h-79l125 718h79zM354 900l-128 -121h-55l84 121h99z" />
    <glyph glyph-name="Icircumflex" unicode="&#xce;" horiz-adv-x="228" 
d="M114 0h-79l125 718h79zM344 780h-66l-56 73l-82 -73h-65l117 121h77z" />
    <glyph glyph-name="Idieresis" unicode="&#xcf;" horiz-adv-x="228" 
d="M114 0h-79l125 718h79zM176 792h-88l17 96h88zM337 792h-88l17 96h88z" />
    <glyph glyph-name="Eth" unicode="&#xd0;" horiz-adv-x="592" 
d="M586 470q0 -148 -73 -292q-91 -178 -251 -178h-235l56 326h-66l15 86h66l54 306h238q92 0 144 -66t52 -182zM502 461q0 84 -35 129t-102 45h-148l-39 -223h157l-15 -86h-157l-42 -243h154q96 0 161.5 112t65.5 266z" />
    <glyph glyph-name="Ntilde" unicode="&#xd1;" horiz-adv-x="592" 
d="M490 0h-90l-199 583l-102 -583h-77l125 718h95l194 -583l102 583h77zM553 898q-34 -109 -102 -109q-16 0 -45 13l-20 9q-34 15 -47 15q-28 0 -47 -44h-39q17 56 42 81.5t62 25.5q25 0 53 -15l17 -9q24 -13 38 -13q30 0 47 46h41z" />
    <glyph glyph-name="Ograve" unicode="&#xd2;" horiz-adv-x="638" 
d="M637 456q0 -120 -46 -228.5t-130 -177.5t-185 -69q-110 0 -170 73.5t-60 206.5q0 122 46.5 231t130.5 177t184 68q109 0 169.5 -73.5t60.5 -207.5zM554 445q0 96 -43 151t-119 55q-109 0 -186 -110.5t-77 -266.5q0 -97 43 -152t118 -55q109 0 186.5 112t77.5 266z
M442 779h-55l-86 121h99z" />
    <glyph glyph-name="Oacute" unicode="&#xd3;" horiz-adv-x="638" 
d="M637 456q0 -120 -46 -228.5t-130 -177.5t-185 -69q-110 0 -170 73.5t-60 206.5q0 122 46.5 231t130.5 177t184 68q109 0 169.5 -73.5t60.5 -207.5zM554 445q0 96 -43 151t-119 55q-109 0 -186 -110.5t-77 -266.5q0 -97 43 -152t118 -55q109 0 186.5 112t77.5 266z
M569 900l-128 -121h-55l84 121h99z" />
    <glyph glyph-name="Ocircumflex" unicode="&#xd4;" horiz-adv-x="638" 
d="M637 456q0 -120 -46 -228.5t-130 -177.5t-185 -69q-110 0 -170 73.5t-60 206.5q0 122 46.5 231t130.5 177t184 68q109 0 169.5 -73.5t60.5 -207.5zM554 445q0 96 -43 151t-119 55q-109 0 -186 -110.5t-77 -266.5q0 -97 43 -152t118 -55q109 0 186.5 112t77.5 266z
M548 780h-66l-56 73l-82 -73h-65l117 121h77z" />
    <glyph glyph-name="Otilde" unicode="&#xd5;" horiz-adv-x="638" 
d="M637 456q0 -120 -46 -228.5t-130 -177.5t-185 -69q-110 0 -170 73.5t-60 206.5q0 122 46.5 231t130.5 177t184 68q109 0 169.5 -73.5t60.5 -207.5zM554 445q0 96 -43 151t-119 55q-109 0 -186 -110.5t-77 -266.5q0 -97 43 -152t118 -55q109 0 186.5 112t77.5 266z
M575 898q-34 -109 -102 -109q-16 0 -45 13l-20 9q-34 15 -47 15q-28 0 -47 -44h-39q17 56 42 81.5t62 25.5q25 0 53 -15l17 -9q24 -13 38 -13q30 0 47 46h41z" />
    <glyph glyph-name="Odieresis" unicode="&#xd6;" horiz-adv-x="638" 
d="M637 456q0 -120 -46 -228.5t-130 -177.5t-185 -69q-110 0 -170 73.5t-60 206.5q0 122 46.5 231t130.5 177t184 68q109 0 169.5 -73.5t60.5 -207.5zM554 445q0 96 -43 151t-119 55q-109 0 -186 -110.5t-77 -266.5q0 -97 43 -152t118 -55q109 0 186.5 112t77.5 266z
M380 792h-88l17 96h88zM541 792h-88l17 96h88z" />
    <glyph glyph-name="multiply" unicode="&#xd7;" horiz-adv-x="479" 
d="M397 141l-41 -41l-110 109l-110 -110l-41 41l110 111l-110 110l41 41l110 -110l110 109l41 -41l-110 -109z" />
    <glyph glyph-name="Oslash" unicode="&#xd8;" horiz-adv-x="638" 
d="M690 707l-84 -91q31 -78 31 -161q0 -119 -46 -227.5t-130.5 -177.5t-185.5 -69q-60 0 -102 20.5t-76 66.5l-81 -87l-21 28l84 90q-33 79 -33 164q0 119 46 227.5t130.5 177.5t186.5 69q60 0 102.5 -21t76.5 -68l82 89zM554 443q0 49 -16 100l-376 -405q47 -71 128 -71
q109 0 186.5 113t77.5 263zM523 578q-47 73 -130 73q-109 0 -186.5 -112.5t-77.5 -262.5q0 -52 16 -105z" />
    <glyph glyph-name="Ugrave" unicode="&#xd9;" horiz-adv-x="592" 
d="M532 252q-22 -124 -98.5 -197.5t-184.5 -73.5q-90 0 -139 51t-49 144q0 37 5 63l84 479h79l-78 -452q-6 -32 -6 -64q0 -65 31.5 -100t90.5 -35q73 0 121.5 51.5t65.5 145.5l80 454h79zM420 779h-55l-86 121h99z" />
    <glyph glyph-name="Uacute" unicode="&#xda;" horiz-adv-x="592" 
d="M532 252q-22 -124 -98.5 -197.5t-184.5 -73.5q-90 0 -139 51t-49 144q0 37 5 63l84 479h79l-78 -452q-6 -32 -6 -64q0 -65 31.5 -100t90.5 -35q73 0 121.5 51.5t65.5 145.5l80 454h79zM547 900l-128 -121h-55l84 121h99z" />
    <glyph glyph-name="Ucircumflex" unicode="&#xdb;" horiz-adv-x="592" 
d="M532 252q-22 -124 -98.5 -197.5t-184.5 -73.5q-90 0 -139 51t-49 144q0 37 5 63l84 479h79l-78 -452q-6 -32 -6 -64q0 -65 31.5 -100t90.5 -35q73 0 121.5 51.5t65.5 145.5l80 454h79zM526 780h-66l-56 73l-82 -73h-65l117 121h77z" />
    <glyph glyph-name="Udieresis" unicode="&#xdc;" horiz-adv-x="592" 
d="M532 252q-22 -124 -98.5 -197.5t-184.5 -73.5q-90 0 -139 51t-49 144q0 37 5 63l84 479h79l-78 -452q-6 -32 -6 -64q0 -65 31.5 -100t90.5 -35q73 0 121.5 51.5t65.5 145.5l80 454h79zM358 792h-88l17 96h88zM519 792h-88l17 96h88z" />
    <glyph glyph-name="Yacute" unicode="&#xdd;" horiz-adv-x="547" 
d="M621 718l-297 -429l-50 -289h-80l50 289l-147 429h93l108 -345l230 345h93zM525 900l-128 -121h-55l84 121h99z" />
    <glyph glyph-name="Thorn" unicode="&#xde;" horiz-adv-x="547" 
d="M544 445q0 -104 -62 -182.5t-154 -78.5h-185l-32 -184h-80l125 718h80l-21 -119h185q67 0 105.5 -41.5t38.5 -112.5zM461 430q0 86 -99 86h-161l-44 -249h158q70 0 108 44.5t38 118.5z" />
    <glyph glyph-name="germandbls" unicode="&#xdf;" horiz-adv-x="501" 
d="M472 270q0 -110 -71.5 -197.5t-181.5 -87.5q-21 0 -40 6l-3 1l14 75q18 -3 36 -3q78 0 123.5 52.5t45.5 137.5q0 100 -120 100q-19 0 -32 -4l14 79q10 -2 22 -2q65 0 105 37.5t40 98.5q0 43 -28 66t-80 23q-60 0 -93.5 -34t-46.5 -108l-89 -510h-72l93 532
q16 91 75.5 143.5t147.5 52.5q79 0 123.5 -38t44.5 -106q0 -117 -96 -184q69 -31 69 -130z" />
    <glyph glyph-name="agrave" unicode="&#xe0;" 
d="M406 64l-12 -64l-9 -3q-19 -7 -34 -7q-62 0 -62 56q0 6 2 24q-81 -85 -167 -85q-53 0 -83.5 31t-30.5 85q0 79 44.5 134t117.5 65l122 18q50 8 50 82q0 65 -86 65q-47 0 -74 -23t-44 -78h-66q39 174 202 174q67 0 104.5 -30.5t37.5 -84.5q0 -16 -3 -31l-54 -312
q0 -20 19 -20q9 0 26 4zM306 181l15 86q-19 -16 -125 -33q-57 -10 -83 -37t-26 -76q0 -63 63 -63q55 0 101 36.5t55 86.5zM312 584h-55l-83 141h99z" />
    <glyph glyph-name="aacute" unicode="&#xe1;" 
d="M406 64l-12 -64l-9 -3q-19 -7 -34 -7q-62 0 -62 56q0 6 2 24q-81 -85 -167 -85q-53 0 -83.5 31t-30.5 85q0 79 44.5 134t117.5 65l122 18q50 8 50 82q0 65 -86 65q-47 0 -74 -23t-44 -78h-66q39 174 202 174q67 0 104.5 -30.5t37.5 -84.5q0 -16 -3 -31l-54 -312
q0 -20 19 -20q9 0 26 4zM306 181l15 86q-19 -16 -125 -33q-57 -10 -83 -37t-26 -76q0 -63 63 -63q55 0 101 36.5t55 86.5zM443 725l-132 -141h-55l88 141h99z" />
    <glyph glyph-name="acircumflex" unicode="&#xe2;" 
d="M406 64l-12 -64l-9 -3q-19 -7 -34 -7q-62 0 -62 56q0 6 2 24q-81 -85 -167 -85q-53 0 -83.5 31t-30.5 85q0 79 44.5 134t117.5 65l122 18q50 8 50 82q0 65 -86 65q-47 0 -74 -23t-44 -78h-66q39 174 202 174q67 0 104.5 -30.5t37.5 -84.5q0 -16 -3 -31l-54 -312
q0 -20 19 -20q9 0 26 4zM306 181l15 86q-19 -16 -125 -33q-57 -10 -83 -37t-26 -76q0 -63 63 -63q55 0 101 36.5t55 86.5zM403 585h-65l-38 93l-70 -93h-65l106 141h76z" />
    <glyph glyph-name="atilde" unicode="&#xe3;" 
d="M406 64l-12 -64l-9 -3q-19 -7 -34 -7q-62 0 -62 56q0 6 2 24q-81 -85 -167 -85q-53 0 -83.5 31t-30.5 85q0 79 44.5 134t117.5 65l122 18q50 8 50 82q0 65 -86 65q-47 0 -74 -23t-44 -78h-66q39 174 202 174q67 0 104.5 -30.5t37.5 -84.5q0 -16 -3 -31l-54 -312
q0 -20 19 -20q9 0 26 4zM306 181l15 86q-19 -16 -125 -33q-57 -10 -83 -37t-26 -76q0 -63 63 -63q55 0 101 36.5t55 86.5zM445 713q-34 -109 -102 -109q-16 0 -45 13l-20 9q-35 15 -47 15q-28 0 -47 -44h-39q17 56 42 81.5t62 25.5q25 0 53 -15l17 -9q24 -13 38 -13
q30 0 47 46h41z" />
    <glyph glyph-name="adieresis" unicode="&#xe4;" 
d="M406 64l-12 -64l-9 -3q-19 -7 -34 -7q-62 0 -62 56q0 6 2 24q-81 -85 -167 -85q-53 0 -83.5 31t-30.5 85q0 79 44.5 134t117.5 65l122 18q50 8 50 82q0 65 -86 65q-47 0 -74 -23t-44 -78h-66q39 174 202 174q67 0 104.5 -30.5t37.5 -84.5q0 -16 -3 -31l-54 -312
q0 -20 19 -20q9 0 26 4zM306 181l15 86q-19 -16 -125 -33q-57 -10 -83 -37t-26 -76q0 -63 63 -63q55 0 101 36.5t55 86.5zM251 607h-88l17 96h88zM412 607h-88l17 96h88z" />
    <glyph glyph-name="aring" unicode="&#xe5;" 
d="M406 64l-12 -64l-9 -3q-19 -7 -34 -7q-62 0 -62 56q0 6 2 24q-81 -85 -167 -85q-53 0 -83.5 31t-30.5 85q0 79 44.5 134t117.5 65l122 18q50 8 50 82q0 65 -86 65q-47 0 -74 -23t-44 -78h-66q39 174 202 174q67 0 104.5 -30.5t37.5 -84.5q0 -16 -3 -31l-54 -312
q0 -20 19 -20q9 0 26 4zM306 181l15 86q-19 -16 -125 -33q-57 -10 -83 -37t-26 -76q0 -63 63 -63q55 0 101 36.5t55 86.5zM397 654q-6 -35 -39 -58.5t-77 -23.5t-68.5 23.5t-17.5 60.5q6 35 39 58.5t76 23.5q44 0 68.5 -23.5t18.5 -60.5zM353 654q4 20 -10.5 34t-38.5 14
q-23 0 -42.5 -13.5t-22.5 -32.5q-4 -20 10.5 -34t38.5 -14t43 13.5t22 32.5z" />
    <glyph glyph-name="ae" unicode="&#xe6;" horiz-adv-x="729" 
d="M695 233h-313q-6 -38 -6 -62q0 -51 26 -80.5t71 -29.5q44 0 81 29t51 74h72q-29 -85 -86.5 -132t-133.5 -47q-59 0 -92 25.5t-50 83.5q-45 -58 -88.5 -83.5t-99.5 -25.5q-55 0 -86 30.5t-31 85.5q0 79 44.5 134t117.5 65l122 18q50 8 50 82q0 65 -86 65q-47 0 -74 -23
t-44 -78h-66q21 91 71.5 132.5t136.5 41.5q47 0 74 -15.5t52 -58.5q42 42 75 58t78 16q73 0 109 -52t36 -132q0 -44 -11 -121zM633 303q2 36 2 47q0 50 -24.5 79.5t-66.5 29.5q-52 0 -93.5 -43t-56.5 -113h239zM306 181l15 86q-12 -11 -34 -16.5t-91 -16.5
q-109 -17 -109 -112q0 -64 63 -64q55 0 101 36.5t55 86.5z" />
    <glyph glyph-name="ccedilla" unicode="&#xe7;" horiz-adv-x="410" 
d="M384 185q-54 -178 -177 -197l-30 -46h8q26 0 41 -17.5t15 -45.5q0 -46 -33 -77.5t-81 -31.5q-35 0 -75 22l21 40q29 -15 49 -15q25 0 40 13.5t15 36.5q0 14 -9.5 23.5t-23.5 9.5q-19 0 -33 -5l-11 19l56 72q-63 7 -99 56t-36 130q0 147 75 256.5t187 109.5q61 0 96 -39.5
t35 -108.5q0 -9 -2 -43h-70q-2 61 -20.5 86.5t-61.5 25.5q-70 0 -115.5 -83.5t-45.5 -195.5q0 -119 88 -119q82 0 127 124h70z" />
    <glyph glyph-name="egrave" unicode="&#xe8;" 
d="M423 233h-313q-6 -37 -6 -62q0 -51 26 -80.5t72 -29.5q44 0 81 29t50 74h72q-28 -85 -86 -132t-133 -47t-116 49t-41 138q0 147 74.5 256.5t185.5 109.5q74 0 109.5 -52t35.5 -132q0 -44 -11 -121zM361 303q2 36 2 47q0 50 -24.5 79.5t-66.5 29.5q-52 0 -93 -43t-57 -113
h239zM318 584h-55l-83 141h99z" />
    <glyph glyph-name="eacute" unicode="&#xe9;" 
d="M423 233h-313q-6 -37 -6 -62q0 -51 26 -80.5t72 -29.5q44 0 81 29t50 74h72q-28 -85 -86 -132t-133 -47t-116 49t-41 138q0 147 74.5 256.5t185.5 109.5q74 0 109.5 -52t35.5 -132q0 -44 -11 -121zM361 303q2 36 2 47q0 50 -24.5 79.5t-66.5 29.5q-52 0 -93 -43t-57 -113
h239zM449 725l-132 -141h-55l88 141h99z" />
    <glyph glyph-name="ecircumflex" unicode="&#xea;" 
d="M423 233h-313q-6 -37 -6 -62q0 -51 26 -80.5t72 -29.5q44 0 81 29t50 74h72q-28 -85 -86 -132t-133 -47t-116 49t-41 138q0 147 74.5 256.5t185.5 109.5q74 0 109.5 -52t35.5 -132q0 -44 -11 -121zM361 303q2 36 2 47q0 50 -24.5 79.5t-66.5 29.5q-52 0 -93 -43t-57 -113
h239zM409 585h-65l-38 93l-70 -93h-65l106 141h76z" />
    <glyph glyph-name="edieresis" unicode="&#xeb;" 
d="M423 233h-313q-6 -37 -6 -62q0 -51 26 -80.5t72 -29.5q44 0 81 29t50 74h72q-28 -85 -86 -132t-133 -47t-116 49t-41 138q0 147 74.5 256.5t185.5 109.5q74 0 109.5 -52t35.5 -132q0 -44 -11 -121zM361 303q2 36 2 47q0 50 -24.5 79.5t-66.5 29.5q-52 0 -93 -43t-57 -113
h239zM257 607h-88l17 96h88zM418 607h-88l17 96h88z" />
    <glyph glyph-name="igrave" unicode="&#xec;" horiz-adv-x="228" 
d="M110 0h-72l91 523h72zM212 584h-55l-83 141h99z" />
    <glyph glyph-name="iacute" unicode="&#xed;" horiz-adv-x="228" 
d="M110 0h-72l91 523h72zM327 725l-132 -141h-55l88 141h99z" />
    <glyph glyph-name="icircumflex" unicode="&#xee;" horiz-adv-x="228" 
d="M110 0h-72l91 523h72zM295 585h-65l-38 93l-70 -93h-65l106 141h76z" />
    <glyph glyph-name="idieresis" unicode="&#xef;" horiz-adv-x="228" 
d="M110 0h-72l91 523h72zM143 607h-88l17 96h88zM304 607h-88l17 96h88z" />
    <glyph glyph-name="eth" unicode="&#xf0;" 
d="M448 389q0 -106 -34.5 -199t-94.5 -149t-131 -56q-74 0 -117.5 53.5t-43.5 145.5q0 129 72.5 234t170.5 105q34 0 56.5 -13.5t43.5 -46.5q-13 82 -67 149l-113 -62l-27 42l107 57q-30 33 -64 52l67 36q39 -22 66 -51l95 51l32 -40l-97 -51q43 -67 61 -125t18 -132z
M362 308q0 67 -24.5 103t-71.5 36q-67 0 -115 -77.5t-48 -169.5q0 -67 24.5 -103t71.5 -36q66 0 114.5 77.5t48.5 169.5z" />
    <glyph glyph-name="ntilde" unicode="&#xf1;" 
d="M363 0h-72l56 322q5 33 5 60q0 77 -69 77q-55 0 -94.5 -46.5t-53.5 -127.5l-50 -285h-72l91 523h68l-13 -77q38 49 73.5 70.5t79.5 21.5q55 0 86.5 -34t31.5 -94q0 -22 -5 -54zM451 713q-34 -109 -102 -109q-16 0 -45 13l-20 9q-34 15 -47 15q-28 0 -47 -44h-39
q17 56 42 81.5t62 25.5q25 0 53 -15l17 -9q24 -13 38 -13q30 0 47 46h41z" />
    <glyph glyph-name="ograve" unicode="&#xf2;" 
d="M439 336q0 -136 -74.5 -243t-179.5 -107q-74 0 -115.5 54t-41.5 149q0 136 74.5 242.5t179.5 106.5q73 0 115 -53.5t42 -148.5zM364 325q0 66 -25 101.5t-71 35.5q-69 0 -117 -80.5t-48 -183.5q0 -66 24.5 -101t71.5 -35q69 0 117 81t48 182zM318 584h-55l-83 141h99z
" />
    <glyph glyph-name="oacute" unicode="&#xf3;" 
d="M439 336q0 -136 -74.5 -243t-179.5 -107q-74 0 -115.5 54t-41.5 149q0 136 74.5 242.5t179.5 106.5q73 0 115 -53.5t42 -148.5zM364 325q0 66 -25 101.5t-71 35.5q-69 0 -117 -80.5t-48 -183.5q0 -66 24.5 -101t71.5 -35q69 0 117 81t48 182zM449 725l-132 -141h-55
l88 141h99z" />
    <glyph glyph-name="ocircumflex" unicode="&#xf4;" 
d="M439 336q0 -136 -74.5 -243t-179.5 -107q-74 0 -115.5 54t-41.5 149q0 136 74.5 242.5t179.5 106.5q73 0 115 -53.5t42 -148.5zM364 325q0 66 -25 101.5t-71 35.5q-69 0 -117 -80.5t-48 -183.5q0 -66 24.5 -101t71.5 -35q69 0 117 81t48 182zM409 585h-65l-38 93l-70 -93
h-65l106 141h76z" />
    <glyph glyph-name="otilde" unicode="&#xf5;" 
d="M439 336q0 -136 -74.5 -243t-179.5 -107q-74 0 -115.5 54t-41.5 149q0 136 74.5 242.5t179.5 106.5q73 0 115 -53.5t42 -148.5zM364 325q0 66 -25 101.5t-71 35.5q-69 0 -117 -80.5t-48 -183.5q0 -66 24.5 -101t71.5 -35q69 0 117 81t48 182zM451 713q-34 -109 -102 -109
q-16 0 -45 13l-20 9q-34 15 -47 15q-28 0 -47 -44h-39q17 56 42 81.5t62 25.5q25 0 53 -15l17 -9q24 -13 38 -13q30 0 47 46h41z" />
    <glyph glyph-name="odieresis" unicode="&#xf6;" 
d="M439 336q0 -136 -74.5 -243t-179.5 -107q-74 0 -115.5 54t-41.5 149q0 136 74.5 242.5t179.5 106.5q73 0 115 -53.5t42 -148.5zM364 325q0 66 -25 101.5t-71 35.5q-69 0 -117 -80.5t-48 -183.5q0 -66 24.5 -101t71.5 -35q69 0 117 81t48 182zM257 607h-88l17 96h88z
M418 607h-88l17 96h88z" />
    <glyph glyph-name="divide" unicode="&#xf7;" horiz-adv-x="479" 
d="M430 221h-369v58h369v-58zM289 430q0 -18 -13 -30.5t-30 -12.5q-18 0 -30.5 12.5t-12.5 30.5q0 17 12.5 30t30.5 13q17 0 30 -13t13 -30zM289 71q0 -18 -13 -30.5t-30 -12.5q-18 0 -30.5 12.5t-12.5 30.5q0 17 12.5 30t30.5 13q17 0 30 -13t13 -30z" />
    <glyph glyph-name="oslash" unicode="&#xf8;" horiz-adv-x="501" 
d="M491 519l-70 -78q19 -54 19 -106q0 -88 -33 -168t-92.5 -130.5t-129.5 -50.5q-75 0 -119 60l-61 -68l-21 26l65 72q-21 55 -21 113q0 136 75 242.5t180 106.5q77 0 122 -65l65 72zM349 410q-27 52 -80 52q-67 0 -116 -78t-49 -187q0 -24 5 -54zM365 326q0 19 -5 47
l-238 -265q24 -46 77 -46q66 0 116 78t50 186z" />
    <glyph glyph-name="ugrave" unicode="&#xf9;" 
d="M361 0h-68l14 81q-38 -54 -71.5 -75t-80.5 -21q-56 0 -87 31t-31 87q0 24 4 44l65 376h73l-61 -347q-3 -20 -3 -40q0 -75 67 -75q54 0 94 47t54 127l50 288h72zM318 584h-55l-83 141h99z" />
    <glyph glyph-name="uacute" unicode="&#xfa;" 
d="M361 0h-68l14 81q-38 -54 -71.5 -75t-80.5 -21q-56 0 -87 31t-31 87q0 24 4 44l65 376h73l-61 -347q-3 -20 -3 -40q0 -75 67 -75q54 0 94 47t54 127l50 288h72zM449 725l-132 -141h-55l88 141h99z" />
    <glyph glyph-name="ucircumflex" unicode="&#xfb;" 
d="M361 0h-68l14 81q-38 -54 -71.5 -75t-80.5 -21q-56 0 -87 31t-31 87q0 24 4 44l65 376h73l-61 -347q-3 -20 -3 -40q0 -75 67 -75q54 0 94 47t54 127l50 288h72zM409 585h-65l-38 93l-70 -93h-65l106 141h76z" />
    <glyph glyph-name="udieresis" unicode="&#xfc;" 
d="M361 0h-68l14 81q-38 -54 -71.5 -75t-80.5 -21q-56 0 -87 31t-31 87q0 24 4 44l65 376h73l-61 -347q-3 -20 -3 -40q0 -75 67 -75q54 0 94 47t54 127l50 288h72zM257 607h-88l17 96h88zM418 607h-88l17 96h88z" />
    <glyph glyph-name="yacute" unicode="&#xfd;" horiz-adv-x="410" 
d="M452 523l-244 -513q-41 -84 -62 -123t-44.5 -65t-42 -31t-52.5 -5q-13 0 -29 6l-6 2l14 80q21 -9 42 -9q23 0 36 13t34 54l27 54l-65 537h82l40 -429l190 429h80zM426 725l-132 -141h-55l88 141h99z" />
    <glyph glyph-name="thorn" unicode="&#xfe;" 
d="M439 355q0 -90 -30.5 -174.5t-88 -140t-126.5 -55.5q-77 0 -104 73l-47 -265h-72l161 925h73l-47 -270q35 49 67 69.5t75 20.5q65 0 102 -49t37 -134zM364 348q0 53 -23.5 82t-67.5 29q-50 0 -88 -47t-55 -109.5t-17 -124.5q0 -53 25 -85t67 -32q67 0 113 86t46 201z" />
    <glyph glyph-name="ydieresis" unicode="&#xff;" horiz-adv-x="410" 
d="M452 523l-244 -513q-41 -84 -62 -123t-44.5 -65t-42 -31t-52.5 -5q-13 0 -29 6l-6 2l14 80q21 -9 42 -9q23 0 36 13t34 54l27 54l-65 537h82l40 -429l190 429h80zM234 607h-88l17 96h88zM395 607h-88l17 96h88z" />
    <glyph glyph-name="Amacron" unicode="&#x100;" horiz-adv-x="547" 
d="M496 0h-87l-22 209h-236l-98 -209h-82l347 718h90zM374 295l-33 319l-150 -319h183zM518 869l-10 -57h-257l10 57h257z" />
    <glyph glyph-name="amacron" unicode="&#x101;" 
d="M406 64l-12 -64l-9 -3q-19 -7 -34 -7q-62 0 -62 56q0 6 2 24q-81 -85 -167 -85q-53 0 -83.5 31t-30.5 85q0 79 44.5 134t117.5 65l122 18q50 8 50 82q0 65 -86 65q-47 0 -74 -23t-44 -78h-66q39 174 202 174q67 0 104.5 -30.5t37.5 -84.5q0 -16 -3 -31l-54 -312
q0 -20 19 -20q9 0 26 4zM306 181l15 86q-19 -16 -125 -33q-57 -10 -83 -37t-26 -76q0 -63 63 -63q55 0 101 36.5t55 86.5zM429 684l-10 -57h-257l10 57h257z" />
    <glyph glyph-name="Abreve" unicode="&#x102;" horiz-adv-x="547" 
d="M496 0h-87l-22 209h-236l-98 -209h-82l347 718h90zM374 295l-33 319l-150 -319h183zM530 898q-27 -58 -65 -87t-94 -29q-54 0 -81 29t-32 87h40l1 -7q31 -52 87 -52q35 0 56.5 14t38.5 45h49z" />
    <glyph glyph-name="abreve" unicode="&#x103;" 
d="M406 64l-12 -64l-9 -3q-19 -7 -34 -7q-62 0 -62 56q0 6 2 24q-81 -85 -167 -85q-53 0 -83.5 31t-30.5 85q0 79 44.5 134t117.5 65l122 18q50 8 50 82q0 65 -86 65q-47 0 -74 -23t-44 -78h-66q39 174 202 174q67 0 104.5 -30.5t37.5 -84.5q0 -16 -3 -31l-54 -312
q0 -20 19 -20q9 0 26 4zM306 181l15 86q-19 -16 -125 -33q-57 -10 -83 -37t-26 -76q0 -63 63 -63q55 0 101 36.5t55 86.5zM435 723q-22 -71 -58.5 -103.5t-94.5 -32.5q-49 0 -76 27.5t-25 79.5l1 29h40q4 -42 21.5 -60.5t53.5 -18.5t58 17.5t41 61.5h39z" />
    <glyph glyph-name="Aogonek" unicode="&#x104;" horiz-adv-x="547" 
d="M456 -230h-35q-45 0 -76.5 22.5t-31.5 59.5q0 43 22 78q28 46 74 70l-22 209h-236l-98 -209h-82l347 718h90l88 -718q-52 -14 -87 -61q-19 -26 -19 -54q0 -42 46 -42h31zM374 295l-33 319l-150 -319h183z" />
    <glyph glyph-name="aogonek" unicode="&#x105;" 
d="M355 -230h-35q-45 0 -76.5 22.5t-31.5 59.5q0 42 21 78q28 44 72 75q-16 14 -16 41q0 6 2 24q-81 -85 -167 -85q-53 0 -83.5 31t-30.5 85q0 79 44.5 134t117.5 65l122 18q50 8 50 82q0 65 -86 65q-47 0 -74 -23t-44 -78h-66q39 174 202 174q67 0 104.5 -30.5t37.5 -84.5
q0 -16 -3 -31l-54 -312q0 -20 19 -20q9 0 26 4l-12 -64l-9 -3q-49 -18 -77 -58q-19 -26 -19 -54q0 -42 46 -42h31zM306 181l15 86q-19 -16 -125 -33q-57 -10 -83 -37t-26 -76q0 -63 63 -63q55 0 101 36.5t55 86.5z" />
    <glyph glyph-name="Cacute" unicode="&#x106;" horiz-adv-x="592" 
d="M564 264q-31 -86 -57.5 -131t-66.5 -80q-83 -72 -183 -72q-98 0 -153.5 69.5t-55.5 191.5q0 205 101 350t250 145q92 0 146.5 -56.5t54.5 -152.5q0 -15 -1 -26h-77q-6 149 -137 149q-108 0 -181 -114.5t-73 -281.5q0 -91 38 -139.5t110 -48.5q68 0 118.5 46t89.5 151h77z
M561 900l-128 -121h-55l84 121h99z" />
    <glyph glyph-name="cacute" unicode="&#x107;" horiz-adv-x="410" 
d="M384 185q-62 -200 -210 -200q-71 0 -112 49.5t-41 137.5q0 147 75 256.5t187 109.5q61 0 96 -39.5t35 -108.5q0 -9 -2 -43h-70q-2 61 -20.5 86.5t-61.5 25.5q-70 0 -115.5 -83.5t-45.5 -195.5q0 -119 88 -119q82 0 127 124h70zM426 725l-132 -141h-55l88 141h99z" />
    <glyph glyph-name="Ccircumflex" unicode="&#x108;" horiz-adv-x="592" 
d="M564 264q-31 -86 -57.5 -131t-66.5 -80q-83 -72 -183 -72q-98 0 -153.5 69.5t-55.5 191.5q0 205 101 350t250 145q92 0 146.5 -56.5t54.5 -152.5q0 -15 -1 -26h-77q-6 149 -137 149q-108 0 -181 -114.5t-73 -281.5q0 -91 38 -139.5t110 -48.5q68 0 118.5 46t89.5 151h77z
M540 780h-66l-56 73l-82 -73h-65l117 121h77z" />
    <glyph glyph-name="ccircumflex" unicode="&#x109;" horiz-adv-x="410" 
d="M384 185q-62 -200 -210 -200q-71 0 -112 49.5t-41 137.5q0 147 75 256.5t187 109.5q61 0 96 -39.5t35 -108.5q0 -9 -2 -43h-70q-2 61 -20.5 86.5t-61.5 25.5q-70 0 -115.5 -83.5t-45.5 -195.5q0 -119 88 -119q82 0 127 124h70zM386 585h-65l-38 93l-70 -93h-65l106 141
h76z" />
    <glyph glyph-name="Cdotaccent" unicode="&#x10a;" horiz-adv-x="592" 
d="M564 264q-31 -86 -57.5 -131t-66.5 -80q-83 -72 -183 -72q-98 0 -153.5 69.5t-55.5 191.5q0 205 101 350t250 145q92 0 146.5 -56.5t54.5 -152.5q0 -15 -1 -26h-77q-6 149 -137 149q-108 0 -181 -114.5t-73 -281.5q0 -91 38 -139.5t110 -48.5q68 0 118.5 46t89.5 151h77z
M452 792h-86l17 96h86z" />
    <glyph glyph-name="cdotaccent" unicode="&#x10b;" horiz-adv-x="410" 
d="M384 185q-62 -200 -210 -200q-71 0 -112 49.5t-41 137.5q0 147 75 256.5t187 109.5q61 0 96 -39.5t35 -108.5q0 -9 -2 -43h-70q-2 61 -20.5 86.5t-61.5 25.5q-70 0 -115.5 -83.5t-45.5 -195.5q0 -119 88 -119q82 0 127 124h70zM314 607h-86l17 96h86z" />
    <glyph glyph-name="Ccaron" unicode="&#x10c;" horiz-adv-x="592" 
d="M564 264q-31 -86 -57.5 -131t-66.5 -80q-83 -72 -183 -72q-98 0 -153.5 69.5t-55.5 191.5q0 205 101 350t250 145q92 0 146.5 -56.5t54.5 -152.5q0 -15 -1 -26h-77q-6 149 -137 149q-108 0 -181 -114.5t-73 -281.5q0 -91 38 -139.5t110 -48.5q68 0 118.5 46t89.5 151h77z
M562 901l-117 -121h-77l-75 121h66l56 -73l82 73h65z" />
    <glyph glyph-name="ccaron" unicode="&#x10d;" horiz-adv-x="410" 
d="M384 185q-62 -200 -210 -200q-71 0 -112 49.5t-41 137.5q0 147 75 256.5t187 109.5q61 0 96 -39.5t35 -108.5q0 -9 -2 -43h-70q-2 61 -20.5 86.5t-61.5 25.5q-70 0 -115.5 -83.5t-45.5 -195.5q0 -119 88 -119q82 0 127 124h70zM410 726l-106 -141h-76l-56 141h65l38 -93
l70 93h65z" />
    <glyph glyph-name="Dcaron" unicode="&#x10e;" horiz-adv-x="592" 
d="M586 472q0 -120 -40.5 -227.5t-116 -176t-167.5 -68.5h-236l125 718h239q92 0 144 -65t52 -181zM503 461q0 84 -35.5 129t-102.5 45h-149l-96 -552h154q98 0 163.5 112t65.5 266zM546 901l-117 -121h-77l-75 121h66l56 -73l82 73h65z" />
    <glyph glyph-name="dcaron" unicode="&#x10f;" 
d="M369 0h-68l13 75q-32 -49 -64 -69.5t-76 -20.5q-70 0 -107.5 52t-37.5 148q0 147 67 250t164 103q44 0 71 -22t43 -72l48 274h72zM347 334q0 125 -88 125q-50 0 -86.5 -41.5t-53 -101.5t-16.5 -130q0 -59 22.5 -92t62.5 -33q68 0 113.5 75.5t45.5 197.5zM610 624
q-10 -60 -36.5 -94.5t-63.5 -37.5l7 39q42 4 54 86h-40l18 101h77z" />
    <glyph glyph-name="Dcroat" unicode="&#x110;" horiz-adv-x="592" 
d="M586 470q0 -148 -73 -292q-91 -178 -251 -178h-235l56 326h-66l15 86h66l54 306h238q92 0 144 -66t52 -182zM502 461q0 84 -35 129t-102 45h-148l-39 -223h157l-15 -86h-157l-42 -243h154q96 0 161.5 112t65.5 266z" />
    <glyph glyph-name="dcroat" unicode="&#x111;" horiz-adv-x="481" 
d="M554 649l-10 -57h-72l-103 -592h-68l13 75q-32 -49 -64 -69.5t-76 -20.5q-70 0 -107.5 52t-37.5 148q0 147 67 250t164 103q44 0 71 -22t43 -72l26 148h-113l10 57h113l12 69h72l-12 -69h72zM347 334q0 125 -88 125q-50 0 -86.5 -41.5t-53 -101.5t-16.5 -130
q0 -59 22.5 -92t62.5 -33q68 0 113.5 75.5t45.5 197.5z" />
    <glyph glyph-name="Emacron" unicode="&#x112;" horiz-adv-x="547" 
d="M466 0h-435l125 718h429l-15 -86h-349l-39 -220h323l-15 -86h-323l-41 -240h355zM525 869l-10 -57h-257l10 57h257z" />
    <glyph glyph-name="emacron" unicode="&#x113;" 
d="M423 233h-313q-6 -37 -6 -62q0 -51 26 -80.5t72 -29.5q44 0 81 29t50 74h72q-28 -85 -86 -132t-133 -47t-116 49t-41 138q0 147 74.5 256.5t185.5 109.5q74 0 109.5 -52t35.5 -132q0 -44 -11 -121zM361 303q2 36 2 47q0 50 -24.5 79.5t-66.5 29.5q-52 0 -93 -43t-57 -113
h239zM435 684l-10 -57h-257l10 57h257z" />
    <glyph glyph-name="Ebreve" unicode="&#x114;" horiz-adv-x="547" 
d="M466 0h-435l125 718h429l-15 -86h-349l-39 -220h323l-15 -86h-323l-41 -240h355zM537 898q-27 -58 -65 -87t-94 -29q-54 0 -81 29t-32 87h40l1 -7q31 -52 87 -52q35 0 56.5 14t38.5 45h49z" />
    <glyph glyph-name="ebreve" unicode="&#x115;" 
d="M423 233h-313q-6 -37 -6 -62q0 -51 26 -80.5t72 -29.5q44 0 81 29t50 74h72q-28 -85 -86 -132t-133 -47t-116 49t-41 138q0 147 74.5 256.5t185.5 109.5q74 0 109.5 -52t35.5 -132q0 -44 -11 -121zM361 303q2 36 2 47q0 50 -24.5 79.5t-66.5 29.5q-52 0 -93 -43t-57 -113
h239zM441 723q-22 -71 -58.5 -103.5t-94.5 -32.5q-49 0 -76 27.5t-25 79.5l1 29h40q4 -42 21.5 -60.5t53.5 -18.5t58 17.5t41 61.5h39z" />
    <glyph glyph-name="Edotaccent" unicode="&#x116;" horiz-adv-x="547" 
d="M466 0h-435l125 718h429l-15 -86h-349l-39 -220h323l-15 -86h-323l-41 -240h355zM427 792h-86l17 96h86z" />
    <glyph glyph-name="edotaccent" unicode="&#x117;" 
d="M423 233h-313q-6 -37 -6 -62q0 -51 26 -80.5t72 -29.5q44 0 81 29t50 74h72q-28 -85 -86 -132t-133 -47t-116 49t-41 138q0 147 74.5 256.5t185.5 109.5q74 0 109.5 -52t35.5 -132q0 -44 -11 -121zM361 303q2 36 2 47q0 50 -24.5 79.5t-66.5 29.5q-52 0 -93 -43t-57 -113
h239zM337 607h-86l17 96h86z" />
    <glyph glyph-name="Eogonek" unicode="&#x118;" horiz-adv-x="547" 
d="M426 -230h-35q-45 0 -76.5 22.5t-31.5 59.5q0 42 21 76.5t66 71.5h-339l125 718h429l-15 -86h-349l-39 -220h323l-15 -86h-323l-41 -240h355l-15 -86q-52 -14 -87 -61q-19 -26 -19 -54q0 -42 46 -42h31z" />
    <glyph glyph-name="eogonek" unicode="&#x119;" 
d="M423 233h-313q-6 -37 -6 -62q0 -51 26 -80.5t72 -29.5q44 0 81 29t50 74h72q-32 -93 -98 -141q-61 -43 -91 -84q-19 -26 -19 -54q0 -42 46 -42h31l-11 -73h-35q-45 0 -76.5 22.5t-31.5 59.5q0 70 70 133h-4q-75 0 -116 49t-41 138q0 147 74.5 256.5t185.5 109.5
q74 0 109.5 -52t35.5 -132q0 -44 -11 -121zM361 303q2 36 2 47q0 50 -24.5 79.5t-66.5 29.5q-52 0 -93 -43t-57 -113h239z" />
    <glyph glyph-name="Ecaron" unicode="&#x11a;" horiz-adv-x="547" 
d="M466 0h-435l125 718h429l-15 -86h-349l-39 -220h323l-15 -86h-323l-41 -240h355zM537 901l-117 -121h-77l-75 121h66l56 -73l82 73h65z" />
    <glyph glyph-name="ecaron" unicode="&#x11b;" 
d="M423 233h-313q-6 -37 -6 -62q0 -51 26 -80.5t72 -29.5q44 0 81 29t50 74h72q-28 -85 -86 -132t-133 -47t-116 49t-41 138q0 147 74.5 256.5t185.5 109.5q74 0 109.5 -52t35.5 -132q0 -44 -11 -121zM361 303q2 36 2 47q0 50 -24.5 79.5t-66.5 29.5q-52 0 -93 -43t-57 -113
h239zM433 726l-106 -141h-76l-56 141h65l38 -93l70 93h65z" />
    <glyph glyph-name="Gcircumflex" unicode="&#x11c;" horiz-adv-x="638" 
d="M538 0h-52l-3 93q-95 -112 -218 -112q-103 0 -158.5 77t-55.5 188q0 128 48 241t130 181.5t176 68.5t152 -59t58 -154v-24h-77q-11 151 -146 151q-108 0 -182.5 -115.5t-74.5 -283.5q0 -188 156 -188q82 0 142 58.5t82 178.5h-183l14 83h258zM546 780h-66l-56 73l-82 -73
h-65l117 121h77z" />
    <glyph glyph-name="gcircumflex" unicode="&#x11d;" 
d="M460 523l-84 -480q-23 -136 -83 -199.5t-160 -63.5q-70 0 -104.5 35t-34.5 111v10h72q2 -44 21.5 -63.5t60.5 -19.5q65 0 101.5 40.5t53.5 143.5l4 21q-54 -73 -131 -73q-68 0 -106 52.5t-38 146.5q0 148 67.5 251t163.5 103q43 0 69 -20.5t46 -71.5l14 77h68zM351 334
q0 125 -89 125q-74 0 -115 -81.5t-41 -192.5q0 -58 22.5 -91t63.5 -33q68 0 113.5 75.5t45.5 197.5zM409 585h-65l-38 93l-70 -93h-65l106 141h76z" />
    <glyph glyph-name="Gbreve" unicode="&#x11e;" horiz-adv-x="638" 
d="M538 0h-52l-3 93q-95 -112 -218 -112q-103 0 -158.5 77t-55.5 188q0 128 48 241t130 181.5t176 68.5t152 -59t58 -154v-24h-77q-11 151 -146 151q-108 0 -182.5 -115.5t-74.5 -283.5q0 -188 156 -188q82 0 142 58.5t82 178.5h-183l14 83h258zM568 898q-27 -58 -65 -87
t-94 -29q-54 0 -81 29t-32 87h40l1 -7q31 -52 87 -52q35 0 56.5 14t38.5 45h49z" />
    <glyph glyph-name="gbreve" unicode="&#x11f;" 
d="M460 523l-84 -480q-23 -136 -83 -199.5t-160 -63.5q-70 0 -104.5 35t-34.5 111v10h72q2 -44 21.5 -63.5t60.5 -19.5q65 0 101.5 40.5t53.5 143.5l4 21q-54 -73 -131 -73q-68 0 -106 52.5t-38 146.5q0 148 67.5 251t163.5 103q43 0 69 -20.5t46 -71.5l14 77h68zM351 334
q0 125 -89 125q-74 0 -115 -81.5t-41 -192.5q0 -58 22.5 -91t63.5 -33q68 0 113.5 75.5t45.5 197.5zM441 723q-22 -71 -58.5 -103.5t-94.5 -32.5q-49 0 -76 27.5t-25 79.5l1 29h40q4 -42 21.5 -60.5t53.5 -18.5t58 17.5t41 61.5h39z" />
    <glyph glyph-name="Gdotaccent" unicode="&#x120;" horiz-adv-x="638" 
d="M538 0h-52l-3 93q-95 -112 -218 -112q-103 0 -158.5 77t-55.5 188q0 128 48 241t130 181.5t176 68.5t152 -59t58 -154v-24h-77q-11 151 -146 151q-108 0 -182.5 -115.5t-74.5 -283.5q0 -188 156 -188q82 0 142 58.5t82 178.5h-183l14 83h258zM458 792h-86l17 96h86z" />
    <glyph glyph-name="gdotaccent" unicode="&#x121;" 
d="M460 523l-84 -480q-23 -136 -83 -199.5t-160 -63.5q-70 0 -104.5 35t-34.5 111v10h72q2 -44 21.5 -63.5t60.5 -19.5q65 0 101.5 40.5t53.5 143.5l4 21q-54 -73 -131 -73q-68 0 -106 52.5t-38 146.5q0 148 67.5 251t163.5 103q43 0 69 -20.5t46 -71.5l14 77h68zM351 334
q0 125 -89 125q-74 0 -115 -81.5t-41 -192.5q0 -58 22.5 -91t63.5 -33q68 0 113.5 75.5t45.5 197.5zM337 607h-86l17 96h86z" />
    <glyph glyph-name="Gcommaaccent" unicode="&#x122;" horiz-adv-x="638" 
d="M538 0h-52l-3 93q-95 -112 -218 -112q-103 0 -158.5 77t-55.5 188q0 128 48 241t130 181.5t176 68.5t152 -59t58 -154v-24h-77q-11 151 -146 151q-108 0 -182.5 -115.5t-74.5 -283.5q0 -188 156 -188q82 0 142 58.5t82 178.5h-183l14 83h258zM290 -154
q-10 -60 -36.5 -94.5t-63.5 -37.5l7 39q42 4 54 86h-40l18 101h77z" />
    <glyph glyph-name="gcommaaccent" unicode="&#x123;" 
d="M344 671l-18 -101h-77l16 94q10 60 36.5 94.5t63.5 37.5l-7 -39q-42 -4 -54 -86h40zM460 523l-84 -480q-23 -136 -83 -199.5t-160 -63.5q-70 0 -104.5 35t-34.5 111v10h72q2 -44 21.5 -63.5t60.5 -19.5q65 0 101.5 40.5t53.5 143.5l4 21q-54 -73 -131 -73
q-68 0 -106 52.5t-38 146.5q0 148 67.5 251t163.5 103q43 0 69 -20.5t46 -71.5l14 77h68zM351 334q0 125 -89 125q-74 0 -115 -81.5t-41 -192.5q0 -58 22.5 -91t63.5 -33q68 0 113.5 75.5t45.5 197.5z" />
    <glyph glyph-name="Hcircumflex" unicode="&#x124;" horiz-adv-x="592" 
d="M490 0h-80l59 335h-308l-58 -335h-80l125 718h80l-52 -297h308l51 297h80zM526 780h-66l-56 73l-82 -73h-65l117 121h77z" />
    <glyph glyph-name="hcircumflex" unicode="&#x125;" 
d="M363 0h-72l59 342q5 27 5 48q0 69 -68 69q-58 0 -98 -45.5t-54 -128.5l-50 -285h-72l125 718h73l-47 -267q40 49 72 68t75 19q56 0 87.5 -33.5t31.5 -94.5q0 -22 -5 -54zM458 780h-66l-56 73l-82 -73h-65l117 121h77z" />
    <glyph glyph-name="Hbar" unicode="&#x126;" horiz-adv-x="592" 
d="M626 552h-40l-96 -552h-80l59 335h-308l-58 -335h-80l96 552h-40l8 45h40l21 121h80l-21 -121h307l21 121h80l-21 -121h40zM484 421l22 131h-307l-23 -131h308z" />
    <glyph glyph-name="hbar" unicode="&#x127;" horiz-adv-x="496" 
d="M401 0h-72l59 342q5 27 5 48q0 69 -68 69q-58 0 -98 -45.5t-54 -128.5l-50 -285h-72l90 515l-39 -17l8 50l39 17l27 153h73l-21 -120l111 48l-9 -51l-111 -47l-17 -97q40 49 72 68t75 19q56 0 87.5 -33.5t31.5 -94.5q0 -22 -5 -54z" />
    <glyph glyph-name="Itilde" unicode="&#x128;" horiz-adv-x="228" 
d="M114 0h-79l125 718h79zM371 898q-34 -109 -102 -109q-16 0 -45 13l-20 9q-35 15 -47 15q-28 0 -47 -44h-39q17 56 42 81.5t62 25.5q25 0 53 -15l17 -9q24 -13 38 -13q30 0 47 46h41z" />
    <glyph glyph-name="itilde" unicode="&#x129;" horiz-adv-x="228" 
d="M110 0h-72l91 523h72zM337 713q-34 -109 -102 -109q-16 0 -45 13l-20 9q-34 15 -47 15q-28 0 -47 -44h-39q17 56 42 81.5t62 25.5q25 0 53 -15l17 -9q24 -13 38 -13q30 0 47 46h41z" />
    <glyph glyph-name="Imacron" unicode="&#x12a;" horiz-adv-x="228" 
d="M114 0h-79l125 718h79zM354 869l-10 -57h-257l10 57h257z" />
    <glyph glyph-name="imacron" unicode="&#x12b;" horiz-adv-x="228" 
d="M110 0h-72l91 523h72zM321 684l-10 -57h-257l10 57h257z" />
    <glyph glyph-name="Ibreve" unicode="&#x12c;" horiz-adv-x="228" 
d="M114 0h-79l125 718h79zM366 898q-27 -58 -65 -87t-94 -29q-54 0 -81 29t-32 87h40l1 -7q31 -52 87 -52q35 0 56.5 14t38.5 45h49z" />
    <glyph glyph-name="ibreve" unicode="&#x12d;" horiz-adv-x="228" 
d="M110 0h-72l91 523h72zM327 723q-22 -71 -58.5 -103.5t-94.5 -32.5q-49 0 -76 27.5t-25 79.5l1 29h40q4 -42 21.5 -60.5t53.5 -18.5t58 17.5t41 61.5h39z" />
    <glyph glyph-name="Iogonek" unicode="&#x12e;" horiz-adv-x="228" 
d="M94 -230h-35q-45 0 -76.5 22.5t-31.5 59.5q0 42 21 76.5t66 71.5h-3l125 718h79l-125 -718q-39 -23 -67 -61q-19 -26 -19 -54q0 -42 46 -42h31z" />
    <glyph glyph-name="iogonek" unicode="&#x12f;" horiz-adv-x="228" 
d="M90 -230h-35q-45 0 -76.5 22.5t-31.5 59.5q0 43 25 83.5t66 64.5l91 523h72l-91 -523q-39 -23 -67 -61q-19 -26 -19 -54q0 -42 46 -42h31zM223 607h-86l17 96h86z" />
    <glyph glyph-name="Idotaccent" unicode="&#x130;" horiz-adv-x="228" 
d="M114 0h-79l125 718h79zM256 792h-86l17 96h86z" />
    <glyph glyph-name="dotlessi" unicode="&#x131;" horiz-adv-x="182" 
d="M87 0h-72l91 523h72z" />
    <glyph glyph-name="Jcircumflex" unicode="&#x134;" horiz-adv-x="410" 
d="M345 194q-18 -102 -72 -157.5t-135 -55.5q-67 0 -103 36t-36 103q0 20 3 40l13 71h74l-8 -50q-5 -32 -4 -42q0 -75 72 -75q93 0 115 124l93 530h79zM541 780h-66l-56 73l-82 -73h-65l117 121h77z" />
    <glyph glyph-name="jcircumflex" unicode="&#x135;" horiz-adv-x="182" 
d="M74 -77q-12 -68 -44 -100.5t-87 -32.5q-15 0 -32 3l13 76h15q34 0 45 11t19 53l103 590h72zM272 585h-65l-38 93l-70 -93h-65l106 141h76z" />
    <glyph glyph-name="Kcommaaccent" unicode="&#x136;" horiz-adv-x="547" 
d="M503 0h-103l-143 360l-112 -108l-43 -252h-80l125 718h80l-61 -348l346 348h110l-296 -290zM237 -154q-10 -60 -36.5 -94.5t-63.5 -37.5l7 39q42 4 54 86h-40l18 101h77z" />
    <glyph glyph-name="kcommaaccent" unicode="&#x137;" horiz-adv-x="410" 
d="M371 0h-93l-87 264l-72 -66l-34 -198h-70l125 718h70l-73 -416l223 221h92l-198 -195zM179 -154q-10 -60 -36.5 -94.5t-63.5 -37.5l7 39q42 4 54 86h-40l18 101h77z" />
    <glyph glyph-name="Lacute" unicode="&#x139;" 
d="M400 0h-378l125 718h80l-110 -632h298zM341 900l-128 -121h-55l84 121h99z" />
    <glyph glyph-name="lacute" unicode="&#x13a;" horiz-adv-x="182" 
d="M87 0h-72l125 718h72zM334 900l-128 -121h-55l84 121h99z" />
    <glyph glyph-name="Lcommaaccent" unicode="&#x13b;" 
d="M400 0h-378l125 718h80l-110 -632h298zM225 -154q-10 -60 -36.5 -94.5t-63.5 -37.5l7 39q42 4 54 86h-40l18 101h77z" />
    <glyph glyph-name="lcommaaccent" unicode="&#x13c;" horiz-adv-x="182" 
d="M87 0h-72l125 718h72zM65 -154q-10 -60 -36.5 -94.5t-63.5 -37.5l7 39q42 4 54 86h-40l18 101h77z" />
    <glyph glyph-name="Lcaron" unicode="&#x13d;" 
d="M400 0h-378l125 718h80l-110 -632h298zM343 624q-10 -60 -36.5 -94.5t-63.5 -37.5l7 39q42 4 54 86h-40l18 101h77z" />
    <glyph glyph-name="lcaron" unicode="&#x13e;" horiz-adv-x="182" 
d="M87 0h-72l125 718h72zM328 624q-10 -60 -36.5 -94.5t-63.5 -37.5l7 39q42 4 54 86h-40l18 101h77z" />
    <glyph glyph-name="Ldot" unicode="&#x13f;" 
d="M400 0h-378l125 718h80l-110 -632h298zM391 330h-86l16 96h86z" />
    <glyph glyph-name="ldot" unicode="&#x140;" horiz-adv-x="268" 
d="M87 0h-72l125 718h72zM286 330h-86l16 96h86z" />
    <glyph glyph-name="Lslash" unicode="&#x141;" horiz-adv-x="552" 
d="M466 0h-378l43 248l-68 -65l16 89l68 64l66 382h80l-52 -300l180 172l-15 -88l-181 -172l-42 -244h298z" />
    <glyph glyph-name="lslash" unicode="&#x142;" horiz-adv-x="314" 
d="M324 587l-14 -80l-80 -63l-77 -444h-72l67 387l-79 -64l14 79l79 64l44 252h72l-34 -195z" />
    <glyph glyph-name="Nacute" unicode="&#x143;" horiz-adv-x="592" 
d="M490 0h-90l-199 583l-102 -583h-77l125 718h95l194 -583l102 583h77zM547 900l-128 -121h-55l84 121h99z" />
    <glyph glyph-name="nacute" unicode="&#x144;" 
d="M363 0h-72l56 322q5 33 5 60q0 77 -69 77q-55 0 -94.5 -46.5t-53.5 -127.5l-50 -285h-72l91 523h68l-13 -77q38 49 73.5 70.5t79.5 21.5q55 0 86.5 -34t31.5 -94q0 -22 -5 -54zM449 725l-132 -141h-55l88 141h99z" />
    <glyph glyph-name="Ncommaaccent" unicode="&#x145;" horiz-adv-x="592" 
d="M490 0h-90l-199 583l-102 -583h-77l125 718h95l194 -583l102 583h77zM270 -154q-10 -60 -36.5 -94.5t-63.5 -37.5l7 39q42 4 54 86h-40l18 101h77z" />
    <glyph glyph-name="ncommaaccent" unicode="&#x146;" 
d="M363 0h-72l56 322q5 33 5 60q0 77 -69 77q-55 0 -94.5 -46.5t-53.5 -127.5l-50 -285h-72l91 523h68l-13 -77q38 49 73.5 70.5t79.5 21.5q55 0 86.5 -34t31.5 -94q0 -22 -5 -54zM202 -154q-10 -60 -36.5 -94.5t-63.5 -37.5l7 39q42 4 54 86h-40l18 101h77z" />
    <glyph glyph-name="Ncaron" unicode="&#x147;" horiz-adv-x="592" 
d="M490 0h-90l-199 583l-102 -583h-77l125 718h95l194 -583l102 583h77zM548 901l-117 -121h-77l-75 121h66l56 -73l82 73h65z" />
    <glyph glyph-name="ncaron" unicode="&#x148;" 
d="M363 0h-72l56 322q5 33 5 60q0 77 -69 77q-55 0 -94.5 -46.5t-53.5 -127.5l-50 -285h-72l91 523h68l-13 -77q38 49 73.5 70.5t79.5 21.5q55 0 86.5 -34t31.5 -94q0 -22 -5 -54zM433 726l-106 -141h-76l-56 141h65l38 -93l70 93h65z" />
    <glyph glyph-name="Eng" unicode="&#x14a;" horiz-adv-x="592" 
d="M484 -37q-18 -102 -72 -157.5t-135 -55.5q-67 0 -103 36t-36 103q0 21 3 40h75v-21q0 -75 72 -75q39 0 72 28t40 67l8 48l-207 607l-102 -583h-77l125 718h95l194 -583l102 583h77z" />
    <glyph glyph-name="eng" unicode="&#x14b;" 
d="M350 -77q-12 -68 -44 -100.5t-87 -32.5q-15 0 -32 3l13 76h15q34 0 45 11t19 53l68 389q5 33 5 60q0 77 -69 77q-55 0 -94.5 -46.5t-53.5 -127.5l-50 -285h-72l91 523h68l-13 -77q38 49 73.5 70.5t79.5 21.5q55 0 86.5 -34t31.5 -94q0 -22 -5 -54z" />
    <glyph glyph-name="Omacron" unicode="&#x14c;" horiz-adv-x="638" 
d="M637 456q0 -120 -46 -228.5t-130 -177.5t-185 -69q-110 0 -170 73.5t-60 206.5q0 122 46.5 231t130.5 177t184 68q109 0 169.5 -73.5t60.5 -207.5zM554 445q0 96 -43 151t-119 55q-109 0 -186 -110.5t-77 -266.5q0 -97 43 -152t118 -55q109 0 186.5 112t77.5 266z
M558 869l-10 -57h-257l10 57h257z" />
    <glyph glyph-name="omacron" unicode="&#x14d;" 
d="M439 336q0 -136 -74.5 -243t-179.5 -107q-74 0 -115.5 54t-41.5 149q0 136 74.5 242.5t179.5 106.5q73 0 115 -53.5t42 -148.5zM364 325q0 66 -25 101.5t-71 35.5q-69 0 -117 -80.5t-48 -183.5q0 -66 24.5 -101t71.5 -35q69 0 117 81t48 182zM435 684l-10 -57h-257l10 57
h257z" />
    <glyph glyph-name="Obreve" unicode="&#x14e;" horiz-adv-x="638" 
d="M637 456q0 -120 -46 -228.5t-130 -177.5t-185 -69q-110 0 -170 73.5t-60 206.5q0 122 46.5 231t130.5 177t184 68q109 0 169.5 -73.5t60.5 -207.5zM554 445q0 96 -43 151t-119 55q-109 0 -186 -110.5t-77 -266.5q0 -97 43 -152t118 -55q109 0 186.5 112t77.5 266z
M570 898q-27 -58 -65 -87t-94 -29q-54 0 -81 29t-32 87h40l1 -7q31 -52 87 -52q35 0 56.5 14t38.5 45h49z" />
    <glyph glyph-name="obreve" unicode="&#x14f;" 
d="M439 336q0 -136 -74.5 -243t-179.5 -107q-74 0 -115.5 54t-41.5 149q0 136 74.5 242.5t179.5 106.5q73 0 115 -53.5t42 -148.5zM364 325q0 66 -25 101.5t-71 35.5q-69 0 -117 -80.5t-48 -183.5q0 -66 24.5 -101t71.5 -35q69 0 117 81t48 182zM441 723
q-22 -71 -58.5 -103.5t-94.5 -32.5q-49 0 -76 27.5t-25 79.5l1 29h40q4 -42 21.5 -60.5t53.5 -18.5t58 17.5t41 61.5h39z" />
    <glyph glyph-name="Ohungarumlaut" unicode="&#x150;" horiz-adv-x="638" 
d="M637 456q0 -120 -46 -228.5t-130 -177.5t-185 -69q-110 0 -170 73.5t-60 206.5q0 122 46.5 231t130.5 177t184 68q109 0 169.5 -73.5t60.5 -207.5zM554 445q0 96 -43 151t-119 55q-109 0 -186 -110.5t-77 -266.5q0 -97 43 -152t118 -55q109 0 186.5 112t77.5 266z
M500 921l-132 -141h-55l97 141h90zM647 921l-132 -141h-55l98 141h89z" />
    <glyph glyph-name="ohungarumlaut" unicode="&#x151;" 
d="M439 336q0 -136 -74.5 -243t-179.5 -107q-74 0 -115.5 54t-41.5 149q0 136 74.5 242.5t179.5 106.5q73 0 115 -53.5t42 -148.5zM364 325q0 66 -25 101.5t-71 35.5q-69 0 -117 -80.5t-48 -183.5q0 -66 24.5 -101t71.5 -35q69 0 117 81t48 182zM376 726l-132 -141h-55
l97 141h90zM523 726l-132 -141h-55l98 141h89z" />
    <glyph glyph-name="OE" unicode="&#x152;" horiz-adv-x="820" 
d="M751 0h-363l13 78q-43 -55 -81 -76t-91 -21q-90 0 -139.5 66.5t-49.5 187.5q0 127 41.5 241.5t118 187.5t168.5 73q52 0 83.5 -22.5t49.5 -72.5l13 76h361l-15 -86h-286l-39 -220h274l-15 -86h-274l-42 -240h288zM424 230l45 262q4 26 4 39q0 57 -31.5 90t-85.5 33
q-105 0 -166 -121q-29 -58 -49 -141.5t-20 -149.5q0 -178 133 -178q63 0 110 45.5t60 120.5z" />
    <glyph glyph-name="oe" unicode="&#x153;" horiz-adv-x="774" 
d="M740 233h-314q-6 -36 -6 -60q0 -52 26.5 -82t71.5 -30q44 0 81 29t51 74h72q-28 -85 -86 -132t-134 -47q-54 0 -87 23t-58 78q-65 -100 -169 -100q-76 0 -118 53.5t-42 148.5q0 136 74.5 243t178.5 107q103 0 143 -106q43 58 84.5 82t96.5 24q75 0 110.5 -52t35.5 -132
q0 -44 -11 -121zM678 303q2 36 2 47q0 50 -24.5 79.5t-66.5 29.5q-52 0 -93.5 -42.5t-57.5 -113.5h240zM364 325q0 66 -25 101.5t-71 35.5q-69 0 -117 -81.5t-48 -182.5q0 -66 24.5 -101t71.5 -35q69 0 117 81t48 182z" />
    <glyph glyph-name="Racute" unicode="&#x154;" horiz-adv-x="592" 
d="M524 16l-3 -16h-98v17q0 57 18 163q5 33 5 50q0 78 -88 78h-193l-53 -308h-80l125 718h273q80 0 122 -36.5t42 -106.5q0 -143 -116 -222q29 -17 39.5 -35t10.5 -55q0 -23 -3 -45l-18 -130q-3 -21 -3 -34q0 -21 20 -38zM509 552q0 83 -88 83h-199l-42 -244h184
q71 0 108 43.5t37 117.5zM531 900l-128 -121h-55l84 121h99z" />
    <glyph glyph-name="racute" unicode="&#x155;" horiz-adv-x="273" 
d="M325 535l-16 -91h-27q-47 0 -85.5 -39.5t-48.5 -100.5l-53 -304h-72l91 523h68l-16 -90q39 57 71 81t70 24q9 0 18 -3zM358 725l-132 -141h-55l88 141h99z" />
    <glyph glyph-name="Rcommaaccent" unicode="&#x156;" horiz-adv-x="592" 
d="M524 16l-3 -16h-98v17q0 57 18 163q5 33 5 50q0 78 -88 78h-193l-53 -308h-80l125 718h273q80 0 122 -36.5t42 -106.5q0 -143 -116 -222q29 -17 39.5 -35t10.5 -55q0 -23 -3 -45l-18 -130q-3 -21 -3 -34q0 -21 20 -38zM509 552q0 83 -88 83h-199l-42 -244h184
q71 0 108 43.5t37 117.5zM254 -154q-10 -60 -36.5 -94.5t-63.5 -37.5l7 39q42 4 54 86h-40l18 101h77z" />
    <glyph glyph-name="rcommaaccent" unicode="&#x157;" horiz-adv-x="273" 
d="M325 535l-16 -91h-27q-47 0 -85.5 -39.5t-48.5 -100.5l-53 -304h-72l91 523h68l-16 -90q39 57 71 81t70 24q9 0 18 -3zM73 -154q-10 -60 -36.5 -94.5t-63.5 -37.5l7 39q42 4 54 86h-40l18 101h77z" />
    <glyph glyph-name="Rcaron" unicode="&#x158;" horiz-adv-x="592" 
d="M524 16l-3 -16h-98v17q0 57 18 163q5 33 5 50q0 78 -88 78h-193l-53 -308h-80l125 718h273q80 0 122 -36.5t42 -106.5q0 -143 -116 -222q29 -17 39.5 -35t10.5 -55q0 -23 -3 -45l-18 -130q-3 -21 -3 -34q0 -21 20 -38zM509 552q0 83 -88 83h-199l-42 -244h184
q71 0 108 43.5t37 117.5zM532 901l-117 -121h-77l-75 121h66l56 -73l82 73h65z" />
    <glyph glyph-name="rcaron" unicode="&#x159;" horiz-adv-x="273" 
d="M325 535l-16 -91h-27q-47 0 -85.5 -39.5t-48.5 -100.5l-53 -304h-72l91 523h68l-16 -90q39 57 71 81t70 24q9 0 18 -3zM342 726l-106 -141h-76l-56 141h65l38 -93l70 93h65z" />
    <glyph glyph-name="Sacute" unicode="&#x15a;" horiz-adv-x="547" 
d="M507 246q0 -118 -76.5 -191.5t-198.5 -73.5q-93 0 -145.5 49t-52.5 127q0 33 7 75h75q-4 -24 -4 -46q0 -57 37 -89.5t102 -32.5q81 0 128.5 41.5t47.5 111.5q0 36 -23 56.5t-84 38.5l-114 34q-100 30 -100 129q0 107 71.5 184.5t180.5 77.5q88 0 137 -44.5t49 -123.5
q0 -29 -4 -61h-75q2 26 2 33q0 52 -33 82.5t-90 30.5q-69 0 -113 -41.5t-44 -106.5q0 -53 56 -69l159 -47q105 -30 105 -144zM523 900l-128 -121h-55l84 121h99z" />
    <glyph glyph-name="sacute" unicode="&#x15b;" horiz-adv-x="410" 
d="M371 189q0 -85 -60.5 -144.5t-146.5 -59.5q-73 0 -112.5 34.5t-39.5 96.5q0 24 4 52h70q-2 -22 -2 -29q0 -37 24.5 -57.5t69.5 -20.5q51 0 84 27t33 70q0 21 -16.5 34.5t-57.5 26.5l-79 25q-79 25 -79 98q0 82 56.5 139t138.5 57q63 0 99.5 -34.5t36.5 -95.5q0 -6 -2 -34
h-70q2 18 2 22q0 31 -22 48.5t-61 17.5q-46 0 -75 -25t-29 -65q0 -20 13.5 -31t52.5 -23l69 -22q52 -17 75.5 -42.5t23.5 -64.5zM426 725l-132 -141h-55l88 141h99z" />
    <glyph glyph-name="Scircumflex" unicode="&#x15c;" horiz-adv-x="547" 
d="M507 246q0 -118 -76.5 -191.5t-198.5 -73.5q-93 0 -145.5 49t-52.5 127q0 33 7 75h75q-4 -24 -4 -46q0 -57 37 -89.5t102 -32.5q81 0 128.5 41.5t47.5 111.5q0 36 -23 56.5t-84 38.5l-114 34q-100 30 -100 129q0 107 71.5 184.5t180.5 77.5q88 0 137 -44.5t49 -123.5
q0 -29 -4 -61h-75q2 26 2 33q0 52 -33 82.5t-90 30.5q-69 0 -113 -41.5t-44 -106.5q0 -53 56 -69l159 -47q105 -30 105 -144zM502 780h-66l-56 73l-82 -73h-65l117 121h77z" />
    <glyph glyph-name="scircumflex" unicode="&#x15d;" horiz-adv-x="410" 
d="M371 189q0 -85 -60.5 -144.5t-146.5 -59.5q-73 0 -112.5 34.5t-39.5 96.5q0 24 4 52h70q-2 -22 -2 -29q0 -37 24.5 -57.5t69.5 -20.5q51 0 84 27t33 70q0 21 -16.5 34.5t-57.5 26.5l-79 25q-79 25 -79 98q0 82 56.5 139t138.5 57q63 0 99.5 -34.5t36.5 -95.5q0 -6 -2 -34
h-70q2 18 2 22q0 31 -22 48.5t-61 17.5q-46 0 -75 -25t-29 -65q0 -20 13.5 -31t52.5 -23l69 -22q52 -17 75.5 -42.5t23.5 -64.5zM386 585h-65l-38 93l-70 -93h-65l106 141h76z" />
    <glyph glyph-name="Scedilla" unicode="&#x15e;" horiz-adv-x="547" 
d="M507 246q0 -110 -67 -182t-177 -82l-26 -40h8q26 0 41 -17.5t15 -45.5q0 -46 -33 -77.5t-81 -31.5q-35 0 -75 22l21 40q29 -15 49 -15q25 0 40 13.5t15 36.5q0 14 -9.5 23.5t-23.5 9.5q-19 0 -33 -5l-11 19l52 68q-84 5 -131 53t-47 122q0 33 7 75h75q-4 -24 -4 -46
q0 -57 37 -89.5t102 -32.5q81 0 128.5 41.5t47.5 111.5q0 36 -23 56.5t-84 38.5l-114 34q-100 30 -100 129q0 107 71.5 184.5t180.5 77.5q88 0 137 -44.5t49 -123.5q0 -29 -4 -61h-75q2 26 2 33q0 52 -33 82.5t-90 30.5q-69 0 -113 -41.5t-44 -106.5q0 -53 56 -69l159 -47
q105 -30 105 -144z" />
    <glyph glyph-name="scedilla" unicode="&#x15f;" horiz-adv-x="410" 
d="M371 189q0 -76 -49.5 -133t-124.5 -69l-30 -45h8q26 0 41 -17.5t15 -45.5q0 -46 -33 -77.5t-81 -31.5q-35 0 -75 22l21 40q29 -15 49 -15q25 0 40 13.5t15 36.5q0 14 -9.5 23.5t-23.5 9.5q-19 0 -33 -5l-11 19l55 72q-64 4 -98.5 37.5t-34.5 92.5q0 24 4 52h70
q-2 -22 -2 -29q0 -37 24.5 -57.5t69.5 -20.5q51 0 84 27t33 70q0 21 -16.5 34.5t-57.5 26.5l-79 25q-79 25 -79 98q0 82 56.5 139t138.5 57q63 0 99.5 -34.5t36.5 -95.5q0 -6 -2 -34h-70q2 18 2 22q0 31 -22 48.5t-61 17.5q-46 0 -75 -25t-29 -65q0 -20 13.5 -31t52.5 -23
l69 -22q52 -17 75.5 -42.5t23.5 -64.5z" />
    <glyph glyph-name="Scaron" unicode="&#x160;" horiz-adv-x="547" 
d="M507 246q0 -118 -76.5 -191.5t-198.5 -73.5q-93 0 -145.5 49t-52.5 127q0 33 7 75h75q-4 -24 -4 -46q0 -57 37 -89.5t102 -32.5q81 0 128.5 41.5t47.5 111.5q0 36 -23 56.5t-84 38.5l-114 34q-100 30 -100 129q0 107 71.5 184.5t180.5 77.5q88 0 137 -44.5t49 -123.5
q0 -29 -4 -61h-75q2 26 2 33q0 52 -33 82.5t-90 30.5q-69 0 -113 -41.5t-44 -106.5q0 -53 56 -69l159 -47q105 -30 105 -144zM524 901l-117 -121h-77l-75 121h66l56 -73l82 73h65z" />
    <glyph glyph-name="scaron" unicode="&#x161;" horiz-adv-x="410" 
d="M371 189q0 -85 -60.5 -144.5t-146.5 -59.5q-73 0 -112.5 34.5t-39.5 96.5q0 24 4 52h70q-2 -22 -2 -29q0 -37 24.5 -57.5t69.5 -20.5q51 0 84 27t33 70q0 21 -16.5 34.5t-57.5 26.5l-79 25q-79 25 -79 98q0 82 56.5 139t138.5 57q63 0 99.5 -34.5t36.5 -95.5q0 -6 -2 -34
h-70q2 18 2 22q0 31 -22 48.5t-61 17.5q-46 0 -75 -25t-29 -65q0 -20 13.5 -31t52.5 -23l69 -22q52 -17 75.5 -42.5t23.5 -64.5zM410 726l-106 -141h-76l-56 141h65l38 -93l70 93h65z" />
    <glyph glyph-name="Tcedilla" unicode="&#x162;" horiz-adv-x="501" 
d="M560 632h-199l-110 -632h-6l-38 -58h8q26 0 41 -17.5t15 -45.5q0 -46 -33 -77.5t-81 -31.5q-35 0 -75 22l21 40q29 -15 49 -15q25 0 40 13.5t15 36.5q0 14 -9.5 23.5t-23.5 9.5q-19 0 -33 -5l-11 19l66 86h-25l110 632h-199l15 86h478z" />
    <glyph glyph-name="tcedilla" unicode="&#x163;" horiz-adv-x="228" 
d="M151 -121q0 -46 -33 -77.5t-81 -31.5q-35 0 -75 22l21 40q29 -15 49 -15q25 0 40 13.5t15 36.5q0 14 -9.5 23.5t-23.5 9.5q-19 0 -33 -5l-11 19l67 86q-33 15 -33 63q0 23 4 42l60 345h-58l13 73h58l25 146h73l-26 -146h69l-13 -73h-69l-59 -340q-1 -4 -1 -12
q0 -29 37 -29h26l-12 -69l-50 -6l-34 -52h8q26 0 41 -17.5t15 -45.5z" />
    <glyph glyph-name="Tcaron" unicode="&#x164;" horiz-adv-x="501" 
d="M560 632h-199l-110 -632h-80l110 632h-199l15 86h478zM503 901l-117 -121h-77l-75 121h66l56 -73l82 73h65z" />
    <glyph glyph-name="tcaron" unicode="&#x165;" horiz-adv-x="228" 
d="M171 0q-56 -7 -60 -7q-67 0 -67 70q0 23 4 42l60 345h-58l13 73h58l25 146h73l-26 -146h69l-13 -73h-69l-59 -340q-1 -4 -1 -12q0 -29 37 -29h26zM327 683q-10 -60 -36.5 -94.5t-63.5 -37.5l7 39q42 4 54 86h-40l18 101h77z" />
    <glyph glyph-name="Utilde" unicode="&#x168;" horiz-adv-x="592" 
d="M532 252q-22 -124 -98.5 -197.5t-184.5 -73.5q-90 0 -139 51t-49 144q0 37 5 63l84 479h79l-78 -452q-6 -32 -6 -64q0 -65 31.5 -100t90.5 -35q73 0 121.5 51.5t65.5 145.5l80 454h79zM553 898q-34 -109 -102 -109q-16 0 -45 13l-20 9q-34 15 -47 15q-28 0 -47 -44h-39
q17 56 42 81.5t62 25.5q25 0 53 -15l17 -9q24 -13 38 -13q30 0 47 46h41z" />
    <glyph glyph-name="utilde" unicode="&#x169;" 
d="M361 0h-68l14 81q-38 -54 -71.5 -75t-80.5 -21q-56 0 -87 31t-31 87q0 24 4 44l65 376h73l-61 -347q-3 -20 -3 -40q0 -75 67 -75q54 0 94 47t54 127l50 288h72zM451 713q-34 -109 -102 -109q-16 0 -45 13l-20 9q-34 15 -47 15q-28 0 -47 -44h-39q17 56 42 81.5t62 25.5
q25 0 53 -15l17 -9q24 -13 38 -13q30 0 47 46h41z" />
    <glyph glyph-name="Umacron" unicode="&#x16a;" horiz-adv-x="592" 
d="M532 252q-22 -124 -98.5 -197.5t-184.5 -73.5q-90 0 -139 51t-49 144q0 37 5 63l84 479h79l-78 -452q-6 -32 -6 -64q0 -65 31.5 -100t90.5 -35q73 0 121.5 51.5t65.5 145.5l80 454h79zM536 869l-10 -57h-257l10 57h257z" />
    <glyph glyph-name="umacron" unicode="&#x16b;" 
d="M361 0h-68l14 81q-38 -54 -71.5 -75t-80.5 -21q-56 0 -87 31t-31 87q0 24 4 44l65 376h73l-61 -347q-3 -20 -3 -40q0 -75 67 -75q54 0 94 47t54 127l50 288h72zM435 684l-10 -57h-257l10 57h257z" />
    <glyph glyph-name="Ubreve" unicode="&#x16c;" horiz-adv-x="592" 
d="M532 252q-22 -124 -98.5 -197.5t-184.5 -73.5q-90 0 -139 51t-49 144q0 37 5 63l84 479h79l-78 -452q-6 -32 -6 -64q0 -65 31.5 -100t90.5 -35q73 0 121.5 51.5t65.5 145.5l80 454h79zM548 898q-27 -58 -65 -87t-94 -29q-54 0 -81 29t-32 87h40l1 -7q31 -52 87 -52
q35 0 56.5 14t38.5 45h49z" />
    <glyph glyph-name="ubreve" unicode="&#x16d;" 
d="M361 0h-68l14 81q-38 -54 -71.5 -75t-80.5 -21q-56 0 -87 31t-31 87q0 24 4 44l65 376h73l-61 -347q-3 -20 -3 -40q0 -75 67 -75q54 0 94 47t54 127l50 288h72zM441 723q-22 -71 -58.5 -103.5t-94.5 -32.5q-49 0 -76 27.5t-25 79.5l1 29h40q4 -42 21.5 -60.5t53.5 -18.5
t58 17.5t41 61.5h39z" />
    <glyph glyph-name="Uring" unicode="&#x16e;" horiz-adv-x="592" 
d="M532 252q-22 -124 -98.5 -197.5t-184.5 -73.5q-90 0 -139 51t-49 144q0 37 5 63l84 479h79l-78 -452q-6 -32 -6 -64q0 -65 31.5 -100t90.5 -35q73 0 121.5 51.5t65.5 145.5l80 454h79zM507 858q-6 -35 -39 -58.5t-76 -23.5q-44 0 -68.5 23.5t-18.5 60.5q7 35 40 58.5
t76 23.5q44 0 68.5 -23.5t17.5 -60.5zM463 858q4 20 -10.5 34t-37.5 14t-42.5 -13.5t-23.5 -32.5q-3 -20 11 -34t38 -14t43 13.5t22 32.5z" />
    <glyph glyph-name="uring" unicode="&#x16f;" 
d="M361 0h-68l14 81q-38 -54 -71.5 -75t-80.5 -21q-56 0 -87 31t-31 87q0 24 4 44l65 376h73l-61 -347q-3 -20 -3 -40q0 -75 67 -75q54 0 94 47t54 127l50 288h72zM403 654q-6 -35 -39 -58.5t-77 -23.5t-68.5 23.5t-17.5 60.5q6 35 39 58.5t76 23.5q44 0 68.5 -23.5
t18.5 -60.5zM359 654q4 20 -10.5 34t-38.5 14q-23 0 -42.5 -13.5t-22.5 -32.5q-4 -20 10.5 -34t38.5 -14t43 13.5t22 32.5z" />
    <glyph glyph-name="Uhungarumlaut" unicode="&#x170;" horiz-adv-x="592" 
d="M532 252q-22 -124 -98.5 -197.5t-184.5 -73.5q-90 0 -139 51t-49 144q0 37 5 63l84 479h79l-78 -452q-6 -32 -6 -64q0 -65 31.5 -100t90.5 -35q73 0 121.5 51.5t65.5 145.5l80 454h79zM478 921l-132 -141h-55l97 141h90zM625 921l-132 -141h-55l98 141h89z" />
    <glyph glyph-name="uhungarumlaut" unicode="&#x171;" 
d="M361 0h-68l14 81q-38 -54 -71.5 -75t-80.5 -21q-56 0 -87 31t-31 87q0 24 4 44l65 376h73l-61 -347q-3 -20 -3 -40q0 -75 67 -75q54 0 94 47t54 127l50 288h72zM376 726l-132 -141h-55l97 141h90zM523 726l-132 -141h-55l98 141h89z" />
    <glyph glyph-name="Uogonek" unicode="&#x172;" horiz-adv-x="592" 
d="M532 252q-16 -92 -64 -157.5t-118 -94.5q-53 -21 -81 -61q-20 -26 -20 -54q0 -42 46 -42h31l-11 -73h-35q-45 0 -76.5 22.5t-31.5 59.5q0 69 66 129q-85 4 -131 54.5t-46 140.5q0 37 5 63l84 479h79l-78 -452q-6 -32 -6 -64q0 -65 31.5 -100t90.5 -35q73 0 121.5 51.5
t65.5 145.5l80 454h79z" />
    <glyph glyph-name="uogonek" unicode="&#x173;" 
d="M341 -230h-35q-45 0 -76.5 22.5t-31.5 59.5q0 43 22 78q25 43 73 70l14 81q-38 -54 -71.5 -75t-80.5 -21q-56 0 -87 31t-31 87q0 24 4 44l65 376h73l-61 -347q-3 -20 -3 -40q0 -75 67 -75q54 0 94 47t54 127l50 288h72l-91 -523q-39 -23 -67 -61q-19 -26 -19 -54
q0 -42 46 -42h31z" />
    <glyph glyph-name="Wcircumflex" unicode="&#x174;" horiz-adv-x="774" 
d="M846 718l-280 -718h-115v599l-241 -599h-112v718h94v-588l236 588h117v-588l213 588h88zM631 780h-66l-56 73l-82 -73h-65l117 121h77z" />
    <glyph glyph-name="wcircumflex" unicode="&#x175;" horiz-adv-x="592" 
d="M633 523l-216 -523h-91v409l-156 -409h-74l-33 523h89v-415l156 415h93v-415l160 415h72zM477 585h-65l-38 93l-70 -93h-65l106 141h76z" />
    <glyph glyph-name="Ycircumflex" unicode="&#x176;" horiz-adv-x="547" 
d="M621 718l-297 -429l-50 -289h-80l50 289l-147 429h93l108 -345l230 345h93zM504 780h-66l-56 73l-82 -73h-65l117 121h77z" />
    <glyph glyph-name="ycircumflex" unicode="&#x177;" horiz-adv-x="410" 
d="M452 523l-244 -513q-41 -84 -62 -123t-44.5 -65t-42 -31t-52.5 -5q-13 0 -29 6l-6 2l14 80q21 -9 42 -9q23 0 36 13t34 54l27 54l-65 537h82l40 -429l190 429h80zM386 585h-65l-38 93l-70 -93h-65l106 141h76z" />
    <glyph glyph-name="Ydieresis" unicode="&#x178;" horiz-adv-x="547" 
d="M621 718l-297 -429l-50 -289h-80l50 289l-147 429h93l108 -345l230 345h93zM336 792h-88l17 96h88zM497 792h-88l17 96h88z" />
    <glyph glyph-name="Zacute" unicode="&#x179;" horiz-adv-x="501" 
d="M442 0h-463l14 81l457 551h-334l15 86h436l-15 -84l-457 -548h362zM515 900l-128 -121h-55l84 121h99z" />
    <glyph glyph-name="zacute" unicode="&#x17a;" horiz-adv-x="410" 
d="M357 73l-13 -73h-359l12 69l325 381h-239l13 73h332l-13 -72l-321 -378h263zM426 725l-132 -141h-55l88 141h99z" />
    <glyph glyph-name="Zdotaccent" unicode="&#x17b;" horiz-adv-x="501" 
d="M442 0h-463l14 81l457 551h-334l15 86h436l-15 -84l-457 -548h362zM406 792h-86l17 96h86z" />
    <glyph glyph-name="zdotaccent" unicode="&#x17c;" horiz-adv-x="410" 
d="M357 73l-13 -73h-359l12 69l325 381h-239l13 73h332l-13 -72l-321 -378h263zM314 607h-86l17 96h86z" />
    <glyph glyph-name="Zcaron" unicode="&#x17d;" horiz-adv-x="501" 
d="M442 0h-463l14 81l457 551h-334l15 86h436l-15 -84l-457 -548h362zM516 901l-117 -121h-77l-75 121h66l56 -73l82 73h65z" />
    <glyph glyph-name="zcaron" unicode="&#x17e;" horiz-adv-x="410" 
d="M357 73l-13 -73h-359l12 69l325 381h-239l13 73h332l-13 -72l-321 -378h263zM410 726l-106 -141h-76l-56 141h65l38 -93l70 93h65z" />
    <glyph glyph-name="longs" unicode="&#x17f;" horiz-adv-x="228" 
d="M301 726l-14 -79q-26 2 -29 2q-43 0 -53 -61l-102 -588h-72l106 613q9 56 42.5 85.5t87.5 29.5q12 0 34 -2z" />
    <glyph glyph-name="Ereversed" unicode="&#x18e;" horiz-adv-x="547" 
d="M591 718l-125 -718h-435l15 86h355l42 240h-323l16 86h323l37 220h-349l15 86h429z" />
    <glyph glyph-name="florin" unicode="&#x192;" 
d="M497 722l-26 -78q-32 17 -44 17q-24 0 -46 -25.5t-37 -71.5l-34 -103h93l-12 -70h-104l-107 -327q-46 -142 -97.5 -206.5t-119.5 -64.5q-27 0 -46 12l26 81q22 -14 40 -14q34 0 58.5 37t57.5 137l112 345h-89l12 70h101l44 124q24 68 68 110t91 42q30 0 59 -15z" />
    <glyph glyph-name="Ohorn" unicode="&#x1a0;" horiz-adv-x="638" 
d="M693 719q-7 -37 -29 -69t-52 -48q25 -60 25 -146q0 -120 -46 -228.5t-130 -177.5t-185 -69q-110 0 -170 73.5t-60 206.5q0 122 46.5 231t130.5 177t184 68q128 0 188 -99q42 18 55 81h-43l16 96h86zM554 445q0 96 -43 151t-119 55q-109 0 -186 -110.5t-77 -266.5
q0 -97 43 -152t118 -55q109 0 186.5 112t77.5 266z" />
    <glyph glyph-name="ohorn" unicode="&#x1a1;" horiz-adv-x="465" 
d="M497 524q-11 -71 -67 -109q9 -36 9 -79q0 -136 -74.5 -243t-179.5 -107q-74 0 -115.5 54t-41.5 149q0 136 74.5 242.5t179.5 106.5q95 0 134 -85q31 25 38 71h-43l17 96h86zM364 325q0 66 -25 101.5t-71 35.5q-69 0 -117 -80.5t-48 -183.5q0 -66 24.5 -101t71.5 -35
q69 0 117 81t48 182z" />
    <glyph glyph-name="Uhorn" unicode="&#x1af;" horiz-adv-x="590" 
d="M657 719q-9 -52 -45.5 -90.5t-82.5 -38.5l-15 22l18 -360q-22 -124 -98.5 -197.5t-184.5 -73.5q-90 0 -139 51t-49 144q0 37 5 63l84 479h79l-78 -452q-6 -32 -6 -64q0 -65 31.5 -100t90.5 -35q73 0 121.5 51.5t65.5 145.5l80 454h79l1 1h-43l16 96h86z" />
    <glyph glyph-name="uhorn" unicode="&#x1b0;" horiz-adv-x="463" 
d="M495 524q-9 -52 -45 -90.5t-82 -38.5l-15 22l8 -417h-68l14 81q-38 -54 -71.5 -75t-80.5 -21q-56 0 -87 31t-31 87q0 24 4 44l65 376h73l-61 -347q-3 -20 -3 -40q0 -75 67 -75q54 0 94 47t54 127l50 288h72v1h-43l17 96h86z" />
    <glyph glyph-name="eturned" unicode="&#x1dd;" 
d="M436 351q0 -147 -74.5 -256.5t-185.5 -109.5q-74 0 -109.5 52t-35.5 132q0 44 11 121h313q6 37 6 62q0 51 -26 80.5t-72 29.5q-44 0 -81 -29t-50 -74h-72q28 85 86 132t133 47t116 -49t41 -138zM343 220h-239q-2 -36 -2 -47q0 -50 24.5 -79.5t66.5 -29.5q52 0 93 43
t57 113z" />
    <glyph glyph-name="Gcaron" unicode="&#x1e6;" horiz-adv-x="638" 
d="M538 0h-52l-3 93q-95 -112 -218 -112q-103 0 -158.5 77t-55.5 188q0 128 48 241t130 181.5t176 68.5t152 -59t58 -154v-24h-77q-11 151 -146 151q-108 0 -182.5 -115.5t-74.5 -283.5q0 -188 156 -188q82 0 142 58.5t82 178.5h-183l14 83h258zM568 901l-117 -121h-77
l-75 121h66l56 -73l82 73h65z" />
    <glyph glyph-name="gcaron" unicode="&#x1e7;" 
d="M460 523l-84 -480q-23 -136 -83 -199.5t-160 -63.5q-70 0 -104.5 35t-34.5 111v10h72q2 -44 21.5 -63.5t60.5 -19.5q65 0 101.5 40.5t53.5 143.5l4 21q-54 -73 -131 -73q-68 0 -106 52.5t-38 146.5q0 148 67.5 251t163.5 103q43 0 69 -20.5t46 -71.5l14 77h68zM351 334
q0 125 -89 125q-74 0 -115 -81.5t-41 -192.5q0 -58 22.5 -91t63.5 -33q68 0 113.5 75.5t45.5 197.5zM433 726l-106 -141h-76l-56 141h65l38 -93l70 93h65z" />
    <glyph glyph-name="Oogonek" unicode="&#x1ea;" horiz-adv-x="638" 
d="M637 456q0 -151 -72.5 -281t-187.5 -175q-51 -20 -79 -61q-20 -26 -20 -54q0 -42 46 -42h31l-11 -73h-35q-45 0 -76.5 22.5t-31.5 59.5q0 69 65 129q-106 4 -163 77t-57 203q0 122 46.5 231t130.5 177t184 68q109 0 169.5 -73.5t60.5 -207.5zM554 445q0 96 -43 151
t-119 55q-109 0 -186 -110.5t-77 -266.5q0 -97 43 -152t118 -55q109 0 186.5 112t77.5 266z" />
    <glyph glyph-name="oogonek" unicode="&#x1eb;" 
d="M439 336q0 -102 -44.5 -193t-116.5 -132q-46 -25 -80 -72q-19 -26 -19 -54q0 -42 46 -42h31l-11 -73h-35q-45 0 -76.5 22.5t-31.5 59.5q0 71 71 134q-68 5 -106.5 58.5t-38.5 144.5q0 136 74.5 242.5t179.5 106.5q73 0 115 -53.5t42 -148.5zM364 325q0 66 -25 101.5
t-71 35.5q-69 0 -117 -80.5t-48 -183.5q0 -66 24.5 -101t71.5 -35q69 0 117 81t48 182z" />
    <glyph glyph-name="Gacute" unicode="&#x1f4;" horiz-adv-x="638" 
d="M538 0h-52l-3 93q-95 -112 -218 -112q-103 0 -158.5 77t-55.5 188q0 128 48 241t130 181.5t176 68.5t152 -59t58 -154v-24h-77q-11 151 -146 151q-108 0 -182.5 -115.5t-74.5 -283.5q0 -188 156 -188q82 0 142 58.5t82 178.5h-183l14 83h258zM567 900l-128 -121h-55
l84 121h99z" />
    <glyph glyph-name="gacute" unicode="&#x1f5;" 
d="M460 523l-84 -480q-23 -136 -83 -199.5t-160 -63.5q-70 0 -104.5 35t-34.5 111v10h72q2 -44 21.5 -63.5t60.5 -19.5q65 0 101.5 40.5t53.5 143.5l4 21q-54 -73 -131 -73q-68 0 -106 52.5t-38 146.5q0 148 67.5 251t163.5 103q43 0 69 -20.5t46 -71.5l14 77h68zM351 334
q0 125 -89 125q-74 0 -115 -81.5t-41 -192.5q0 -58 22.5 -91t63.5 -33q68 0 113.5 75.5t45.5 197.5zM449 725l-132 -141h-55l88 141h99z" />
    <glyph glyph-name="Aringacute" unicode="&#x1fa;" horiz-adv-x="547" 
d="M496 0h-87l-22 209h-236l-98 -209h-82l347 718h90zM374 295l-33 319l-150 -319h183zM562 1083l-129 -121h-55l85 121h99zM489 858q-6 -35 -39 -58.5t-76 -23.5q-44 0 -68.5 23.5t-18.5 60.5q7 35 40 58.5t76 23.5q44 0 68.5 -23.5t17.5 -60.5zM445 858q4 20 -10.5 34
t-37.5 14t-42.5 -13.5t-23.5 -32.5q-3 -20 11 -34t38 -14t43 13.5t22 32.5z" />
    <glyph glyph-name="aringacute" unicode="&#x1fb;" 
d="M406 64l-12 -64l-9 -3q-19 -7 -34 -7q-62 0 -62 56q0 6 2 24q-81 -85 -167 -85q-53 0 -83.5 31t-30.5 85q0 79 44.5 134t117.5 65l122 18q50 8 50 82q0 65 -86 65q-47 0 -74 -23t-44 -78h-66q39 174 202 174q67 0 104.5 -30.5t37.5 -84.5q0 -16 -3 -31l-54 -312
q0 -20 19 -20q9 0 26 4zM306 181l15 86q-19 -16 -125 -33q-57 -10 -83 -37t-26 -76q0 -63 63 -63q55 0 101 36.5t55 86.5zM472 888l-129 -121h-55l85 121h99zM399 663q-6 -35 -39 -58.5t-76 -23.5q-44 0 -68.5 23.5t-18.5 60.5q7 35 40 58.5t76 23.5q44 0 68.5 -23.5
t17.5 -60.5zM355 663q4 20 -10.5 34t-37.5 14t-42.5 -13.5t-23.5 -32.5q-3 -20 11 -34t38 -14t43 13.5t22 32.5z" />
    <glyph glyph-name="AEacute" unicode="&#x1fc;" horiz-adv-x="820" 
d="M740 0h-405l36 209h-217l-101 -209h-86l364 718h528l-15 -86h-320l-38 -220h292l-15 -86h-292l-42 -240h326zM445 632h-79l-168 -337h188zM661 900l-128 -121h-55l84 121h99z" />
    <glyph glyph-name="aeacute" unicode="&#x1fd;" horiz-adv-x="729" 
d="M695 233h-313q-6 -38 -6 -62q0 -51 26 -80.5t71 -29.5q44 0 81 29t51 74h72q-29 -85 -86.5 -132t-133.5 -47q-59 0 -92 25.5t-50 83.5q-45 -58 -88.5 -83.5t-99.5 -25.5q-55 0 -86 30.5t-31 85.5q0 79 44.5 134t117.5 65l122 18q50 8 50 82q0 65 -86 65q-47 0 -74 -23
t-44 -78h-66q21 91 71.5 132.5t136.5 41.5q47 0 74 -15.5t52 -58.5q42 42 75 58t78 16q73 0 109 -52t36 -132q0 -44 -11 -121zM633 303q2 36 2 47q0 50 -24.5 79.5t-66.5 29.5q-52 0 -93.5 -43t-56.5 -113h239zM306 181l15 86q-12 -11 -34 -16.5t-91 -16.5
q-109 -17 -109 -112q0 -64 63 -64q55 0 101 36.5t55 86.5zM586 725l-132 -141h-55l88 141h99z" />
    <glyph glyph-name="Oslashacute" unicode="&#x1fe;" horiz-adv-x="638" 
d="M690 707l-84 -91q31 -78 31 -161q0 -119 -46 -227.5t-130.5 -177.5t-185.5 -69q-60 0 -102 20.5t-76 66.5l-81 -87l-21 28l84 90q-33 79 -33 164q0 119 46 227.5t130.5 177.5t186.5 69q60 0 102.5 -21t76.5 -68l82 89zM554 443q0 49 -16 100l-376 -405q47 -71 128 -71
q109 0 186.5 113t77.5 263zM523 578q-47 73 -130 73q-109 0 -186.5 -112.5t-77.5 -262.5q0 -52 16 -105zM570 900l-128 -121h-55l84 121h99z" />
    <glyph glyph-name="oslashacute" unicode="&#x1ff;" horiz-adv-x="501" 
d="M491 519l-70 -78q19 -54 19 -106q0 -88 -33 -168t-92.5 -130.5t-129.5 -50.5q-75 0 -119 60l-61 -68l-21 26l65 72q-21 55 -21 113q0 136 75 242.5t180 106.5q77 0 122 -65l65 72zM349 410q-27 52 -80 52q-67 0 -116 -78t-49 -187q0 -24 5 -54zM365 326q0 19 -5 47
l-238 -265q24 -46 77 -46q66 0 116 78t50 186zM472 725l-132 -141h-55l88 141h99z" />
    <glyph glyph-name="Adblgrave" unicode="&#x200;" horiz-adv-x="547" 
d="M496 0h-87l-22 209h-236l-98 -209h-82l347 718h90zM374 295l-33 319l-150 -319h183zM476 780h-55l-83 141h90zM329 780h-55l-83 141h89z" />
    <glyph glyph-name="adblgrave" unicode="&#x201;" 
d="M406 64l-12 -64l-9 -3q-19 -7 -34 -7q-62 0 -62 56q0 6 2 24q-81 -85 -167 -85q-53 0 -83.5 31t-30.5 85q0 79 44.5 134t117.5 65l122 18q50 8 50 82q0 65 -86 65q-47 0 -74 -23t-44 -78h-66q39 174 202 174q67 0 104.5 -30.5t37.5 -84.5q0 -16 -3 -31l-54 -312
q0 -20 19 -20q9 0 26 4zM306 181l15 86q-19 -16 -125 -33q-57 -10 -83 -37t-26 -76q0 -63 63 -63q55 0 101 36.5t55 86.5zM386 585h-55l-83 141h90zM239 585h-55l-83 141h89z" />
    <glyph glyph-name="Edblgrave" unicode="&#x204;" horiz-adv-x="547" 
d="M466 0h-435l125 718h429l-15 -86h-349l-39 -220h323l-15 -86h-323l-41 -240h355zM483 780h-55l-83 141h90zM336 780h-55l-83 141h89z" />
    <glyph glyph-name="edblgrave" unicode="&#x205;" 
d="M423 233h-313q-6 -37 -6 -62q0 -51 26 -80.5t72 -29.5q44 0 81 29t50 74h72q-28 -85 -86 -132t-133 -47t-116 49t-41 138q0 147 74.5 256.5t185.5 109.5q74 0 109.5 -52t35.5 -132q0 -44 -11 -121zM361 303q2 36 2 47q0 50 -24.5 79.5t-66.5 29.5q-52 0 -93 -43t-57 -113
h239zM392 585h-55l-83 141h90zM245 585h-55l-83 141h89z" />
    <glyph glyph-name="Idblgrave" unicode="&#x208;" horiz-adv-x="228" 
d="M114 0h-79l125 718h79zM312 780h-55l-83 141h90zM165 780h-55l-83 141h89z" />
    <glyph glyph-name="idblgrave" unicode="&#x209;" horiz-adv-x="228" 
d="M110 0h-72l91 523h72zM278 585h-55l-83 141h90zM131 585h-55l-83 141h89z" />
    <glyph glyph-name="Odblgrave" unicode="&#x20c;" horiz-adv-x="638" 
d="M637 456q0 -120 -46 -228.5t-130 -177.5t-185 -69q-110 0 -170 73.5t-60 206.5q0 122 46.5 231t130.5 177t184 68q109 0 169.5 -73.5t60.5 -207.5zM554 445q0 96 -43 151t-119 55q-109 0 -186 -110.5t-77 -266.5q0 -97 43 -152t118 -55q109 0 186.5 112t77.5 266z
M516 780h-55l-83 141h90zM369 780h-55l-83 141h89z" />
    <glyph glyph-name="odblgrave" unicode="&#x20d;" 
d="M439 336q0 -136 -74.5 -243t-179.5 -107q-74 0 -115.5 54t-41.5 149q0 136 74.5 242.5t179.5 106.5q73 0 115 -53.5t42 -148.5zM364 325q0 66 -25 101.5t-71 35.5q-69 0 -117 -80.5t-48 -183.5q0 -66 24.5 -101t71.5 -35q69 0 117 81t48 182zM392 585h-55l-83 141h90z
M245 585h-55l-83 141h89z" />
    <glyph glyph-name="Rdblgrave" unicode="&#x210;" horiz-adv-x="592" 
d="M524 16l-3 -16h-98v17q0 57 18 163q5 33 5 50q0 78 -88 78h-193l-53 -308h-80l125 718h273q80 0 122 -36.5t42 -106.5q0 -143 -116 -222q29 -17 39.5 -35t10.5 -55q0 -23 -3 -45l-18 -130q-3 -21 -3 -34q0 -21 20 -38zM509 552q0 83 -88 83h-199l-42 -244h184
q71 0 108 43.5t37 117.5zM478 780h-55l-83 141h90zM331 780h-55l-83 141h89z" />
    <glyph glyph-name="rdblgrave" unicode="&#x211;" horiz-adv-x="273" 
d="M325 535l-16 -91h-27q-47 0 -85.5 -39.5t-48.5 -100.5l-53 -304h-72l91 523h68l-16 -90q39 57 71 81t70 24q9 0 18 -3zM300 585h-55l-83 141h90zM153 585h-55l-83 141h89z" />
    <glyph glyph-name="Udblgrave" unicode="&#x214;" horiz-adv-x="592" 
d="M532 252q-22 -124 -98.5 -197.5t-184.5 -73.5q-90 0 -139 51t-49 144q0 37 5 63l84 479h79l-78 -452q-6 -32 -6 -64q0 -65 31.5 -100t90.5 -35q73 0 121.5 51.5t65.5 145.5l80 454h79zM494 780h-55l-83 141h90zM347 780h-55l-83 141h89z" />
    <glyph glyph-name="udblgrave" unicode="&#x215;" 
d="M361 0h-68l14 81q-38 -54 -71.5 -75t-80.5 -21q-56 0 -87 31t-31 87q0 24 4 44l65 376h73l-61 -347q-3 -20 -3 -40q0 -75 67 -75q54 0 94 47t54 127l50 288h72zM392 585h-55l-83 141h90zM245 585h-55l-83 141h89z" />
    <glyph glyph-name="uni0218" unicode="&#x218;" horiz-adv-x="547" 
d="M507 246q0 -118 -76.5 -191.5t-198.5 -73.5q-93 0 -145.5 49t-52.5 127q0 33 7 75h75q-4 -24 -4 -46q0 -57 37 -89.5t102 -32.5q81 0 128.5 41.5t47.5 111.5q0 36 -23 56.5t-84 38.5l-114 34q-100 30 -100 129q0 107 71.5 184.5t180.5 77.5q88 0 137 -44.5t49 -123.5
q0 -29 -4 -61h-75q2 26 2 33q0 52 -33 82.5t-90 30.5q-69 0 -113 -41.5t-44 -106.5q0 -53 56 -69l159 -47q105 -30 105 -144zM246 -154q-10 -60 -36.5 -94.5t-63.5 -37.5l7 39q42 4 54 86h-40l18 101h77z" />
    <glyph glyph-name="uni0219" unicode="&#x219;" horiz-adv-x="410" 
d="M371 189q0 -85 -60.5 -144.5t-146.5 -59.5q-73 0 -112.5 34.5t-39.5 96.5q0 24 4 52h70q-2 -22 -2 -29q0 -37 24.5 -57.5t69.5 -20.5q51 0 84 27t33 70q0 21 -16.5 34.5t-57.5 26.5l-79 25q-79 25 -79 98q0 82 56.5 139t138.5 57q63 0 99.5 -34.5t36.5 -95.5q0 -6 -2 -34
h-70q2 18 2 22q0 31 -22 48.5t-61 17.5q-46 0 -75 -25t-29 -65q0 -20 13.5 -31t52.5 -23l69 -22q52 -17 75.5 -42.5t23.5 -64.5zM179 -154q-10 -60 -36.5 -94.5t-63.5 -37.5l7 39q42 4 54 86h-40l18 101h77z" />
    <glyph glyph-name="uni021A" unicode="&#x21a;" horiz-adv-x="501" 
d="M560 632h-199l-110 -632h-80l110 632h-199l15 86h478zM225 -154q-10 -60 -36.5 -94.5t-63.5 -37.5l7 39q42 4 54 86h-40l18 101h77z" />
    <glyph glyph-name="uni021B" unicode="&#x21b;" horiz-adv-x="228" 
d="M171 0q-56 -7 -60 -7q-67 0 -67 70q0 23 4 42l60 345h-58l13 73h58l25 146h73l-26 -146h69l-13 -73h-69l-59 -340q-1 -4 -1 -12q0 -29 37 -29h26zM88 -154q-10 -60 -36.5 -94.5t-63.5 -37.5l7 39q42 4 54 86h-40l18 101h77z" />
    <glyph glyph-name="ereversed" unicode="&#x258;" 
d="M405 172q-32 -89 -90 -138t-133 -49t-116 47t-40 132h72q-2 -45 24.5 -74t70.5 -29q46 0 82.5 29.5t53.5 80.5q8 21 16 62h-313q16 79 31 121q28 80 82 132t128 52t116.5 -52.5t44.5 -134t-29 -179.5zM357 303q9 70 -17 113t-78 43q-42 0 -77 -29.5t-52 -79.5
q-3 -7 -8 -23.5t-7 -23.5h239z" />
    <glyph glyph-name="schwa" unicode="&#x259;" 
d="M436 351q0 -147 -74.5 -256.5t-185.5 -109.5q-74 0 -109.5 52t-35.5 132q0 44 11 121h313q6 37 6 62q0 51 -26 80.5t-72 29.5q-44 0 -81 -29t-50 -74h-72q28 85 86 132t133 47t116 -49t41 -138zM343 220h-239q-2 -36 -2 -47q0 -50 24.5 -79.5t66.5 -29.5q52 0 93 43
t57 113z" />
    <glyph glyph-name="ringhalfright" unicode="&#x2be;" horiz-adv-x="371" 
d="M370 568q0 -102 -53 -178t-131 -76q-44 0 -69 28.5t-26 77.5q1 4 1.5 14t0.5 15q0 9 10 9h46q5 0 7 -7q1 -37 11.5 -52.5t36.5 -15.5q44 0 71 53t27 124q0 73 -52 73q-49 0 -76 -77q-2 -6 -9 -6h-47q-9 0 -5 9q42 140 148 140q50 0 79 -35t30 -96z" />
    <glyph glyph-name="ringhalfleft" unicode="&#x2bf;" horiz-adv-x="371" 
d="M355 454q-42 -140 -148 -140q-50 0 -79.5 35t-29.5 96q0 102 53 178t131 76q44 0 69 -28.5t25 -77.5q0 -17 -2 -29q1 -4 -2 -6.5t-7 -2.5h-46q-7 0 -7 7q-2 37 -12 52.5t-36 15.5q-44 0 -71 -53t-27 -124q0 -73 52 -73q49 0 76 77q2 6 9 6h47q9 0 5 -9z" />
    <glyph glyph-name="circumflex" unicode="&#x2c6;" horiz-adv-x="273" 
d="M318 585h-65l-38 93l-70 -93h-65l106 141h76z" />
    <glyph glyph-name="caron" unicode="&#x2c7;" horiz-adv-x="273" 
d="M342 726l-106 -141h-76l-56 141h65l38 -93l70 93h65z" />
    <glyph glyph-name="breve" unicode="&#x2d8;" horiz-adv-x="273" 
d="M350 723q-22 -71 -58.5 -103.5t-94.5 -32.5q-49 0 -76 27.5t-25 79.5l1 29h40q4 -42 21.5 -60.5t53.5 -18.5t58 17.5t41 61.5h39z" />
    <glyph glyph-name="dotaccent" unicode="&#x2d9;" horiz-adv-x="273" 
d="M246 607h-86l17 96h86z" />
    <glyph glyph-name="ring" unicode="&#x2da;" horiz-adv-x="273" 
d="M312 654q-6 -35 -39 -58.5t-77 -23.5t-68.5 23.5t-17.5 60.5q6 35 39 58.5t76 23.5q44 0 68.5 -23.5t18.5 -60.5zM268 654q4 20 -10.5 34t-38.5 14q-23 0 -42.5 -13.5t-22.5 -32.5q-4 -20 10.5 -34t38.5 -14t43 13.5t22 32.5z" />
    <glyph glyph-name="ogonek" unicode="&#x2db;" horiz-adv-x="273" 
d="M208 -230h-35q-45 0 -76.5 22.5t-31.5 59.5q0 42 21 76.5t66 71.5h71q-43 -35 -62 -61.5t-19 -53.5q0 -42 46 -42h31z" />
    <glyph glyph-name="tilde" unicode="&#x2dc;" horiz-adv-x="273" 
d="M360 713q-34 -109 -102 -109q-16 0 -45 13l-20 9q-34 15 -47 15q-28 0 -47 -44h-39q17 56 42 81.5t62 25.5q24 0 53 -15l17 -9q24 -13 38 -13q30 0 47 46h41z" />
    <glyph glyph-name="hungarumlaut" unicode="&#x2dd;" horiz-adv-x="273" 
d="M285 726l-132 -141h-55l97 141h90zM432 726l-132 -141h-55l98 141h89z" />
    <glyph glyph-name="uni0300" unicode="&#x300;" horiz-adv-x="0" 
d="M-138 584h-55l-83 141h99z" />
    <glyph glyph-name="uni0301" unicode="&#x301;" horiz-adv-x="0" 
d="M-6 725l-132 -141h-55l88 141h99z" />
    <glyph glyph-name="uni0302" unicode="&#x302;" horiz-adv-x="0" 
d="M-46 585h-65l-38 93l-70 -93h-65l106 141h76z" />
    <glyph glyph-name="uni0303" unicode="&#x303;" horiz-adv-x="0" 
d="M-4 713q-34 -109 -102 -109q-16 0 -45 13l-20 9q-34 15 -47 15q-28 0 -47 -44h-39q17 56 42 81.5t62 25.5q24 0 53 -15l17 -9q24 -13 38 -13q30 0 47 46h41z" />
    <glyph glyph-name="uni0304" unicode="&#x304;" horiz-adv-x="0" 
d="M-20 684l-10 -57h-257l10 57h257z" />
    <glyph glyph-name="uni0306" unicode="&#x306;" horiz-adv-x="0" 
d="M-14 723q-22 -71 -58.5 -103.5t-94.5 -32.5q-49 0 -76 27.5t-25 79.5l1 29h40q4 -42 21.5 -60.5t53.5 -18.5t58 17.5t41 61.5h39z" />
    <glyph glyph-name="uni0307" unicode="&#x307;" horiz-adv-x="0" 
d="M-118 607h-86l17 96h86z" />
    <glyph glyph-name="uni0308" unicode="&#x308;" horiz-adv-x="0" 
d="M-198 607h-88l17 96h88zM-37 607h-88l17 96h88z" />
    <glyph glyph-name="uni0309" unicode="&#x309;" horiz-adv-x="0" 
d="M-45 681q-3 -19 -15 -32t-41 -30q-35 -22 -37 -32l-4 -24h-56l5 27q3 18 15 29.5t43 28.5q33 19 34 33q2 11 -9 18t-32 7q-31 0 -43 -14q-8 -8 -12 -34h-55q15 92 120 92q46 0 69 -18.5t18 -50.5z" />
    <glyph glyph-name="uni030A" unicode="&#x30a;" horiz-adv-x="0" 
d="M-52 654q-6 -35 -39 -58.5t-77 -23.5t-68.5 23.5t-17.5 60.5q6 35 39 58.5t76 23.5q44 0 68.5 -23.5t18.5 -60.5zM-96 654q4 20 -10.5 34t-38.5 14q-23 0 -42.5 -13.5t-22.5 -32.5q-4 -20 10.5 -34t38.5 -14t43 13.5t22 32.5z" />
    <glyph glyph-name="uni030B" unicode="&#x30b;" horiz-adv-x="0" 
d="M-79 726l-132 -141h-55l97 141h90zM68 726l-132 -141h-55l98 141h89z" />
    <glyph glyph-name="uni030C" unicode="&#x30c;" horiz-adv-x="0" 
d="M-22 726l-106 -141h-76l-56 141h65l38 -93l70 93h65z" />
    <glyph glyph-name="uni030F" unicode="&#x30f;" horiz-adv-x="0" 
d="M-64 585h-55l-83 141h90zM-211 585h-55l-83 141h89z" />
    <glyph glyph-name="uni0311" unicode="&#x311;" horiz-adv-x="0" 
d="M-38 587h-40q-4 42 -21.5 60.5t-53.5 18.5t-58 -17.5t-41 -61.5h-39q22 71 58.5 103.5t94.5 32.5q49 0 76 -27.5t25 -79.5z" />
    <glyph glyph-name="uni0323" unicode="&#x323;" horiz-adv-x="0" 
d="M-255 -180h-86l16 96h86z" />
    <glyph glyph-name="uni0326" unicode="&#x326;" horiz-adv-x="0" 
d="M-255 -154q-10 -60 -36.5 -94.5t-63.5 -37.5l7 39q42 4 54 86h-40l18 101h77z" />
    <glyph glyph-name="uni032E" unicode="&#x32e;" horiz-adv-x="0" 
d="M-144 -74q-55 -116 -160 -116q-54 0 -80.5 29t-31.5 87h40v-7q31 -52 87 -52q35 0 57 14t39 45h49z" />
    <glyph glyph-name="uni032F" unicode="&#x32f;" horiz-adv-x="0" 
d="M-165 -190h-40v7q-31 52 -87 52q-35 0 -57 -14t-39 -45h-49q55 116 160 116q54 0 80.5 -29t31.5 -87z" />
    <glyph glyph-name="uni0330" unicode="&#x330;" horiz-adv-x="0" 
d="M-141 -74q-34 -109 -102 -109q-16 0 -45 13l-20 9q-34 15 -47 15q-28 0 -47 -44h-39q17 56 42 81.5t62 25.5q25 0 53 -15l17 -9q24 -13 38 -13q30 0 47 46h41z" />
    <glyph glyph-name="uni0331" unicode="&#x331;" horiz-adv-x="0" 
d="M-157 -103l-10 -57h-257l10 57h257z" />
    <glyph glyph-name="uni0332" unicode="&#x332;" horiz-adv-x="0" 
d="M-157 -103l-10 -57h-257l10 57h257z" />
    <glyph glyph-name="Alpha" unicode="&#x391;" horiz-adv-x="547" 
d="M496 0h-87l-22 209h-236l-98 -209h-82l347 718h90zM374 295l-33 319l-150 -319h183z" />
    <glyph glyph-name="Beta" unicode="&#x392;" horiz-adv-x="547" 
d="M515 258q0 -108 -70 -183t-171 -75h-253l125 718h259q65 0 101.5 -37.5t36.5 -103.5q0 -126 -108 -190q44 -24 62 -53t18 -76zM461 558q0 77 -106 77h-144l-39 -221h144q71 0 108 38.5t37 105.5zM434 244q0 91 -119 91h-156l-44 -252h169q67 0 108.5 45t41.5 116z" />
    <glyph glyph-name="Gamma" unicode="&#x393;" horiz-adv-x="501" 
d="M548 632h-328l-110 -632h-79l125 718h407z" />
    <glyph glyph-name="Delta" unicode="&#x394;" horiz-adv-x="502" 
d="M457 0h-492l334 702h69zM373 72l-63 495l-236 -495h299z" />
    <glyph glyph-name="Epsilon" unicode="&#x395;" horiz-adv-x="547" 
d="M466 0h-435l125 718h429l-15 -86h-349l-39 -220h323l-15 -86h-323l-41 -240h355z" />
    <glyph glyph-name="Zeta" unicode="&#x396;" horiz-adv-x="501" 
d="M442 0h-463l14 81l457 551h-334l15 86h436l-15 -84l-457 -548h362z" />
    <glyph glyph-name="Eta" unicode="&#x397;" horiz-adv-x="592" 
d="M490 0h-80l59 335h-308l-58 -335h-80l125 718h80l-52 -297h308l51 297h80z" />
    <glyph glyph-name="Theta" unicode="&#x398;" horiz-adv-x="638" 
d="M637 456q0 -120 -46 -228.5t-130 -177.5t-185 -69q-110 0 -170 73.5t-60 206.5q0 122 46.5 231t130.5 177t184 68q109 0 169.5 -73.5t60.5 -207.5zM554 445q0 96 -43 151t-119 55q-109 0 -186 -110.5t-77 -266.5q0 -97 43 -152t118 -55q109 0 186.5 112t77.5 266z
M443 323h-216l13 72h216z" />
    <glyph glyph-name="Iota" unicode="&#x399;" horiz-adv-x="228" 
d="M114 0h-79l125 718h79z" />
    <glyph glyph-name="Kappa" unicode="&#x39a;" horiz-adv-x="547" 
d="M503 0h-103l-143 360l-112 -108l-43 -252h-80l125 718h80l-61 -348l346 348h110l-296 -290z" />
    <glyph glyph-name="Lambda" unicode="&#x39b;" horiz-adv-x="547" 
d="M496 0h-87l-68 614l-288 -614h-82l347 718h90z" />
    <glyph glyph-name="Mu" unicode="&#x39c;" horiz-adv-x="683" 
d="M584 0h-77l74 424l34 185l-274 -609h-78l-62 608l-23 -138q-4 -22 -7 -46l-74 -424h-77l125 718h114l63 -610l274 610h113z" />
    <glyph glyph-name="Nu" unicode="&#x39d;" horiz-adv-x="592" 
d="M490 0h-90l-199 583l-102 -583h-77l125 718h95l194 -583l102 583h77z" />
    <glyph glyph-name="Xi" unicode="&#x39e;" horiz-adv-x="592" 
d="M627 638h-520l14 80h520zM491 323h-357l12 72h358zM516 0h-520l14 80h520z" />
    <glyph glyph-name="Omicron" unicode="&#x39f;" horiz-adv-x="638" 
d="M637 456q0 -120 -46 -228.5t-130 -177.5t-185 -69q-110 0 -170 73.5t-60 206.5q0 122 46.5 231t130.5 177t184 68q109 0 169.5 -73.5t60.5 -207.5zM554 445q0 96 -43 151t-119 55q-109 0 -186 -110.5t-77 -266.5q0 -97 43 -152t118 -55q109 0 186.5 112t77.5 266z" />
    <glyph glyph-name="Pi" unicode="&#x3a0;" horiz-adv-x="592" 
d="M490 0h-80l110 632h-307l-110 -632h-80l125 718h467z" />
    <glyph glyph-name="Rho" unicode="&#x3a1;" horiz-adv-x="547" 
d="M564 565q0 -105 -62 -183.5t-154 -78.5h-185l-53 -303h-79l125 718h265q66 0 104.5 -41t38.5 -112zM481 549q0 86 -99 86h-161l-43 -249h158q70 0 107.5 45t37.5 118z" />
    <glyph glyph-name="Sigma" unicode="&#x3a3;" horiz-adv-x="504" 
d="M434 0h-444l14 82l270 277l-173 277l14 82h444l-15 -87h-328l170 -272l-265 -272h328z" />
    <glyph glyph-name="Tau" unicode="&#x3a4;" horiz-adv-x="501" 
d="M560 632h-199l-110 -632h-80l110 632h-199l15 86h478z" />
    <glyph glyph-name="Upsilon" unicode="&#x3a5;" horiz-adv-x="547" 
d="M621 718l-297 -429l-50 -289h-80l50 289l-147 429h93l108 -345l230 345h93z" />
    <glyph glyph-name="Phi" unicode="&#x3a6;" horiz-adv-x="624" 
d="M591 359q-15 -84 -88 -143.5t-167 -71.5l-25 -144h-79l25 144q-90 12 -142.5 71.5t-37.5 143.5t88 143.5t167 71.5l25 144h79l-25 -144q90 -12 142.5 -71.5t37.5 -143.5zM270 221l49 276q-63 -10 -111 -47t-57 -91t25.5 -91t93.5 -47zM517 359q9 54 -25.5 91t-93.5 47
l-49 -276q63 10 111 47t57 91z" />
    <glyph glyph-name="Chi" unicode="&#x3a7;" horiz-adv-x="547" 
d="M491 0h-98l-107 295l-214 -295h-96l274 368l-136 350h100l101 -275l197 275h95l-258 -350z" />
    <glyph glyph-name="Psi" unicode="&#x3a8;" horiz-adv-x="610" 
d="M605 523q-18 -109 -91.5 -194t-169.5 -102l-40 -227h-79l40 227q-91 17 -134.5 102t-24.5 194l34 195h74l-34 -195q-14 -78 12.5 -140t85.5 -78l72 413h79l-72 -413q65 17 113 79t61 139l34 195h74z" />
    <glyph glyph-name="Omega" unicode="&#x3a9;" horiz-adv-x="634" 
d="M564 0h-239l35 200q73 22 122.5 99.5t49.5 163.5q0 75 -38 125.5t-105 50.5q-90 0 -156 -85t-66 -188q0 -60 25.5 -105.5t71.5 -60.5l-35 -200h-239l15 87h159l10 57q-89 69 -89 207q0 142 96 258.5t223 116.5q96 0 152.5 -70.5t56.5 -176.5q0 -101 -51 -193.5
t-132 -141.5l-10 -57h159z" />
    <glyph glyph-name="alpha" unicode="&#x3b1;" horiz-adv-x="635" 
d="M542 17l-70 -34q-21 60 -28 144q-92 -148 -209 -148q-98 0 -146.5 81.5t-29.5 192.5q20 118 97.5 204.5t177.5 86.5q120 0 156 -159q45 105 79 155l59 -34q-56 -79 -124 -253q5 -143 38 -236zM438 253q-1 44 -6 78t-17 67.5t-36 51.5t-58 18q-70 0 -122.5 -64t-67.5 -151
q-14 -80 18 -139t99 -59q110 0 190 198z" />
    <glyph glyph-name="beta" unicode="&#x3b2;" horiz-adv-x="491" 
d="M466 270q0 -110 -71.5 -197.5t-181.5 -87.5q-72 0 -129 30l-43 -245h-72l133 762q16 91 75.5 143.5t147.5 52.5q79 0 123.5 -38t44.5 -106q0 -117 -96 -184q69 -31 69 -130zM389 254q0 100 -120 100q-19 0 -32 -4l14 79q10 -2 22 -2q65 0 105 37.5t40 98.5q0 43 -28 66
t-80 23q-60 0 -93.5 -34t-46.5 -108l-74 -423q58 -23 124 -23q78 0 123.5 52.5t45.5 137.5z" />
    <glyph glyph-name="gamma" unicode="&#x3b3;" horiz-adv-x="524" 
d="M520 523l-263 -529l-39 -224h-72l39 224l-79 529h76l61 -405l201 405h76z" />
    <glyph glyph-name="delta" unicode="&#x3b4;" horiz-adv-x="461" 
d="M429 215q-16 -94 -85.5 -162t-155.5 -68q-75 0 -119.5 52.5t-44.5 130.5q0 95 62.5 168.5t157.5 98.5q-67 65 -67 118q0 64 49.5 114.5t109.5 50.5q76 0 124 -50l-52 -57q-36 30 -85 30q-29 0 -51 -25t-22 -56q0 -15 5 -28.5t17.5 -26t21 -20t27.5 -21.5t25 -19
q87 -70 87 -185q0 -25 -4 -45zM356 215q3 18 3 36q0 86 -64 136q-77 0 -137 -61.5t-60 -142.5q0 -51 28 -86t75 -35q55 0 99.5 45.5t55.5 107.5z" />
    <glyph glyph-name="epsilon" unicode="&#x3b5;" horiz-adv-x="503" 
d="M413 29q-96 -68 -180 -68q-92 0 -148 61.5t-40 150.5q15 81 116 115q-70 41 -57 115q12 67 69.5 113t126.5 46q92 0 174 -67l-43 -49q-49 40 -144 40q-39 0 -71.5 -23.5t-39.5 -59.5q-9 -50 39 -70t126 -20l-11 -61q-31 0 -47.5 -0.5t-44.5 -2.5t-44.5 -7t-35 -13.5
t-28.5 -22.5t-13 -33q-10 -58 28.5 -97t101.5 -39q82 0 137 38z" />
    <glyph glyph-name="zeta" unicode="&#x3b6;" horiz-adv-x="429" 
d="M347 -79q-11 -61 -55.5 -105t-99.5 -44l12 68q26 0 45.5 24t25.5 57q6 31 -6 54t-38 23h-30q-86 0 -122.5 78.5t-17.5 185.5q20 117 93.5 221.5t181.5 174.5h-206l10 61h346l-10 -61h-39q-119 -55 -200.5 -162.5t-103.5 -233.5q-14 -77 5.5 -132.5t76.5 -55.5h30
q56 0 84.5 -45.5t17.5 -107.5z" />
    <glyph glyph-name="eta" unicode="&#x3b7;" 
d="M321 -230h-72l101 579q8 48 -9.5 83.5t-57.5 35.5q-72 0 -124 -57l-72 -411h-72l49 283q-8 62 22 121l20 119h72l-3 -17q57 38 122 38q69 0 104 -58t21 -137z" />
    <glyph glyph-name="theta" unicode="&#x3b8;" horiz-adv-x="475" 
d="M441 351q-65 -372 -247 -372q-183 0 -118 372q14 79 31 140t46 121.5t73 93.5t100 33q46 0 76 -23.5t43 -59.5t15 -90t-3 -103.5t-16 -111.5zM376 389q8 48 12 80.5t4.5 72.5t-7 64t-25.5 40.5t-47 16.5t-53 -16.5t-39.5 -40.5t-29 -64t-20.5 -73t-16 -80h221zM363 313
h-221q-8 -44 -11.5 -76t-3.5 -69t7.5 -59.5t25.5 -38t47 -15.5t52.5 15.5t39 38t28.5 59.5t20.5 69t15.5 76z" />
    <glyph glyph-name="iota" unicode="&#x3b9;" horiz-adv-x="297" 
d="M198 -21q-59 0 -86 53t-15 125l64 366h72l-64 -366q-3 -26 -2 -48.5t12.5 -38t32.5 -15.5z" />
    <glyph glyph-name="kappa" unicode="&#x3ba;" horiz-adv-x="410" 
d="M371 0h-93l-87 264l-72 -66l-34 -198h-70l91 523h70l-39 -221l223 221h92l-198 -195z" />
    <glyph glyph-name="lambda" unicode="&#x3bb;" horiz-adv-x="562" 
d="M467 0h-76l-52 372l-244 -372h-80l310 474l-5 37q-8 59 -37 98t-79 39l12 68q73 0 119.5 -51.5t57.5 -129.5z" />
    <glyph glyph-name="mu.greek" unicode="&#x3bc;" horiz-adv-x="566" 
d="M416 0h-72l5 27q-50 -48 -110 -48t-92 48l-45 -257h-72l131 753h72l-61 -350q2 -118 81 -118q80 0 121 118l61 350h72z" />
    <glyph glyph-name="nu" unicode="&#x3bd;" horiz-adv-x="467" 
d="M461 349q-19 -107 -83.5 -202t-162.5 -158l-52 18l-84 516h76l72 -444q134 111 162 270q15 85 10 174h74q4 -80 -12 -174z" />
    <glyph glyph-name="xi" unicode="&#x3be;" 
d="M347 -79q-11 -61 -55.5 -105t-99.5 -44l12 68q26 0 45.5 24t25.5 57q6 31 -6 54t-38 23h-30q-80 0 -122 64t-27 152q10 56 45.5 103t86.5 76q-71 55 -56 147q13 70 75 118h-73l10 61h346l-10 -61h-150q-47 -10 -82.5 -42t-43.5 -76q-8 -48 23.5 -81t82.5 -33l-12 -68
q-60 0 -110 -42t-60 -102q-9 -57 16 -98.5t75 -41.5h30q56 0 84.5 -45.5t17.5 -107.5z" />
    <glyph glyph-name="omicron" unicode="&#x3bf;" 
d="M439 336q0 -136 -74.5 -243t-179.5 -107q-74 0 -115.5 54t-41.5 149q0 136 74.5 242.5t179.5 106.5q73 0 115 -53.5t42 -148.5zM364 325q0 66 -25 101.5t-71 35.5q-69 0 -117 -80.5t-48 -183.5q0 -66 24.5 -101t71.5 -35q69 0 117 81t48 182z" />
    <glyph glyph-name="pi" unicode="&#x3c0;" horiz-adv-x="562" 
d="M583 523l-14 -77h-50l-77 -446h-72l77 446h-127l-78 -446h-72l78 446q-54 0 -83.5 -27t-39.5 -84h-77q18 100 78.5 144t170.5 44h286z" />
    <glyph glyph-name="rho" unicode="&#x3c1;" horiz-adv-x="520" 
d="M471 262q-20 -115 -90.5 -199t-163.5 -84q-76 0 -124 53l-46 -262h-72l86 492q20 114 90.5 198t163.5 84t134.5 -84t21.5 -198zM399 262q15 84 -9 145t-88 61t-109 -61t-60 -145l-24 -133q13 -35 45.5 -54.5t75.5 -19.5q64 0 109 61.5t60 145.5z" />
    <glyph glyph-name="uni03C2" unicode="&#x3c2;" 
d="M347 -79q-11 -61 -55.5 -105t-99.5 -44l12 68q26 0 45.5 24t25.5 57q6 31 -6 54t-38 23h-30q-87 0 -122.5 81.5t-16.5 191.5q19 111 83.5 192t151.5 81q66 0 103 -49t23 -116l-64 1q7 37 -15.5 62.5t-60.5 25.5q-58 0 -96.5 -58t-52.5 -139q-7 -50 -5 -94t24 -73.5
t62 -29.5h30q56 0 84.5 -45.5t17.5 -107.5z" />
    <glyph glyph-name="sigma" unicode="&#x3c3;" horiz-adv-x="541" 
d="M562 506q-54 -17 -133 -28q37 -52 37 -142q0 -136 -74.5 -243t-179.5 -107q-74 0 -115.5 54t-41.5 149q0 136 74.5 242.5t179.5 106.5q22 0 38 -4q81 6 204 44zM391 325q0 66 -25 101.5t-71 35.5q-69 0 -117 -80.5t-48 -183.5q0 -66 24.5 -101t71.5 -35q69 0 117 81
t48 182z" />
    <glyph glyph-name="tau" unicode="&#x3c4;" horiz-adv-x="403" 
d="M386 449h-110l-51 -292q-8 -42 2 -72t40 -30l-13 -76q-60 0 -87 53t-14 125l51 292h-111l14 76h292z" />
    <glyph glyph-name="upsilon" unicode="&#x3c5;" 
d="M405 250q-19 -110 -85 -190.5t-155 -80.5q-67 0 -100 58t-20 137l61 349h72l-61 -349q-8 -48 8 -83.5t54 -35.5q59 0 99.5 57.5t54.5 137.5q23 129 8 273h75q14 -127 -11 -273z" />
    <glyph glyph-name="phi" unicode="&#x3c6;" horiz-adv-x="702" 
d="M653 262q-19 -109 -108 -188.5t-201 -92.5l-37 -211h-72l37 211q-108 13 -169 92.5t-42 188.5q14 81 66 153.5t128 118.5l28 -56q-59 -36 -99 -93.5t-51 -122.5q-14 -78 30 -135.5t122 -68.5l34 192q14 78 39.5 141t72 108t105.5 45q57 0 89 -42.5t35 -105t-7 -134.5z
M581 262q7 43 9.5 74.5t-0.5 64t-20 50t-47 17.5q-31 0 -54.5 -18.5t-38.5 -53.5t-23 -67.5t-16 -78.5l-34 -192q82 11 146 68.5t78 135.5z" />
    <glyph glyph-name="chi" unicode="&#x3c7;" horiz-adv-x="528" 
d="M393 -230h-80l-79 288l-179 -288h-80l235 377l-104 376h80l79 -288l179 288h80l-235 -376z" />
    <glyph glyph-name="psi" unicode="&#x3c8;" horiz-adv-x="592" 
d="M527 174q-13 -77 -81.5 -130t-156.5 -63l-37 -211h-72l37 211q-85 10 -135 63t-37 130l61 349h72l-61 -349q-8 -47 24.5 -77.5t88.5 -38.5l115 660h72l-115 -660q59 8 102 38.5t51 77.5l61 349h72z" />
    <glyph glyph-name="omega" unicode="&#x3c9;" horiz-adv-x="619" 
d="M571 270q-50 -291 -196 -291q-77 0 -99 78q-46 -78 -119 -78q-145 0 -95 291q19 108 101 253h55q-57 -100 -84 -253q-6 -33 -8.5 -51t-6 -47.5t-1.5 -46.5t6.5 -35t16 -26.5t29.5 -8.5q67 0 99 108q2 46 25 186h72q-30 -178 -23 -235q8 -59 45 -59q18 0 32.5 8t25.5 26.5
t18.5 35t14.5 47t10.5 47.5t9.5 51q27 155 5 253h55q31 -145 12 -253z" />
    <glyph glyph-name="uni03D1" unicode="&#x3d1;" horiz-adv-x="511" 
d="M484 388l-55 1l-38 -215q-14 -79 -73.5 -136t-132.5 -57q-74 0 -114 57t-26 136l31 175h72l-31 -175q-9 -49 13.5 -85t66.5 -36t78.5 36t43.5 85l39 220q-111 12 -171.5 52.5t-46.5 121.5q13 73 64 126.5t115 53.5q77 0 113 -67t20 -158l-13 -74h55zM368 452l12 71
q6 42 3.5 78.5t-22 61.5t-53.5 25q-40 0 -70.5 -35.5t-39.5 -84.5q-10 -59 36 -84.5t134 -31.5z" />
    <glyph glyph-name="uni03D5" unicode="&#x3d5;" horiz-adv-x="669" 
d="M620 262q-19 -107 -102.5 -186t-189.5 -93l-37 -213h-73l37 213q-101 14 -157 93t-37 186q18 106 101.5 185t189.5 93l31 178h73l-31 -178q101 -14 157 -93t38 -185zM548 262q13 76 -25.5 133.5t-109.5 71.5l-72 -411q76 14 135 72t72 134zM339 467q-76 -14 -134.5 -71.5
t-71.5 -133.5q-13 -77 25.5 -134.5t109.5 -71.5z" />
    <glyph glyph-name="uni03D6" unicode="&#x3d6;" horiz-adv-x="619" 
d="M571 270q-50 -291 -196 -291q-77 0 -99 78q-46 -78 -119 -78q-145 0 -95 291q19 108 101 253h55q-57 -100 -84 -253q-6 -33 -8.5 -51t-6 -47.5t-1.5 -46.5t6.5 -35t16 -26.5t29.5 -8.5q67 0 99 108q2 46 25 186h72q-30 -178 -23 -235q8 -59 45 -59q18 0 32.5 8t25.5 26.5
t18.5 35t14.5 47t10.5 47.5t9.5 51q11 60 16 103.5t5 95t-10.5 84.5t-36.5 55t-68 22q-95 0 -192 -34l-10 49q106 38 211 38q63 0 103 -35.5t54.5 -96.5t14 -131t-14.5 -150z" />
    <glyph glyph-name="epsilon.alt" unicode="&#x3f5;" horiz-adv-x="410" 
d="M414 392h-76q-7 36 -25 51.5t-53 15.5q-51 0 -89.5 -45t-57.5 -118h172l-12 -69h-172q-2 -30 -2 -47q0 -119 88 -119q62 0 102 70h75q-63 -146 -190 -146q-71 0 -112 49.5t-41 137.5q0 147 75 256.5t187 109.5q60 0 95 -39t36 -107z" />
    <glyph glyph-name="uni0400" unicode="&#x400;" horiz-adv-x="547" 
d="M472 818h-55l-82 141h89zM466 0h-435l125 718h429l-15 -86h-349l-39 -220h323l-15 -86h-323l-41 -240h355z" />
    <glyph glyph-name="afii10023" unicode="&#x401;" horiz-adv-x="547" 
d="M466 0h-435l125 718h429l-15 -86h-349l-39 -220h323l-15 -86h-323l-41 -240h355zM345 799h-75l18 102h74zM495 901l-18 -102h-74l17 102h75z" />
    <glyph glyph-name="afii10051" unicode="&#x402;" horiz-adv-x="621" 
d="M597 280l-49 -280q-8 -49 -49 -80.5t-80.5 -41t-75.5 -9.5v85q33 0 76.5 19.5t47.5 41.5l50 265l2 12q0 26 -43.5 43.5t-80.5 17.5q-35 0 -82 -19.5t-51 -40.5l-52 -293h-79l110 632h-159l15 86h398l-15 -86h-159l-41 -231q46 37 133 37q21 0 49 -6t61 -19.5t55 -41
t22 -64.5q0 -6 -3 -27z" />
    <glyph glyph-name="afii10052" unicode="&#x403;" horiz-adv-x="501" 
d="M369 893l-132 -141h-55l98 141h89zM548 632h-328l-110 -632h-79l125 718h407z" />
    <glyph glyph-name="afii10053" unicode="&#x404;" horiz-adv-x="592" 
d="M564 264q-30 -84 -57 -130t-67 -81q-80 -72 -183 -72q-122 0 -175.5 102t-22.5 275q31 174 123.5 276.5t218.5 102.5q66 0 113 -29.5t69 -84.5q21 -48 17 -121h-77q-2 43 -9.5 67t-25.5 43q-38 38 -101 38q-81 0 -142.5 -62.5t-91.5 -175.5h277l-15 -87h-279
q-17 -122 21 -189.5t123 -67.5q81 0 142 73q35 41 65 123h77z" />
    <glyph glyph-name="afii10054" unicode="&#x405;" horiz-adv-x="547" 
d="M507 246q0 -118 -76.5 -191.5t-198.5 -73.5q-113 0 -163 69q-35 51 -35 107q0 33 7 75h75q-4 -24 -4 -46q0 -57 37 -89.5t102 -32.5q81 0 128.5 41.5t47.5 111.5q0 36 -23 56.5t-84 38.5l-114 34q-100 30 -100 129q0 93 59 170q69 92 193 92q88 0 137 -44.5t49 -123.5
q0 -29 -4 -61h-75q2 26 2 33q0 52 -33 82.5t-90 30.5q-69 0 -113 -41.5t-44 -106.5q0 -53 56 -69l159 -47q105 -30 105 -144z" />
    <glyph glyph-name="afii10055" unicode="&#x406;" horiz-adv-x="228" 
d="M114 0h-79l125 718h79z" />
    <glyph glyph-name="afii10056" unicode="&#x407;" horiz-adv-x="228" 
d="M114 0h-79l125 718h79zM185 799h-75l18 102h74zM335 901l-18 -102h-74l18 102h74z" />
    <glyph glyph-name="afii10057" unicode="&#x408;" horiz-adv-x="410" 
d="M345 194q-18 -102 -72 -157.5t-135 -55.5q-67 0 -103 36t-36 103q0 20 3 40l13 71h74l-8 -50q-4 -19 -4 -42q0 -75 72 -75q94 0 115 124l93 530h79z" />
    <glyph glyph-name="afii10058" unicode="&#x409;" horiz-adv-x="847" 
d="M810 257q0 -107 -63 -182t-153 -75h-264l112 633h-221q-9 -50 -14.5 -82t-17 -88t-22 -95t-26 -91t-31.5 -88t-37.5 -74.5t-44 -61.5t-51 -38t-59.5 -15l15 86q25 0 48 24.5t43.5 73t37.5 102.5t34.5 134t30 144t28.5 154h382l-54 -303h184q67 0 105 -42.5t38 -115.5z
M727 243q0 89 -101 89h-157l-44 -249h160q67 0 104.5 45t37.5 115z" />
    <glyph glyph-name="afii10059" unicode="&#x40a;" horiz-adv-x="882" 
d="M890 257q0 -107 -63 -182t-153 -75h-264l59 335h-308l-58 -335h-80l125 718h80l-52 -297h308l51 297h82l-54 -299h184q67 0 105 -44t38 -118zM807 243q0 91 -101 91h-157l-44 -251h160q67 0 104.5 45t37.5 115z" />
    <glyph glyph-name="afii10060" unicode="&#x40b;" horiz-adv-x="621" 
d="M597 280l-49 -280h-80l49 280l2 12q0 26 -43.5 43.5t-80.5 17.5q-35 0 -82 -19.5t-51 -40.5l-52 -293h-79l110 632h-159l15 86h398l-15 -86h-159l-41 -231q46 37 133 37q21 0 49 -6t61 -19.5t55 -41t22 -64.5q0 -6 -3 -27z" />
    <glyph glyph-name="afii10061" unicode="&#x40c;" horiz-adv-x="565" 
d="M361 893l-132 -141h-55l98 141h89zM505 0h-103l-210 350h-27l-62 -350h-80l127 718h80l-52 -291l36 1l302 290h110l-349 -336z" />
    <glyph glyph-name="uni040D" unicode="&#x40d;" horiz-adv-x="594" 
d="M482 818h-55l-82 141h89zM618 718l-127 -718h-77l103 583l-405 -583h-89l127 718h77l-103 -583l400 583h94z" />
    <glyph glyph-name="afii10062" unicode="&#x40e;" horiz-adv-x="568" 
d="M571 926q-17 -56 -42 -87q-41 -49 -111 -49q-101 0 -101 107l1 29h40q2 -27 7 -38q15 -41 68 -41q36 0 58 17.5t41 61.5h39zM629 718l-496 -718h-88l201 298l-141 420h93l108 -345l230 345h93z" />
    <glyph glyph-name="afii10145" unicode="&#x40f;" horiz-adv-x="593" 
d="M617 718l-127 -718h-188l-21 -120h-80l21 120h-199l127 718h80l-112 -631h307l112 631h80z" />
    <glyph glyph-name="afii10017" unicode="&#x410;" horiz-adv-x="547" 
d="M496 0h-87l-22 209h-236l-98 -209h-82l347 718h90zM374 295l-33 319l-150 -319h183z" />
    <glyph glyph-name="afii10018" unicode="&#x411;" horiz-adv-x="568" 
d="M519 272q0 -115 -68 -193.5t-176 -78.5h-254l127 718h417l-16 -87h-336l-39 -217h144q201 0 201 -142zM435 244q0 92 -119 92h-156l-44 -253h170q64 0 106.5 46.5t42.5 114.5z" />
    <glyph glyph-name="afii10019" unicode="&#x412;" horiz-adv-x="547" 
d="M515 258q0 -108 -70 -183t-171 -75h-253l125 718h259q65 0 101.5 -37.5t36.5 -103.5q0 -57 -25 -105q-25 -51 -83 -85q44 -24 62 -53t18 -76zM461 558q0 77 -106 77h-144l-39 -221h144q83 0 119 51q26 40 26 93zM434 244q0 91 -119 91h-156l-44 -252h169q67 0 108.5 45
t41.5 116z" />
    <glyph glyph-name="afii10020" unicode="&#x413;" horiz-adv-x="501" 
d="M548 632h-328l-110 -632h-79l125 718h407z" />
    <glyph glyph-name="afii10021" unicode="&#x414;" horiz-adv-x="666" 
d="M568 86l-36 -206h-80l21 120h-464l-21 -120h-80l36 206h53q25 0 48 24.5t43.5 73t37.5 103t34.5 133.5t30 144t27.5 154h382l-110 -632h78zM410 88l95 545h-221q-15 -86 -25.5 -139t-31.5 -139t-48 -153t-59 -114h290z" />
    <glyph glyph-name="afii10022" unicode="&#x415;" horiz-adv-x="547" 
d="M466 0h-435l125 718h429l-15 -86h-349l-39 -220h323l-15 -86h-323l-41 -240h355z" />
    <glyph glyph-name="afii10024" unicode="&#x416;" horiz-adv-x="902" 
d="M860 0h-103l-210 350h-27l-62 -350h-80l62 350h-27l-334 -350h-103l362 382l-229 336h110l198 -290h36l52 290h80l-52 -290h36l302 290h110l-349 -336z" />
    <glyph glyph-name="afii10025" unicode="&#x417;" horiz-adv-x="557" 
d="M490 197q-18 -101 -90 -158.5t-180 -57.5q-67 0 -109 21.5t-68 68.5q-18 32 -21 68t6 93h75q-9 -61 6 -98q30 -70 129 -70q71 0 117 32.5t56 91.5q10 60 -12.5 101.5t-91.5 41.5h-116l10 71h122q47 0 79.5 41t40.5 87q10 59 -19.5 91.5t-92.5 32.5q-84 0 -134 -61
q-25 -33 -38 -85h-75q21 84 52 129q73 100 210 100q107 0 149 -67q38 -64 23 -152q-18 -97 -88 -143q83 -47 60 -178z" />
    <glyph glyph-name="afii10026" unicode="&#x418;" horiz-adv-x="594" 
d="M618 718l-127 -718h-77l103 583l-405 -583h-89l127 718h77l-103 -583l400 583h94z" />
    <glyph glyph-name="afii10027" unicode="&#x419;" horiz-adv-x="596" 
d="M563 926q-17 -56 -42 -87q-41 -49 -111 -49q-101 0 -101 107l1 29h40q2 -27 7 -38q15 -41 68 -41q36 0 58 17.5t41 61.5h39zM618 718l-127 -718h-77l103 583l-405 -583h-89l127 718h77l-103 -583l400 583h94z" />
    <glyph glyph-name="afii10028" unicode="&#x41a;" horiz-adv-x="565" 
d="M505 0h-103l-210 350h-27l-62 -350h-80l127 718h80l-52 -290h36l302 290h110l-349 -336z" />
    <glyph glyph-name="afii10029" unicode="&#x41b;" horiz-adv-x="581" 
d="M537 718l-126 -718h-80l111 633h-221q-9 -50 -14.5 -82t-17 -88t-22 -95t-26 -91t-31.5 -88t-37.5 -74.5t-44 -61.5t-51 -38t-59.5 -15l15 86q25 0 48 24.5t43.5 73t37.5 102.5t34.5 134t30 144t28.5 154h382z" />
    <glyph glyph-name="afii10030" unicode="&#x41c;" horiz-adv-x="683" 
d="M584 0h-77l74 424l8 45l26 140l-274 -609h-78l-62 608l-23 -138q-2 -12 -4.5 -27.5t-2.5 -18.5l-74 -424h-77l125 718h114l63 -610l274 610h113z" />
    <glyph glyph-name="afii10031" unicode="&#x41d;" horiz-adv-x="592" 
d="M490 0h-80l59 335h-308l-58 -335h-80l125 718h80l-52 -297h308l51 297h80z" />
    <glyph glyph-name="afii10032" unicode="&#x41e;" horiz-adv-x="638" 
d="M637 456q0 -91 -29.5 -181.5t-81.5 -159.5q-101 -134 -250 -134q-102 0 -160 61q-32 33 -51 93t-19 126q0 91 29.5 182.5t80.5 159.5q102 134 251 134q109 0 169.5 -73.5t60.5 -207.5zM554 445q0 96 -43 151t-119 55q-109 0 -186 -110.5t-77 -266.5q0 -97 43 -152
t118 -55q64 0 118.5 39t91.5 110q54 106 54 229z" />
    <glyph glyph-name="afii10033" unicode="&#x41f;" horiz-adv-x="593" 
d="M617 718l-127 -718h-80l111 631h-307l-111 -631h-80l127 718h467z" />
    <glyph glyph-name="afii10034" unicode="&#x420;" horiz-adv-x="547" 
d="M564 565q0 -103 -60 -182q-60 -80 -156 -80h-185l-53 -303h-79l125 718h265q66 0 104.5 -41t38.5 -112zM481 549q0 86 -99 86h-161l-43 -249h158q78 0 115 54q30 45 30 109z" />
    <glyph glyph-name="afii10035" unicode="&#x421;" horiz-adv-x="592" 
d="M564 264q-31 -86 -57.5 -131t-66.5 -80q-81 -72 -183 -72q-98 0 -153.5 69.5t-55.5 191.5q0 102 29.5 200t80.5 165q98 130 241 130q92 0 146.5 -56.5t54.5 -152.5q0 -15 -1 -26h-77q-1 43 -9 66.5t-27 43.5q-36 39 -101 39q-107 0 -178 -108q-34 -51 -55 -130t-21 -158
q0 -91 38 -139.5t110 -48.5q82 0 143 73q35 43 65 124h77z" />
    <glyph glyph-name="afii10036" unicode="&#x422;" horiz-adv-x="501" 
d="M560 632h-199l-110 -632h-80l110 632h-199l15 86h478z" />
    <glyph glyph-name="afii10037" unicode="&#x423;" horiz-adv-x="568" 
d="M629 718l-496 -718h-88l201 298l-141 420h93l108 -345l230 345h93z" />
    <glyph glyph-name="afii10038" unicode="&#x424;" horiz-adv-x="702" 
d="M366 562q-108 0 -168 -55t-76 -145q-16 -93 24.5 -149t147.5 -56zM705 363q-23 -134 -120 -202q-65 -45 -112.5 -65.5t-113.5 -20.5l-13 -75h-79l13 75q-138 0 -201 84q-64 85 -43 204q13 76 42 125t80 88q55 42 103.5 55.5t118.5 13.5l13 73h79l-13 -73q70 0 116 -13.5
t83 -55.5q41 -47 50.5 -90.5t-3.5 -122.5zM617 362q17 92 -23 146t-149 54l-72 -405q109 0 168.5 56.5t75.5 148.5z" />
    <glyph glyph-name="afii10039" unicode="&#x425;" horiz-adv-x="547" 
d="M491 0h-98l-107 295l-214 -295h-96l274 368l-136 350h100l101 -275l197 275h95l-258 -350z" />
    <glyph glyph-name="afii10040" unicode="&#x426;" horiz-adv-x="645" 
d="M601 86l-36 -206h-80l21 120h-483l127 718h80l-112 -631h307l112 631h80l-112 -632h96z" />
    <glyph glyph-name="afii10041" unicode="&#x427;" horiz-adv-x="480" 
d="M503 718l-126 -718h-80l56 317q-46 -37 -132 -37q-21 0 -49.5 6t-61.5 19.5t-55 41t-22 64.5q0 6 3 27l49 280h80l-49 -280l-2 -12q0 -26 44 -43.5t81 -17.5q35 0 82 19.5t51 40.5l51 293h80z" />
    <glyph glyph-name="afii10042" unicode="&#x428;" horiz-adv-x="696" 
d="M720 718l-127 -718h-570l127 718h80l-112 -631l166 1l111 630h80l-111 -631h164l112 631h80z" />
    <glyph glyph-name="afii10043" unicode="&#x429;" horiz-adv-x="696" 
d="M704 86l-36 -206h-80l21 120h-586l127 718h80l-112 -631l166 1l111 630h80l-111 -631h164l112 631h80l-112 -632h96z" />
    <glyph glyph-name="afii10044" unicode="&#x42a;" horiz-adv-x="723" 
d="M687 257q0 -107 -63 -182t-153 -75h-264l111 631h-223l15 87h303l-53 -303h184q67 0 105 -42.5t38 -115.5zM604 242q0 90 -102 90h-157l-44 -249h160q67 0 105 44.5t38 114.5z" />
    <glyph glyph-name="afii10045" unicode="&#x42b;" horiz-adv-x="781" 
d="M805 718l-127 -718h-79l127 718h79zM503 257q0 -107 -63 -182t-153 -75h-264l127 718h80l-54 -303h184q67 0 105 -42.5t38 -115.5zM420 243q0 89 -101 89h-157l-44 -249h160q67 0 104.5 45t37.5 115z" />
    <glyph glyph-name="afii10046" unicode="&#x42c;" horiz-adv-x="512" 
d="M503 257q0 -107 -63 -182t-153 -75h-264l127 718h80l-54 -303h184q67 0 105 -42.5t38 -115.5zM420 243q0 89 -101 89h-157l-44 -249h160q67 0 104.5 45t37.5 115z" />
    <glyph glyph-name="afii10047" unicode="&#x42d;" horiz-adv-x="590" 
d="M589 468q0 -125 -44.5 -236.5t-124 -181t-173.5 -69.5q-102 0 -157 72q-28 35 -39 81t-11 130h77q1 -81 21 -123q37 -73 117 -73q85 0 146.5 67t88.5 190h-279l15 87h277q10 113 -29.5 175.5t-120.5 62.5q-62 0 -114 -38q-25 -19 -41 -43t-33 -67h-77q22 72 59 121
q86 114 223 114q104 0 161.5 -71t57.5 -198z" />
    <glyph glyph-name="afii10048" unicode="&#x42e;" horiz-adv-x="915" 
d="M915 456q0 -231 -148 -384q-89 -91 -214 -91q-126 0 -182 91q-47 77 -47 189q0 31 5 73h-167l-59 -334h-80l127 718h80l-53 -297h169q40 139 126 225q89 91 218 91q157 0 208 -157q17 -56 17 -124zM832 444q0 94 -42 150t-116 56q-73 0 -135 -52.5t-97.5 -139
t-35.5 -184.5q0 -95 43 -150.5t119 -55.5q106 0 185 113.5t79 262.5z" />
    <glyph glyph-name="afii10049" unicode="&#x42f;" horiz-adv-x="554" 
d="M548 718l-127 -718h-80l53 303h-28l-287 -303h-103l288 304h-54q-80 0 -117 57.5t-20 153.5q16 91 74 147t137 56h264zM453 635h-160q-117 0 -139 -123q-22 -126 98 -126h157z" />
    <glyph glyph-name="afii10065" unicode="&#x430;" 
d="M406 64l-12 -64l-9 -3q-19 -7 -34 -7q-62 0 -62 56q0 6 2 24q-81 -85 -167 -85q-53 0 -83.5 31t-30.5 85q0 79 44.5 134t117.5 65l122 18q50 8 50 82q0 65 -86 65q-47 0 -74 -23t-44 -78h-66q16 68 45 105q53 69 157 69q67 0 104.5 -30.5t37.5 -84.5q0 -16 -3 -31
l-52 -301l-2 -11q-1 -8 4.5 -14t14.5 -6t26 4zM306 181l15 86q-19 -16 -125 -33q-57 -10 -83 -37t-26 -76q0 -63 63 -63q55 0 101.5 36.5t54.5 86.5z" />
    <glyph glyph-name="afii10066" unicode="&#x431;" horiz-adv-x="478" 
d="M426 262q-22 -122 -91 -199t-157 -77t-130 77t-20 199q0 2 6 37t9.5 52.5t12.5 57.5t18 65.5t24 61t31.5 59t40 46.5t50.5 35q30 14 92.5 21.5t97.5 22.5q39 16 46 56h56q-13 -75 -66 -102q-41 -21 -102.5 -33.5t-81.5 -18.5q-48 -15 -97 -95q-22 -37 -16 -36
q60 47 130 47q86 0 127 -77.5t20 -198.5zM351 262q16 90 -8 144.5t-79 54.5q-58 0 -101.5 -53.5t-59.5 -145.5q-16 -91 8.5 -145t80.5 -54t99.5 54t59.5 145z" />
    <glyph glyph-name="afii10067" unicode="&#x432;" horiz-adv-x="434" 
d="M406 199q0 -86 -63.5 -142.5t-159.5 -56.5h-175l92 523h180q66 0 102 -30t36 -80q0 -46 -24 -80.5t-68 -50.5q43 -8 61.5 -25t18.5 -58zM343 397q0 57 -110 57h-77l-26 -148h76q137 0 137 91zM332 178q0 34 -30.5 48t-94.5 14h-89l-30 -170h103q63 0 102 29.5t39 78.5z
" />
    <glyph glyph-name="afii10068" unicode="&#x433;" horiz-adv-x="322" 
d="M374 523l-13 -73h-202l-79 -450h-72l92 523h274z" />
    <glyph glyph-name="afii10069" unicode="&#x434;" horiz-adv-x="536" 
d="M452 66l-34 -191h-69l22 125h-356l-22 -125h-69l34 191h61q29 0 78 142t80 315h288l-80 -457h67zM381 454h-144q-49 -279 -121 -385h197z" />
    <glyph glyph-name="afii10070" unicode="&#x435;" 
d="M423 233h-313q-6 -37 -6 -62q0 -51 26 -80.5t72 -29.5q44 0 81 29t50 74h72q-28 -85 -86 -132t-133 -47t-116 49t-41 138q0 73 23 146.5t61 124.5q70 95 176 95q80 0 113 -56q32 -56 32 -128q0 -44 -11 -121zM361 303q2 36 2 47q0 50 -24.5 79.5t-66.5 29.5
q-52 0 -93 -43t-57 -113h239z" />
    <glyph glyph-name="afii10072" unicode="&#x436;" horiz-adv-x="656" 
d="M611 0h-93l-156 209l-37 -209h-70l37 209l-230 -209h-93l281 262l-179 261h91l146 -221l39 221h70l-39 -221l224 221h91l-271 -261z" />
    <glyph glyph-name="afii10073" unicode="&#x437;" horiz-adv-x="410" 
d="M369 157q-14 -79 -70 -125.5t-138 -46.5q-111 0 -139 79q-13 33 -5 104h70q-6 -56 15.5 -81t76.5 -25q47 0 78 22t38 60q7 37 -7.5 66.5t-60.5 29.5h-69l12 69h58q76 0 91 78q6 34 -14.5 54t-61.5 20q-92 0 -113 -87h-70q19 79 68.5 121.5t122.5 42.5q74 0 111 -45
t24 -120q-12 -64 -59 -99q57 -36 42 -117z" />
    <glyph glyph-name="afii10074" unicode="&#x438;" horiz-adv-x="471" 
d="M455 523l-92 -523h-72l75 427l-261 -427h-92l92 523h72l-76 -432l262 432h92z" />
    <glyph glyph-name="afii10075" unicode="&#x439;" horiz-adv-x="473" 
d="M457 731q-17 -56 -42 -87q-41 -49 -111 -49q-101 0 -101 107l1 29h40q2 -27 7 -38q15 -41 68 -41q36 0 58 17.5t41 61.5h39zM455 523l-92 -523h-72l75 427l-261 -427h-92l92 523h72l-76 -432l262 432h92z" />
    <glyph glyph-name="afii10076" unicode="&#x43a;" horiz-adv-x="411" 
d="M371 0h-93l-157 209l-36 -209h-70l92 523h70l-39 -221l224 221h91l-271 -261z" />
    <glyph glyph-name="afii10077" unicode="&#x43b;" horiz-adv-x="439" 
d="M393 523l-92 -523h-72l80 454h-144q-8 -46 -13.5 -75.5t-17.5 -82t-23.5 -87.5t-30.5 -78t-39 -69t-47.5 -44t-58.5 -18l13 70q77 0 157 453h288z" />
    <glyph glyph-name="afii10078" unicode="&#x43c;" horiz-adv-x="555" 
d="M539 523l-92 -523h-72l62 354l-168 -354h-78l-44 354l-62 -354h-72l92 523h105l37 -429l187 429h105z" />
    <glyph glyph-name="afii10079" unicode="&#x43d;" horiz-adv-x="471" 
d="M455 523l-92 -523h-72l44 247h-206l-44 -247h-72l92 523h72l-36 -206h206l37 206h71z" />
    <glyph glyph-name="afii10080" unicode="&#x43e;" 
d="M439 336q0 -146 -82 -255q-71 -95 -172 -95q-74 0 -115.5 54t-41.5 149q0 67 22 135.5t60 118.5q72 95 172 95q73 0 115 -53.5t42 -148.5zM364 325q0 66 -25 101.5t-71 35.5q-76 0 -124 -92q-41 -79 -41 -172q0 -66 24.5 -101t71.5 -35q76 0 124 92q41 79 41 171z" />
    <glyph glyph-name="afii10081" unicode="&#x43f;" horiz-adv-x="471" 
d="M455 523l-92 -523h-72l80 454h-206l-80 -454h-72l92 523h350z" />
    <glyph glyph-name="afii10082" unicode="&#x440;" 
d="M439 355q0 -75 -24 -151.5t-64 -130.5q-65 -88 -157 -88q-77 0 -104 73l-47 -265h-72l127 730h69l-14 -77q39 52 71.5 72t76.5 20q64 0 101 -49t37 -134zM364 348q0 53 -23.5 82t-67.5 29q-73 0 -113 -81q-47 -97 -47 -200q0 -53 25 -85t67 -32q59 0 101 64
q24 36 41 101.5t17 121.5z" />
    <glyph glyph-name="afii10083" unicode="&#x441;" horiz-adv-x="410" 
d="M384 185q-62 -200 -210 -200q-71 0 -112 49.5t-41 137.5q0 73 23 146.5t61 124.5q72 95 178 95q61 0 96 -39.5t35 -108.5q0 -9 -2 -43h-70q-1 40 -5 56q-17 56 -77 56q-74 0 -118 -87q-43 -84 -43 -192q0 -119 88 -119q82 0 127 124h70z" />
    <glyph glyph-name="afii10084" unicode="&#x442;" horiz-adv-x="334" 
d="M369 523l-13 -73h-120l-79 -450h-72l79 450h-120l13 73h312z" />
    <glyph glyph-name="afii10085" unicode="&#x443;" horiz-adv-x="412" 
d="M449 523l-244 -513q-41 -84 -62 -123t-44.5 -65t-42 -31t-52.5 -5q-13 0 -29 6l-3 1l-3 1l14 80q21 -9 42 -9q23 0 37 13.5t33 53.5l27 54l-65 537h82l40 -429l190 429h80z" />
    <glyph glyph-name="afii10086" unicode="&#x444;" horiz-adv-x="745" 
d="M722 274q-23 -131 -88 -210t-150 -79q-76 0 -105 73l-46 -265h-75l45 265q-54 -73 -129 -73q-85 0 -122 79t-14 210q20 118 81.5 191t141.5 73q44 0 70 -20.5t45 -71.5l32 182h68l-32 -182q37 51 70 71.5t77 20.5q79 0 115 -72.5t16 -191.5zM339 245q38 215 -80 215
q-113 0 -147 -189q-17 -99 3 -154t75 -55q54 0 94 49t55 134zM646 271q16 92 -4.5 140.5t-76.5 48.5q-118 0 -156 -215q-15 -85 8 -134t77 -49q55 0 95 55t57 154z" />
    <glyph glyph-name="afii10087" unicode="&#x445;" horiz-adv-x="410" 
d="M362 0h-92l-72 197l-138 -197h-91l198 269l-100 254h93l67 -184l132 184h88l-189 -254z" />
    <glyph glyph-name="afii10088" unicode="&#x446;" horiz-adv-x="486" 
d="M452 66l-34 -191h-69l22 125h-358l92 523h72l-80 -454h206l80 454h72l-80 -457h77z" />
    <glyph glyph-name="afii10089" unicode="&#x447;" horiz-adv-x="386" 
d="M371 523l-93 -523h-72l41 228q-15 -11 -32.5 -16t-29.5 -5.5t-44 -0.5q-49 0 -85.5 32t-36.5 81q0 14 2 22l32 182h72l-36 -201v-3q0 -15 21 -29t57 -14q37 0 64 10t30 28l38 209h72z" />
    <glyph glyph-name="afii10090" unicode="&#x448;" horiz-adv-x="605" 
d="M589 523l-92 -523h-484l92 523h72l-80 -454h134l80 454h72l-80 -454h134l80 454h72z" />
    <glyph glyph-name="afii10091" unicode="&#x449;" horiz-adv-x="605" 
d="M586 66l-34 -191h-69l22 125h-492l92 523h72l-80 -454h134l80 454h72l-80 -454h134l80 454h72l-80 -457h77z" />
    <glyph glyph-name="afii10092" unicode="&#x44a;" horiz-adv-x="490" 
d="M474 185q0 -79 -65.5 -132t-155.5 -53h-175l80 454h-114l12 69h182l-38 -217h126q72 0 110 -34.5t38 -86.5zM402 178q0 34 -30.5 48t-94.5 14h-89l-30 -170h103q63 0 102 29.5t39 78.5z" />
    <glyph glyph-name="afii10093" unicode="&#x44b;" horiz-adv-x="601" 
d="M585 523l-92 -523h-72l92 523h72zM409 185q0 -79 -65.5 -132t-155.5 -53h-175l92 523h68l-38 -217h126q72 0 110 -34.5t38 -86.5zM337 178q0 34 -30.5 48t-94.5 14h-89l-30 -170h103q63 0 102 29.5t39 78.5z" />
    <glyph glyph-name="afii10094" unicode="&#x44c;" horiz-adv-x="425" 
d="M409 185q0 -79 -65.5 -132t-155.5 -53h-175l92 523h68l-38 -217h126q72 0 110 -34.5t38 -86.5zM337 178q0 34 -30.5 48t-94.5 14h-89l-30 -170h103q63 0 102 29.5t39 78.5z" />
    <glyph glyph-name="afii10095" unicode="&#x44d;" horiz-adv-x="430" 
d="M406 252q-21 -122 -86 -194.5t-153 -72.5q-149 0 -138 200h70q0 -123 83 -123q52 0 90.5 48t56.5 137h-166l12 70h162q6 143 -90 143q-43 0 -72 -27t-48 -86h-70q54 191 197 191q93 0 134 -77.5t18 -208.5z" />
    <glyph glyph-name="afii10096" unicode="&#x44e;" horiz-adv-x="668" 
d="M651 338q0 -138 -75.5 -245t-178.5 -107q-85 0 -127 72.5t-25 188.5h-116l-44 -247h-72l92 523h72l-36 -206h118q29 101 93.5 161t144.5 60q71 0 112.5 -54.5t41.5 -145.5zM575 327q0 63 -24.5 98.5t-68.5 35.5q-70 0 -118.5 -80t-48.5 -184q0 -63 25 -98.5t70 -35.5
q70 0 117.5 79.5t47.5 184.5z" />
    <glyph glyph-name="afii10097" unicode="&#x44f;" horiz-adv-x="463" 
d="M447 523l-92 -523h-68l38 218h-21l-242 -218h-93l237 218q-82 0 -122.5 42.5t-30.5 102.5q13 72 71.5 116t147.5 44h175zM367 454h-103q-122 0 -139 -91q-7 -43 23 -61t100 -18h89z" />
    <glyph glyph-name="uni0450" unicode="&#x450;" 
d="M380 623h-55l-82 141h89zM423 233h-313q-6 -37 -6 -62q0 -51 26 -80.5t72 -29.5q44 0 81 29t50 74h72q-28 -85 -86 -132t-133 -47t-116 49t-41 138q0 73 23 146.5t61 124.5q70 95 176 95q80 0 113 -56q32 -56 32 -128q0 -44 -11 -121zM361 303q2 36 2 47q0 50 -24.5 79.5
t-66.5 29.5q-52 0 -93 -43t-57 -113h239z" />
    <glyph glyph-name="afii10071" unicode="&#x451;" 
d="M423 233h-313q-6 -37 -6 -62q0 -51 26 -80.5t72 -29.5q44 0 81 29t50 74h72q-28 -85 -86 -132t-133 -47t-116 49t-41 138q0 73 23 146.5t61 124.5q70 95 176 95q80 0 113 -56q32 -56 32 -128q0 -44 -11 -121zM361 303q2 36 2 47q0 50 -24.5 79.5t-66.5 29.5
q-52 0 -93 -43t-57 -113h239zM264 604h-75l18 102h74zM414 706l-18 -102h-74l17 102h75z" />
    <glyph glyph-name="afii10099" unicode="&#x452;" horiz-adv-x="497" 
d="M439 251l-44 -251q-12 -71 -44 -99.5t-99 -28.5v79q32 0 46.5 17.5t21.5 51.5l44 217q5 27 5 48q0 69 -68 69q-58 0 -98 -45.5t-54 -128.5l-32 -180h-72l89 507h-80l13 73h80l23 138h73l-24 -138h160l-13 -73h-160l-28 -161q40 49 72 68t75 19q56 0 87.5 -33.5
t31.5 -94.5q0 -22 -5 -54z" />
    <glyph glyph-name="afii10100" unicode="&#x453;" horiz-adv-x="322" 
d="M313 707l-132 -141h-55l98 141h89zM374 523l-13 -73h-202l-79 -450h-72l92 523h274z" />
    <glyph glyph-name="afii10101" unicode="&#x454;" horiz-adv-x="408" 
d="M383 185q-62 -200 -210 -200q-88 0 -127 72.5t-18 194.5q23 131 92 208.5t162 77.5q144 0 129 -191h-70q1 59 -18 86t-62 27q-96 0 -140 -143h162l-13 -70h-166q-14 -89 7.5 -137t74.5 -48q82 0 127 123h70z" />
    <glyph glyph-name="afii10102" unicode="&#x455;" horiz-adv-x="410" 
d="M371 189q0 -70 -44 -127q-60 -77 -163 -77q-73 0 -112.5 34.5t-39.5 96.5q0 24 4 52h70q-2 -22 -2 -29q0 -37 24.5 -57.5t69.5 -20.5q51 0 84 27t33 70q0 21 -16.5 34.5t-57.5 26.5l-79 25q-79 25 -79 98q0 82 56.5 139t138.5 57q63 0 99.5 -34.5t36.5 -95.5q0 -6 -2 -34
h-70q2 18 2 22q0 31 -22 48.5t-61 17.5q-46 0 -75 -25t-29 -65q0 -19 13.5 -30t52.5 -24l69 -22q53 -17 76 -42t23 -65z" />
    <glyph glyph-name="afii10103" unicode="&#x456;" horiz-adv-x="182" 
d="M87 0h-72l91 523h72zM195 618h-72l17 100h72z" />
    <glyph glyph-name="afii10104" unicode="&#x457;" horiz-adv-x="228" 
d="M110 0h-72l91 523h72zM151 604h-75l18 102h74zM301 706l-18 -102h-74l17 102h75z" />
    <glyph glyph-name="afii10105" unicode="&#x458;" horiz-adv-x="182" 
d="M74 -77q-12 -68 -44 -100.5t-87 -32.5q-15 0 -32 3l13 76h15q35 0 46 11.5t18 52.5l103 590h72zM195 618h-72l17 100h72z" />
    <glyph glyph-name="afii10106" unicode="&#x459;" horiz-adv-x="657" 
d="M628 185q0 -79 -65.5 -132t-155.5 -53h-175l77 454h-144q-8 -46 -13.5 -75.5t-17.5 -82t-23.5 -87.5t-30.5 -78t-39 -69t-47.5 -44t-58.5 -18l13 70q77 0 157 453h287l-38 -217h126q72 0 110 -34.5t38 -86.5zM556 178q0 34 -30.5 48t-94.5 14h-89l-30 -170h103
q63 0 102 29.5t39 78.5z" />
    <glyph glyph-name="afii10107" unicode="&#x45a;" horiz-adv-x="777" 
d="M687 185q0 -79 -65.5 -132t-155.5 -53h-175l44 247h-206l-44 -247h-72l92 523l72 1l-36 -207h206l37 208h68l-39 -210h126q71 0 109.5 -38.5t38.5 -91.5zM615 178q0 68 -125 68h-89l-30 -176h103q63 0 102 29.5t39 78.5z" />
    <glyph glyph-name="afii10108" unicode="&#x45b;" horiz-adv-x="497" 
d="M439 251l-44 -251h-72l41 237q5 27 5 48q0 69 -68 69q-58 0 -98 -45.5t-54 -128.5l-32 -180h-72l89 507h-80l13 73h80l23 138h73l-24 -138h160l-13 -73h-160l-28 -161q40 49 72 68t75 19q56 0 87.5 -33.5t31.5 -94.5q0 -22 -5 -54z" />
    <glyph glyph-name="afii10109" unicode="&#x45c;" horiz-adv-x="411" 
d="M313 707l-132 -141h-55l98 141h89zM371 0h-93l-157 209l-36 -209h-70l92 523h70l-39 -221l224 221h91l-271 -261z" />
    <glyph glyph-name="uni045D" unicode="&#x45d;" horiz-adv-x="471" 
d="M378 623h-55l-82 141h89zM455 523l-92 -523h-72l75 427l-261 -427h-92l92 523l72 1l-76 -433l262 432q66 -1 92 0z" />
    <glyph glyph-name="afii10110" unicode="&#x45e;" horiz-adv-x="412" 
d="M439 731q-17 -56 -42 -87q-41 -49 -111 -49q-101 0 -101 107l1 29h40q2 -27 7 -38q15 -41 68 -41q36 0 58 17.5t41 61.5h39zM449 523l-244 -513q-41 -84 -62 -123t-44.5 -65t-42 -31t-52.5 -5q-13 0 -29 6l-3 1l-3 1l14 80q21 -9 42 -9q23 0 37 13.5t33 53.5l27 54
l-65 537h82l40 -429l190 429h80z" />
    <glyph glyph-name="afii10193" unicode="&#x45f;" horiz-adv-x="471" 
d="M455 523l-92 -523h-140l-22 -125h-69l22 125h-141l92 523h72l-80 -454h206l80 454h72z" />
    <glyph glyph-name="uni048C" unicode="&#x48c;" horiz-adv-x="512" 
d="M498 203q-17 -92 -74.5 -147.5t-136.5 -55.5h-264l127 718h80l-54 -303h184q79 0 117 -58t21 -154zM416 206q22 126 -97 126h-157l-44 -249h160q117 0 138 123z" />
    <glyph glyph-name="uni048D" unicode="&#x48d;" horiz-adv-x="425" 
d="M407 161q-12 -72 -71 -116.5t-148 -44.5h-175l92 524l68 -1l-38 -217h126q81 0 119 -43t27 -102zM335 161q8 43 -22 61t-101 18h-89l-30 -170h103q59 0 95.5 23t43.5 68z" />
    <glyph glyph-name="uni048E" unicode="&#x48e;" horiz-adv-x="547" 
d="M564 565q0 -103 -60 -182q-60 -80 -156 -80h-185l-53 -303h-79l125 718h265q66 0 104.5 -41t38.5 -112zM481 549q0 86 -99 86h-161l-43 -249h158q78 0 115 54q30 45 30 109z" />
    <glyph glyph-name="uni048F" unicode="&#x48f;" 
d="M439 355q0 -75 -24 -151.5t-64 -130.5q-65 -88 -157 -88q-77 0 -104 73l-47 -265h-72l127 730h69l-14 -77q39 52 71.5 72t76.5 20q64 0 101 -49t37 -134zM364 348q0 53 -23.5 82t-67.5 29q-73 0 -113 -81q-47 -97 -47 -200q0 -53 25 -85t67 -32q59 0 101 64
q24 36 41 101.5t17 121.5z" />
    <glyph glyph-name="afii10050" unicode="&#x490;" horiz-adv-x="516" 
d="M579 799l-30 -168h-327l-111 -631h-80l127 718h329l14 81h78z" />
    <glyph glyph-name="afii10098" unicode="&#x491;" horiz-adv-x="344" 
d="M386 591l-25 -141h-202l-79 -450h-72l92 523l210 2l11 66h65z" />
    <glyph glyph-name="uni0492" unicode="&#x492;" horiz-adv-x="501" 
d="M548 632h-328l-26 -154h135l-12 -70h-135l-71 -408h-79l71 408h-86l12 70h86l41 240h407z" />
    <glyph glyph-name="uni0493" unicode="&#x493;" horiz-adv-x="322" 
d="M374 523l-13 -73h-202l-21 -120h68l-12 -70h-68l-45 -260h-72l46 260h-62l12 70h62l33 193h274z" />
    <glyph glyph-name="uni0494" unicode="&#x494;" horiz-adv-x="501" 
d="M548 632h-328l-110 -632h-79l125 718h407z" />
    <glyph glyph-name="uni0495" unicode="&#x495;" horiz-adv-x="322" 
d="M374 523l-13 -73h-202l-79 -450h-72l92 523h274z" />
    <glyph glyph-name="uni0496" unicode="&#x496;" horiz-adv-x="902" 
d="M875 86l-36 -206h-80l21 120h-23l-210 350h-27l-62 -350h-80l62 350h-27l-334 -350h-103l362 382l-229 336h110l198 -290h36l52 290h80l-52 -290h36l302 290h110l-349 -336l177 -296h66z" />
    <glyph glyph-name="uni0497" unicode="&#x497;" horiz-adv-x="656" 
d="M623 66l-34 -191h-69l22 125h-24l-156 209l-37 -209h-70l37 209l-230 -209h-93l281 262l-179 261h91l146 -221l39 221h70l-39 -221l224 221h91l-271 -261l141 -196h60z" />
    <glyph glyph-name="uni0498" unicode="&#x498;" horiz-adv-x="557" 
d="M490 197q-18 -101 -90 -158.5t-180 -57.5q-67 0 -109 21.5t-68 68.5q-18 32 -21 68t6 93h75q-9 -61 6 -98q30 -70 129 -70q71 0 117 32.5t56 91.5q10 60 -12.5 101t-91.5 42l-116 2l10 69h122q47 0 79.5 41t40.5 87q10 59 -19.5 91.5t-92.5 32.5q-84 0 -134 -61
q-25 -33 -38 -85h-75q21 84 52 129q73 100 210 100q107 0 149 -67q38 -64 23 -152q-18 -97 -88 -143q83 -47 60 -178z" />
    <glyph glyph-name="uni0499" unicode="&#x499;" horiz-adv-x="410" 
d="M369 157q-14 -79 -70 -125.5t-138 -46.5q-111 0 -139 79q-13 33 -5 104h70q-6 -56 15.5 -81t76.5 -25q47 0 78 22t38 60q7 37 -7.5 66.5t-60.5 29.5h-69l12 69h58q76 0 91 78q6 34 -14.5 54t-61.5 20q-92 0 -113 -87h-70q19 79 68.5 121.5t122.5 42.5q74 0 111 -45
t24 -120q-12 -64 -59 -99q57 -36 42 -117z" />
    <glyph glyph-name="uni049A" unicode="&#x49a;" horiz-adv-x="565" 
d="M520 86l-36 -206h-80l21 120h-23l-210 350h-27l-62 -350h-80l127 718h80l-52 -291l36 1l302 290h110l-349 -336l177 -296h66z" />
    <glyph glyph-name="uni049B" unicode="&#x49b;" horiz-adv-x="411" 
d="M383 66l-34 -191h-69l22 125h-24l-157 209l-36 -209h-70l92 523h70l-39 -221l224 221h91l-271 -261l142 -196h59z" />
    <glyph glyph-name="uni049C" unicode="&#x49c;" horiz-adv-x="565" 
d="M505 0h-103l-210 350h-27l-62 -350h-80l127 718h80l-52 -291l36 1l302 290h110l-349 -336z" />
    <glyph glyph-name="uni049D" unicode="&#x49d;" horiz-adv-x="411" 
d="M371 0h-93l-157 209l-36 -209h-70l92 523h70l-39 -221l224 221h91l-271 -261z" />
    <glyph glyph-name="uni049E" unicode="&#x49e;" horiz-adv-x="565" 
d="M505 0h-103l-210 350h-27l-62 -350h-80l127 718h80l-52 -291l36 1l302 290h110l-349 -336z" />
    <glyph glyph-name="uni049F" unicode="&#x49f;" horiz-adv-x="411" 
d="M371 0h-93l-157 209l-36 -209h-70l92 523h70l-39 -221l224 221h91l-271 -261z" />
    <glyph glyph-name="uni04A0" unicode="&#x4a0;" horiz-adv-x="565" 
d="M505 0h-103l-210 350h-27l-62 -350h-80l127 718h80l-52 -291l36 1l302 290h110l-349 -336z" />
    <glyph glyph-name="uni04A1" unicode="&#x4a1;" horiz-adv-x="411" 
d="M371 0h-93l-157 209l-36 -209h-70l92 523h70l-39 -221l224 221h91l-271 -261z" />
    <glyph glyph-name="uni04A2" unicode="&#x4a2;" horiz-adv-x="592" 
d="M581 86l-36 -206h-80l21 120h-76l59 335h-308l-58 -335h-80l125 718h80l-52 -297h308l51 297h80l-110 -632h76z" />
    <glyph glyph-name="uni04A3" unicode="&#x4a3;" horiz-adv-x="471" 
d="M432 66l-34 -191h-69l22 125h-60l44 247h-206l-44 -247h-72l92 523l72 1l-36 -207h206l37 208l71 -2l-80 -457h57z" />
    <glyph glyph-name="uni04A4" unicode="&#x4a4;" horiz-adv-x="592" 
d="M490 0h-80l59 335h-308l-58 -335h-80l125 718h80l-52 -297h308l51 297h80z" />
    <glyph glyph-name="uni04A5" unicode="&#x4a5;" horiz-adv-x="471" 
d="M455 523l-92 -523h-72l44 247h-206l-44 -247h-72l92 523l72 1l-36 -207h206l37 208z" />
    <glyph glyph-name="uni04A6" unicode="&#x4a6;" horiz-adv-x="593" 
d="M617 718l-127 -718h-80l111 631h-307l-111 -631h-80l127 718h467z" />
    <glyph glyph-name="uni04A7" unicode="&#x4a7;" horiz-adv-x="471" 
d="M455 523l-92 -523h-72l80 454h-206l-80 -454h-72l92 523h350z" />
    <glyph glyph-name="uni04A8" unicode="&#x4a8;" horiz-adv-x="592" 
d="M564 264q-31 -86 -57.5 -131t-66.5 -80q-81 -72 -183 -72q-98 0 -153.5 69.5t-55.5 191.5q0 102 29.5 200t80.5 165q98 130 241 130q92 0 146.5 -56.5t54.5 -152.5q0 -15 -1 -26h-77q-1 43 -9 66.5t-27 43.5q-36 39 -101 39q-107 0 -178 -108q-34 -51 -55 -130t-21 -158
q0 -91 38 -139.5t110 -48.5q82 0 143 73q35 43 65 124h77z" />
    <glyph glyph-name="uni04A9" unicode="&#x4a9;" horiz-adv-x="410" 
d="M384 185q-62 -200 -210 -200q-71 0 -112 49.5t-41 137.5q0 73 23 146.5t61 124.5q72 95 178 95q61 0 96 -39.5t35 -108.5q0 -9 -2 -43h-70q-1 40 -5 56q-17 56 -77 56q-74 0 -118 -87q-43 -84 -43 -192q0 -119 88 -119q82 0 127 124h70z" />
    <glyph glyph-name="uni04AA" unicode="&#x4aa;" horiz-adv-x="592" 
d="M564 264q-31 -86 -57.5 -131t-66.5 -80q-81 -72 -183 -72q-98 0 -153.5 69.5t-55.5 191.5q0 102 29.5 200t80.5 165q98 130 241 130q92 0 146.5 -56.5t54.5 -152.5q0 -15 -1 -26h-77q-1 43 -9 66.5t-27 43.5q-36 39 -101 39q-107 0 -178 -108q-34 -51 -55 -130t-21 -158
q0 -91 38 -139.5t110 -48.5q82 0 143 73q35 43 65 124h77z" />
    <glyph glyph-name="uni04AB" unicode="&#x4ab;" horiz-adv-x="410" 
d="M384 185q-62 -200 -210 -200q-71 0 -112 49.5t-41 137.5q0 73 23 146.5t61 124.5q72 95 178 95q61 0 96 -39.5t35 -108.5q0 -9 -2 -43h-70q-1 40 -5 56q-17 56 -77 56q-74 0 -118 -87q-43 -84 -43 -192q0 -119 88 -119q82 0 127 124h70z" />
    <glyph glyph-name="uni04AC" unicode="&#x4ac;" horiz-adv-x="501" 
d="M560 632h-199l-95 -546h76l-36 -206h-80l21 120h-76l110 632h-199l15 86h478z" />
    <glyph glyph-name="uni04AD" unicode="&#x4ad;" horiz-adv-x="334" 
d="M369 523l-13 -73h-120l-67 -384h57l-34 -191h-69l22 125h-60l79 450h-120l13 73h312z" />
    <glyph glyph-name="uni04AE" unicode="&#x4ae;" horiz-adv-x="547" 
d="M621 718l-297 -429l-50 -289h-80l50 289l-147 429h93l108 -345l230 345h93z" />
    <glyph glyph-name="uni04AF" unicode="&#x4af;" horiz-adv-x="547" 
d="M559 523l-267 -429l-50 -289h-80l50 289l-117 429h93l78 -345l200 345h93z" />
    <glyph glyph-name="uni04B0" unicode="&#x4b0;" horiz-adv-x="547" 
d="M621 718l-297 -429l-3 -19h165l-11 -60h-165l-36 -210h-80l36 210h-165l11 60h165l3 19l-147 429h93l108 -345l230 345h93z" />
    <glyph glyph-name="uni04B1" unicode="&#x4b1;" horiz-adv-x="547" 
d="M559 523l-267 -429h135l-10 -60h-135l-40 -229h-80l40 229h-135l10 60h135l-117 429h93l78 -345l200 345h93z" />
    <glyph glyph-name="uni04B2" unicode="&#x4b2;" horiz-adv-x="547" 
d="M506 86l-36 -206h-80l21 120h-18l-107 295l-214 -295h-96l274 368l-136 350h100l101 -275l197 275h95l-258 -350l108 -282h49z" />
    <glyph glyph-name="uni04B3" unicode="&#x4b3;" horiz-adv-x="410" 
d="M374 66l-34 -191h-69l22 125h-23l-72 197l-138 -197h-91l198 269l-100 254h93l67 -184l132 184h88l-189 -254l78 -203h38z" />
    <glyph glyph-name="uni04B4" unicode="&#x4b4;" horiz-adv-x="645" 
d="M601 86l-36 -206h-80l21 120h-483l127 718h80l-112 -631h307l112 631h80l-112 -632h96z" />
    <glyph glyph-name="uni04B5" unicode="&#x4b5;" horiz-adv-x="486" 
d="M452 66l-34 -191h-69l22 125h-358l92 523h72l-80 -454h206l80 454h72l-80 -457h77z" />
    <glyph glyph-name="uni04B6" unicode="&#x4b6;" horiz-adv-x="480" 
d="M503 718l-126 -718h-80l56 317q-46 -37 -132 -37q-21 0 -49.5 6t-61.5 19.5t-55 41t-22 64.5q0 6 3 27l49 280h80l-49 -280l-2 -12q0 -26 44 -43.5t81 -17.5q35 0 82 19.5t51 40.5l51 293h80z" />
    <glyph glyph-name="uni04B7" unicode="&#x4b7;" horiz-adv-x="386" 
d="M371 523l-93 -523h-72l41 228q-15 -11 -32.5 -16t-29.5 -5.5t-44 -0.5q-49 0 -85.5 32t-36.5 81q0 14 2 22l32 182l72 1l-36 -202v-3q0 -15 21 -29t57 -14q37 0 64 10t30 28l38 211z" />
    <glyph glyph-name="uni04B8" unicode="&#x4b8;" horiz-adv-x="480" 
d="M503 718l-126 -718h-80l56 317q-46 -37 -132 -37q-21 0 -49.5 6t-61.5 19.5t-55 41t-22 64.5q0 6 3 27l49 280h80l-49 -280l-2 -12q0 -26 44 -43.5t81 -17.5q35 0 82 19.5t51 40.5l51 293h80z" />
    <glyph glyph-name="uni04B9" unicode="&#x4b9;" horiz-adv-x="386" 
d="M371 523l-93 -523h-72l41 228q-15 -11 -32.5 -16t-29.5 -5.5t-44 -0.5q-49 0 -85.5 32t-36.5 81q0 14 2 22l32 182l72 1l-36 -202v-3q0 -15 21 -29t57 -14q37 0 64 10t30 28l38 211z" />
    <glyph glyph-name="uni04BA" unicode="&#x4ba;" horiz-adv-x="480" 
d="M460 280l-49 -280h-80l49 280l2 12q0 26 -43.5 43.5t-80.5 17.5q-35 0 -82 -19.5t-51 -40.5l-52 -293h-80l126 718h80l-56 -317q46 37 133 37q21 0 49 -6t61 -19.5t55 -41t22 -64.5q0 -6 -3 -27z" />
    <glyph glyph-name="uni04BB" unicode="&#x4bb;" horiz-adv-x="386" 
d="M347 184l-32 -182l-72 -1l36 202v3q0 15 -21.5 29t-56.5 14q-37 0 -64 -10t-31 -28l-37 -211l-72 2l93 523h72l-41 -228q15 11 32.5 16t29.5 5.5t44 0.5q49 0 85.5 -32t36.5 -81q0 -6 -2 -22z" />
    <glyph glyph-name="uni04BC" unicode="&#x4bc;" horiz-adv-x="592" 
d="M564 264q-31 -86 -57.5 -131t-66.5 -80q-81 -72 -183 -72q-98 0 -153.5 69.5t-55.5 191.5q0 102 29.5 200t80.5 165q98 130 241 130q92 0 146.5 -56.5t54.5 -152.5q0 -15 -1 -26h-77q-1 43 -9 66.5t-27 43.5q-36 39 -101 39q-107 0 -178 -108q-34 -51 -55 -130t-21 -158
q0 -91 38 -139.5t110 -48.5q82 0 143 73q35 43 65 124h77z" />
    <glyph glyph-name="uni04BD" unicode="&#x4bd;" horiz-adv-x="410" 
d="M384 185q-62 -200 -210 -200q-71 0 -112 49.5t-41 137.5q0 73 23 146.5t61 124.5q72 95 178 95q61 0 96 -39.5t35 -108.5q0 -9 -2 -43h-70q-1 40 -5 56q-17 56 -77 56q-74 0 -118 -87q-43 -84 -43 -192q0 -119 88 -119q82 0 127 124h70z" />
    <glyph glyph-name="uni04BE" unicode="&#x4be;" horiz-adv-x="592" 
d="M564 264q-31 -86 -57.5 -131t-66.5 -80q-81 -72 -183 -72q-98 0 -153.5 69.5t-55.5 191.5q0 102 29.5 200t80.5 165q98 130 241 130q92 0 146.5 -56.5t54.5 -152.5q0 -15 -1 -26h-77q-1 43 -9 66.5t-27 43.5q-36 39 -101 39q-107 0 -178 -108q-34 -51 -55 -130t-21 -158
q0 -91 38 -139.5t110 -48.5q82 0 143 73q35 43 65 124h77z" />
    <glyph glyph-name="uni04BF" unicode="&#x4bf;" horiz-adv-x="410" 
d="M384 185q-62 -200 -210 -200q-71 0 -112 49.5t-41 137.5q0 73 23 146.5t61 124.5q72 95 178 95q61 0 96 -39.5t35 -108.5q0 -9 -2 -43h-70q-1 40 -5 56q-17 56 -77 56q-74 0 -118 -87q-43 -84 -43 -192q0 -119 88 -119q82 0 127 124h70z" />
    <glyph glyph-name="uni04C0" unicode="&#x4c0;" horiz-adv-x="228" 
d="M114 0h-79l125 718h79z" />
    <glyph glyph-name="uni04C1" unicode="&#x4c1;" horiz-adv-x="902" 
d="M711 954q-17 -56 -42 -87q-41 -49 -111 -49q-101 0 -101 107l1 29h40q2 -27 7 -38q15 -41 68 -41q36 0 58 17.5t41 61.5h39zM860 0h-103l-210 350h-27l-62 -350h-80l62 350h-27l-334 -350h-103l362 382l-229 336h110l198 -290h36l52 290h80l-52 -290h36l302 290h110
l-349 -336z" />
    <glyph glyph-name="uni04C2" unicode="&#x4c2;" horiz-adv-x="656" 
d="M549 759q-17 -56 -42 -87q-41 -49 -111 -49q-101 0 -101 107l1 29h40q2 -27 7 -38q15 -41 68 -41q36 0 58 17.5t41 61.5h39zM611 0h-93l-156 209l-37 -209h-70l37 209l-230 -209h-93l281 262l-179 261h91l146 -221l39 221h70l-39 -221l224 221h91l-271 -261z" />
    <glyph glyph-name="uni04C3" unicode="&#x4c3;" horiz-adv-x="565" 
d="M505 0h-103l-210 350h-27l-62 -350h-80l127 718h80l-52 -291l36 1l302 290h110l-349 -336z" />
    <glyph glyph-name="uni04C4" unicode="&#x4c4;" horiz-adv-x="411" 
d="M371 0h-93l-157 209l-36 -209h-70l92 523h70l-39 -221l224 221h91l-271 -261z" />
    <glyph glyph-name="uni04C7" unicode="&#x4c7;" horiz-adv-x="592" 
d="M490 0h-80l59 335h-308l-58 -335h-80l125 718h80l-52 -297h308l51 297h80z" />
    <glyph glyph-name="uni04C8" unicode="&#x4c8;" horiz-adv-x="471" 
d="M455 523l-92 -523h-72l44 247h-206l-44 -247h-72l92 523l72 1l-36 -207h206l37 208z" />
    <glyph glyph-name="uni04CB" unicode="&#x4cb;" horiz-adv-x="480" 
d="M503 718l-126 -718h-80l56 317q-46 -37 -132 -37q-21 0 -49.5 6t-61.5 19.5t-55 41t-22 64.5q0 6 3 27l49 280h80l-49 -280l-2 -12q0 -26 44 -43.5t81 -17.5q35 0 82 19.5t51 40.5l51 293h80z" />
    <glyph glyph-name="uni04CC" unicode="&#x4cc;" horiz-adv-x="386" 
d="M371 523l-93 -523h-72l41 228q-15 -11 -32.5 -16t-29.5 -5.5t-44 -0.5q-49 0 -85.5 32t-36.5 81q0 14 2 22l32 182l72 1l-36 -202v-3q0 -15 21 -29t57 -14q37 0 64 10t30 28l38 211z" />
    <glyph glyph-name="uni04D0" unicode="&#x4d0;" horiz-adv-x="547" 
d="M527 954q-17 -56 -42 -87q-41 -49 -111 -49q-101 0 -101 107l1 29h40q2 -27 7 -38q15 -41 68 -41q36 0 58 17.5t41 61.5h39zM496 0h-87l-22 209h-236l-98 -209h-82l347 718h90zM374 295l-33 319l-150 -319h183z" />
    <glyph glyph-name="uni04D1" unicode="&#x4d1;" 
d="M453 759q-17 -56 -42 -87q-41 -49 -111 -49q-101 0 -101 107l1 29h40q2 -27 7 -38q15 -41 68 -41q36 0 58 17.5t41 61.5h39zM406 64l-12 -64l-9 -3q-19 -7 -34 -7q-62 0 -62 56q0 6 2 24q-81 -85 -167 -85q-53 0 -83.5 31t-30.5 85q0 79 44.5 134t117.5 65l122 18
q50 8 50 82q0 65 -86 65q-47 0 -74 -23t-44 -78h-66q16 68 45 105q53 69 157 69q67 0 104.5 -30.5t37.5 -84.5q0 -16 -3 -31l-52 -301l-2 -11q-1 -8 4.5 -14t14.5 -6t26 4zM306 181l15 86q-19 -16 -125 -33q-57 -10 -83 -37t-26 -76q0 -63 63 -63q55 0 101.5 36.5t54.5 86.5
z" />
    <glyph glyph-name="uni04D2" unicode="&#x4d2;" horiz-adv-x="547" 
d="M348 818h-75l18 102h74zM498 920l-18 -102h-74l17 102h75zM496 0h-87l-22 209h-236l-98 -209h-82l347 718h90zM374 295l-33 319l-150 -319h183z" />
    <glyph glyph-name="uni04D3" unicode="&#x4d3;" 
d="M274 623h-75l18 102h74zM424 725l-18 -102h-74l17 102h75zM406 64l-12 -64l-9 -3q-19 -7 -34 -7q-62 0 -62 56q0 6 2 24q-81 -85 -167 -85q-53 0 -83.5 31t-30.5 85q0 79 44.5 134t117.5 65l122 18q50 8 50 82q0 65 -86 65q-47 0 -74 -23t-44 -78h-66q16 68 45 105
q53 69 157 69q67 0 104.5 -30.5t37.5 -84.5q0 -16 -3 -31l-52 -301l-2 -11q-1 -8 4.5 -14t14.5 -6t26 4zM306 181l15 86q-19 -16 -125 -33q-57 -10 -83 -37t-26 -76q0 -63 63 -63q55 0 101.5 36.5t54.5 86.5z" />
    <glyph glyph-name="uni04D4" unicode="&#x4d4;" horiz-adv-x="820" 
d="M740 0h-405l36 209h-217l-101 -209h-86l364 718h528l-15 -86h-320l-38 -220h292l-15 -86h-292l-42 -240h326zM445 632h-79l-168 -337h188z" />
    <glyph glyph-name="uni04D5" unicode="&#x4d5;" horiz-adv-x="729" 
d="M695 233h-313q-6 -38 -6 -62q0 -51 26 -80.5t71 -29.5q44 0 81 29t51 74h72q-29 -85 -86.5 -132t-133.5 -47q-59 0 -92 25.5t-50 83.5q-45 -58 -88.5 -83.5t-99.5 -25.5q-55 0 -86 30.5t-31 85.5q0 79 44.5 134t117.5 65l122 18q50 8 50 82q0 65 -86 65q-47 0 -74 -23
t-44 -78h-66q16 68 45 105q54 69 163 69q47 0 74 -15.5t52 -58.5q42 42 75 58t78 16q79 0 113 -56q32 -56 32 -128q0 -44 -11 -121zM633 303q2 36 2 47q0 50 -24.5 79.5t-66.5 29.5q-52 0 -93.5 -43t-56.5 -113h239zM306 181l15 86q-13 -11 -37 -17t-88 -16
q-57 -10 -83 -36.5t-26 -75.5q0 -64 63 -64q55 0 101 36.5t55 86.5z" />
    <glyph glyph-name="uni04D6" unicode="&#x4d6;" horiz-adv-x="547" 
d="M542 954q-17 -56 -42 -87q-41 -49 -111 -49q-101 0 -101 107l1 29h40q2 -27 7 -38q15 -41 68 -41q36 0 58 17.5t41 61.5h39zM466 0h-435l125 718h429l-15 -86h-349l-39 -220h323l-15 -86h-323l-41 -240h355z" />
    <glyph glyph-name="uni04D7" unicode="&#x4d7;" 
d="M450 759q-17 -56 -42 -87q-41 -49 -111 -49q-101 0 -101 107l1 29h40q2 -27 7 -38q15 -41 68 -41q36 0 58 17.5t41 61.5h39zM423 233h-313q-6 -37 -6 -62q0 -51 26 -80.5t72 -29.5q44 0 81 29t50 74h72q-28 -85 -86 -132t-133 -47t-116 49t-41 138q0 73 23 146.5
t61 124.5q70 95 176 95q80 0 113 -56q32 -56 32 -128q0 -44 -11 -121zM361 303q2 36 2 47q0 50 -24.5 79.5t-66.5 29.5q-52 0 -93 -43t-57 -113h239z" />
    <glyph glyph-name="uni04D8" unicode="&#x4d8;" horiz-adv-x="592" 
d="M600 476q0 -102 -29.5 -200t-80.5 -165q-98 -130 -241 -130q-92 0 -146.5 56.5t-54.5 152.5q0 15 1 26h77q1 -43 9 -66.5t27 -43.5q36 -39 101 -39q107 0 178 108q34 51 55 130t21 158q0 91 -38 139.5t-110 48.5q-82 0 -143 -73q-35 -43 -65 -124h-77q31 86 57.5 131
t66.5 80q81 72 183 72q98 0 153.5 -69.5t55.5 -191.5z" />
    <glyph glyph-name="afii10846" unicode="&#x4d9;" horiz-adv-x="410" 
d="M414 351q0 -73 -23 -146.5t-61 -124.5q-72 -95 -178 -95q-61 0 -96 39.5t-35 108.5q0 9 2 43h70q1 -40 5 -56q17 -56 77 -56q74 0 118 87q43 84 43 192q0 119 -88 119q-82 0 -127 -124h-70q62 200 210 200q71 0 112 -49.5t41 -137.5z" />
    <glyph glyph-name="uni04DA" unicode="&#x4da;" horiz-adv-x="592" 
d="M375 818h-75l18 102h74zM525 920l-18 -102h-74l17 102h75zM600 476q0 -102 -29.5 -200t-80.5 -165q-98 -130 -241 -130q-92 0 -146.5 56.5t-54.5 152.5q0 15 1 26h77q1 -43 9 -66.5t27 -43.5q36 -39 101 -39q107 0 178 108q34 51 55 130t21 158q0 91 -38 139.5t-110 48.5
q-82 0 -143 -73q-35 -43 -65 -124h-77q31 86 57.5 131t66.5 80q81 72 183 72q98 0 153.5 -69.5t55.5 -191.5z" />
    <glyph glyph-name="uni04DB" unicode="&#x4db;" horiz-adv-x="410" 
d="M260 623h-75l18 102h74zM410 725l-18 -102h-74l17 102h75zM414 351q0 -73 -23 -146.5t-61 -124.5q-72 -95 -178 -95q-61 0 -96 39.5t-35 108.5q0 9 2 43h70q1 -40 5 -56q17 -56 77 -56q74 0 118 87q43 84 43 192q0 119 -88 119q-82 0 -127 -124h-70q62 200 210 200
q71 0 112 -49.5t41 -137.5z" />
    <glyph glyph-name="uni04DC" unicode="&#x4dc;" horiz-adv-x="902" 
d="M532 818h-75l18 102h74zM682 920l-18 -102h-74l17 102h75zM860 0h-103l-210 350h-27l-62 -350h-80l62 350h-27l-334 -350h-103l362 382l-229 336h110l198 -290h36l52 290h80l-52 -290h36l302 290h110l-349 -336z" />
    <glyph glyph-name="uni04DD" unicode="&#x4dd;" horiz-adv-x="656" 
d="M370 623h-75l18 102h74zM520 725l-18 -102h-74l17 102h75zM611 0h-93l-156 209l-37 -209h-70l37 209l-230 -209h-93l281 262l-179 261h91l146 -221l39 221h70l-39 -221l224 221h91l-271 -261z" />
    <glyph glyph-name="uni04DE" unicode="&#x4de;" horiz-adv-x="557" 
d="M336 818h-75l18 102h74zM486 920l-18 -102h-74l17 102h75zM490 197q-18 -101 -90 -158.5t-180 -57.5q-67 0 -109 21.5t-68 68.5q-18 32 -21 68t6 93h75q-9 -61 6 -98q30 -70 129 -70q71 0 117 32.5t56 91.5q10 60 -12.5 101t-91.5 42l-116 2l10 69h122q47 0 79.5 41
t40.5 87q10 59 -19.5 91.5t-92.5 32.5q-84 0 -134 -61q-25 -33 -38 -85h-75q21 84 52 129q73 100 210 100q107 0 149 -67q38 -64 23 -152q-18 -97 -88 -143q83 -47 60 -178z" />
    <glyph glyph-name="uni04DF" unicode="&#x4df;" horiz-adv-x="410" 
d="M245 623h-75l18 102h74zM395 725l-18 -102h-74l17 102h75zM369 157q-14 -79 -70 -125.5t-138 -46.5q-111 0 -139 79q-13 33 -5 104h70q-6 -56 15.5 -81t76.5 -25q47 0 78 22t38 60q7 37 -7.5 66.5t-60.5 29.5h-69l12 69h58q76 0 91 78q6 34 -14.5 54t-61.5 20
q-92 0 -113 -87h-70q19 79 68.5 121.5t122.5 42.5q74 0 111 -45t24 -120q-12 -64 -59 -99q57 -36 42 -117z" />
    <glyph glyph-name="uni04E0" unicode="&#x4e0;" horiz-adv-x="557" 
d="M490 197q-18 -101 -90 -158.5t-180 -57.5q-67 0 -109 21.5t-68 68.5q-18 32 -21 68t6 93h75q-9 -61 6 -98q30 -70 129 -70q71 0 117 32.5t56 91.5q10 60 -12.5 101t-91.5 42l-116 2l10 69h122q47 0 79.5 41t40.5 87q10 59 -19.5 91.5t-92.5 32.5q-84 0 -134 -61
q-25 -33 -38 -85h-75q21 84 52 129q73 100 210 100q107 0 149 -67q38 -64 23 -152q-18 -97 -88 -143q83 -47 60 -178z" />
    <glyph glyph-name="uni04E1" unicode="&#x4e1;" horiz-adv-x="410" 
d="M369 157q-14 -79 -70 -125.5t-138 -46.5q-111 0 -139 79q-13 33 -5 104h70q-6 -56 15.5 -81t76.5 -25q47 0 78 22t38 60q7 37 -7.5 66.5t-60.5 29.5h-69l12 69h58q76 0 91 78q6 34 -14.5 54t-61.5 20q-92 0 -113 -87h-70q19 79 68.5 121.5t122.5 42.5q74 0 111 -45
t24 -120q-12 -64 -59 -99q57 -36 42 -117z" />
    <glyph glyph-name="uni04E2" unicode="&#x4e2;" horiz-adv-x="594" 
d="M539 875l-10 -57h-257l10 57h257zM618 718l-127 -718h-77l103 583l-405 -583h-89l127 718h77l-103 -583l400 583h94z" />
    <glyph glyph-name="uni04E3" unicode="&#x4e3;" horiz-adv-x="471" 
d="M436 680l-10 -57h-257l10 57h257zM455 523l-92 -523h-72l75 427l-261 -427h-92l92 523l72 1l-76 -433l262 432q66 -1 92 0z" />
    <glyph glyph-name="uni04E4" unicode="&#x4e4;" horiz-adv-x="594" 
d="M372 818h-75l18 102h74zM522 920l-18 -102h-74l17 102h75zM618 718l-127 -718h-77l103 583l-405 -583h-89l127 718h77l-103 -583l400 583h94z" />
    <glyph glyph-name="uni04E5" unicode="&#x4e5;" horiz-adv-x="471" 
d="M269 623h-75l18 102h74zM419 725l-18 -102h-74l17 102h75zM455 523l-92 -523h-72l75 427l-261 -427h-92l92 523l72 1l-76 -433l262 432q66 -1 92 0z" />
    <glyph glyph-name="uni04E6" unicode="&#x4e6;" horiz-adv-x="638" 
d="M393 818h-75l18 102h74zM543 920l-18 -102h-74l17 102h75zM637 456q0 -91 -29.5 -181.5t-81.5 -159.5q-101 -134 -250 -134q-102 0 -160 61q-32 33 -51 93t-19 126q0 91 29.5 182.5t80.5 159.5q102 134 251 134q109 0 169.5 -73.5t60.5 -207.5zM554 445q0 96 -43 151
t-119 55q-109 0 -186 -110.5t-77 -266.5q0 -97 43 -152t118 -55q64 0 118.5 39t91.5 110q54 106 54 229z" />
    <glyph glyph-name="uni04E7" unicode="&#x4e7;" 
d="M268 623h-75l18 102h74zM418 725l-18 -102h-74l17 102h75zM439 336q0 -146 -82 -255q-71 -95 -172 -95q-74 0 -115.5 54t-41.5 149q0 67 22 135.5t60 118.5q72 95 172 95q73 0 115 -53.5t42 -148.5zM364 325q0 66 -25 101.5t-71 35.5q-76 0 -124 -92q-41 -79 -41 -172
q0 -66 24.5 -101t71.5 -35q76 0 124 92q41 79 41 171z" />
    <glyph glyph-name="uni04E8" unicode="&#x4e8;" horiz-adv-x="638" 
d="M637 456q0 -91 -29.5 -181.5t-81.5 -159.5q-101 -134 -250 -134q-102 0 -160 61q-32 33 -51 93t-19 126q0 91 29.5 182.5t80.5 159.5q102 134 251 134q109 0 169.5 -73.5t60.5 -207.5zM554 445q0 96 -43 151t-119 55q-109 0 -186 -110.5t-77 -266.5q0 -97 43 -152
t118 -55q64 0 118.5 39t91.5 110q54 106 54 229z" />
    <glyph glyph-name="uni04E9" unicode="&#x4e9;" 
d="M439 336q0 -146 -82 -255q-71 -95 -172 -95q-74 0 -115.5 54t-41.5 149q0 67 22 135.5t60 118.5q72 95 172 95q73 0 115 -53.5t42 -148.5zM364 325q0 66 -25 101.5t-71 35.5q-76 0 -124 -92q-41 -79 -41 -172q0 -66 24.5 -101t71.5 -35q76 0 124 92q41 79 41 171z" />
    <glyph glyph-name="uni04EA" unicode="&#x4ea;" horiz-adv-x="638" 
d="M393 818h-75l18 102h74zM543 920l-18 -102h-74l17 102h75zM637 456q0 -91 -29.5 -181.5t-81.5 -159.5q-101 -134 -250 -134q-102 0 -160 61q-32 33 -51 93t-19 126q0 91 29.5 182.5t80.5 159.5q102 134 251 134q109 0 169.5 -73.5t60.5 -207.5zM554 445q0 96 -43 151
t-119 55q-109 0 -186 -110.5t-77 -266.5q0 -97 43 -152t118 -55q64 0 118.5 39t91.5 110q54 106 54 229z" />
    <glyph glyph-name="uni04EB" unicode="&#x4eb;" 
d="M268 623h-75l18 102h74zM418 725l-18 -102h-74l17 102h75zM439 336q0 -146 -82 -255q-71 -95 -172 -95q-74 0 -115.5 54t-41.5 149q0 67 22 135.5t60 118.5q72 95 172 95q73 0 115 -53.5t42 -148.5zM364 325q0 66 -25 101.5t-71 35.5q-76 0 -124 -92q-41 -79 -41 -172
q0 -66 24.5 -101t71.5 -35q76 0 124 92q41 79 41 171z" />
    <glyph glyph-name="uni04EC" unicode="&#x4ec;" horiz-adv-x="590" 
d="M370 818h-75l18 102h74zM520 920l-18 -102h-74l17 102h75zM579 358q-31 -173 -120.5 -275t-211.5 -102q-102 0 -157 72q-28 35 -39 81t-11 130h77q1 -81 21 -123q37 -73 117 -73q85 0 146.5 67t88.5 190h-279l15 87h277q10 113 -29.5 175.5t-120.5 62.5q-62 0 -114 -38
q-25 -19 -41 -43t-33 -67h-77q22 72 59 121q86 114 223 114q126 0 182.5 -102.5t26.5 -276.5z" />
    <glyph glyph-name="uni04ED" unicode="&#x4ed;" horiz-adv-x="430" 
d="M260 623h-75l18 102h74zM410 725l-18 -102h-74l17 102h75zM406 252q-21 -122 -86 -194.5t-153 -72.5q-149 0 -138 200h70q0 -123 83 -123q52 0 90.5 48t56.5 137h-166l12 70h162q6 143 -90 143q-43 0 -72 -27t-48 -86h-70q54 191 197 191q93 0 134 -77.5t18 -208.5z" />
    <glyph glyph-name="uni04EE" unicode="&#x4ee;" horiz-adv-x="568" 
d="M523 875l-10 -57h-257l10 57h257zM629 718l-496 -718h-88l201 298l-141 420h93l108 -345l230 345h93z" />
    <glyph glyph-name="uni04EF" unicode="&#x4ef;" horiz-adv-x="412" 
d="M409 680l-10 -57h-257l10 57h257zM449 523l-244 -513q-41 -84 -62 -123t-44.5 -65t-42 -31t-52.5 -5q-13 0 -29 6l-3 1l-3 1l14 80q21 -9 42 -9q23 0 37 13.5t33 53.5l27 54l-65 537h82l40 -429l190 429h80z" />
    <glyph glyph-name="uni04F0" unicode="&#x4f0;" horiz-adv-x="568" 
d="M356 818h-75l18 102h74zM506 920l-18 -102h-74l17 102h75zM629 718l-496 -718h-88l201 298l-141 420h93l108 -345l230 345h93z" />
    <glyph glyph-name="uni04F1" unicode="&#x4f1;" horiz-adv-x="412" 
d="M242 623h-75l18 102h74zM392 725l-18 -102h-74l17 102h75zM449 523l-244 -513q-41 -84 -62 -123t-44.5 -65t-42 -31t-52.5 -5q-13 0 -29 6l-3 1l-3 1l14 80q21 -9 42 -9q23 0 37 13.5t33 53.5l27 54l-65 537h82l40 -429l190 429h80z" />
    <glyph glyph-name="uni04F2" unicode="&#x4f2;" horiz-adv-x="568" 
d="M417 959l-132 -141h-55l97 141h90zM564 959l-132 -141h-55l98 141h89zM629 718l-496 -718h-88l201 298l-141 420h93l108 -345l230 345h93z" />
    <glyph glyph-name="uni04F3" unicode="&#x4f3;" horiz-adv-x="412" 
d="M303 764l-132 -141h-55l97 141h90zM450 764l-132 -141h-55l98 141h89zM449 523l-244 -513q-41 -84 -62 -123t-44.5 -65t-42 -31t-52.5 -5q-13 0 -29 6l-3 1l-3 1l14 80q21 -9 42 -9q23 0 37 13.5t33 53.5l27 54l-65 537h82l40 -429l190 429h80z" />
    <glyph glyph-name="uni04F4" unicode="&#x4f4;" horiz-adv-x="480" 
d="M279 797h-75l18 102h74zM429 899l-18 -102h-74l17 102h75zM503 718l-126 -718h-80l56 317q-46 -37 -132 -37q-21 0 -49.5 6t-61.5 19.5t-55 41t-22 64.5q0 6 3 27l49 280h80l-49 -280l-2 -12q0 -26 44 -43.5t81 -17.5q35 0 82 19.5t51 40.5l51 293h80z" />
    <glyph glyph-name="uni04F5" unicode="&#x4f5;" horiz-adv-x="386" 
d="M198 628h-75l18 102h74zM348 730l-18 -102h-74l17 102h75zM371 523l-93 -523h-72l41 228q-15 -11 -32.5 -16t-29.5 -5.5t-44 -0.5q-49 0 -85.5 32t-36.5 81q0 14 2 22l32 182h72l-36 -201v-3q0 -15 21 -29t57 -14q37 0 64 10t30 28l38 209h72z" />
    <glyph glyph-name="uni04F8" unicode="&#x4f8;" horiz-adv-x="781" 
d="M466 818h-75l18 102h74zM616 920l-18 -102h-74l17 102h75zM805 718l-127 -718h-79l127 718h79zM498 203q-17 -92 -74.5 -147.5t-136.5 -55.5h-264l127 718h80l-54 -303h184q79 0 117 -58t21 -154zM416 206q22 126 -97 126h-157l-44 -249h160q117 0 138 123z" />
    <glyph glyph-name="uni04F9" unicode="&#x4f9;" horiz-adv-x="601" 
d="M334 623h-75l18 102h74zM484 725l-18 -102h-74l17 102h75zM585 523l-92 -523h-72l92 523h72zM407 161q-12 -72 -71 -116.5t-148 -44.5h-175l92 524l68 -1l-38 -217h126q81 0 119 -43t27 -102zM335 161q8 43 -22 61t-101 18h-89l-30 -170h103q59 0 95.5 23t43.5 68z" />
    <glyph glyph-name="baht" unicode="&#xe3f;" horiz-adv-x="547" 
d="M515 258q0 -108 -70 -183t-171 -75h-20l-14 -83h-54l15 83h-180l125 718h180l15 83h53l-15 -83h26q65 0 101.5 -37.5t36.5 -103.5q0 -126 -108 -190q44 -24 62 -53t18 -76zM461 558q0 74 -96 77l-39 -221q66 3 100.5 41.5t34.5 102.5zM273 414l39 221h-101l-39 -221h101z
M434 244q0 91 -119 91h-2l-44 -252h15q67 0 108.5 45t41.5 116zM259 335h-100l-44 -252h100z" />
    <glyph glyph-name="Ddotbelow" unicode="&#x1e0c;" horiz-adv-x="592" 
d="M586 472q0 -120 -40.5 -227.5t-116 -176t-167.5 -68.5h-236l125 718h239q92 0 144 -65t52 -181zM503 461q0 84 -35.5 129t-102.5 45h-149l-96 -552h154q98 0 163.5 112t65.5 266zM266 -180h-86l16 96h86z" />
    <glyph glyph-name="ddotbelow" unicode="&#x1e0d;" 
d="M369 0h-68l13 75q-32 -49 -64 -69.5t-76 -20.5q-70 0 -107.5 52t-37.5 148q0 147 67 250t164 103q44 0 71 -22t43 -72l48 274h72zM347 334q0 125 -88 125q-50 0 -86.5 -41.5t-53 -101.5t-16.5 -130q0 -59 22.5 -92t62.5 -33q68 0 113.5 75.5t45.5 197.5zM200 -180h-86
l16 96h86z" />
    <glyph glyph-name="Dlinebelow" unicode="&#x1e0e;" horiz-adv-x="592" 
d="M586 472q0 -120 -40.5 -227.5t-116 -176t-167.5 -68.5h-236l125 718h239q92 0 144 -65t52 -181zM503 461q0 84 -35.5 129t-102.5 45h-149l-96 -552h154q98 0 163.5 112t65.5 266zM365 -103l-10 -57h-257l10 57h257z" />
    <glyph glyph-name="dlinebelow" unicode="&#x1e0f;" 
d="M369 0h-68l13 75q-32 -49 -64 -69.5t-76 -20.5q-70 0 -107.5 52t-37.5 148q0 147 67 250t164 103q44 0 71 -22t43 -72l48 274h72zM347 334q0 125 -88 125q-50 0 -86.5 -41.5t-53 -101.5t-16.5 -130q0 -59 22.5 -92t62.5 -33q68 0 113.5 75.5t45.5 197.5zM299 -103
l-10 -57h-257l10 57h257z" />
    <glyph glyph-name="Hdotbelow" unicode="&#x1e24;" horiz-adv-x="592" 
d="M490 0h-80l59 335h-308l-58 -335h-80l125 718h80l-52 -297h308l51 297h80zM268 -180h-86l16 96h86z" />
    <glyph glyph-name="hdotbelow" unicode="&#x1e25;" 
d="M363 0h-72l59 342q5 27 5 48q0 69 -68 69q-58 0 -98 -45.5t-54 -128.5l-50 -285h-72l125 718h73l-47 -267q40 49 72 68t75 19q56 0 87.5 -33.5t31.5 -94.5q0 -22 -5 -54zM200 -180h-86l16 96h86z" />
    <glyph glyph-name="Hdieresis" unicode="&#x1e26;" horiz-adv-x="592" 
d="M490 0h-80l59 335h-308l-58 -335h-80l125 718h80l-52 -297h308l51 297h80zM358 792h-88l17 96h88zM519 792h-88l17 96h88z" />
    <glyph glyph-name="hdieresis" unicode="&#x1e27;" 
d="M363 0h-72l59 342q5 27 5 48q0 69 -68 69q-58 0 -98 -45.5t-54 -128.5l-50 -285h-72l125 718h73l-47 -267q40 49 72 68t75 19q56 0 87.5 -33.5t31.5 -94.5q0 -22 -5 -54zM290 792h-88l17 96h88zM451 792h-88l17 96h88z" />
    <glyph glyph-name="Hbrevebelow" unicode="&#x1e2a;" horiz-adv-x="592" 
d="M490 0h-80l59 335h-308l-58 -335h-80l125 718h80l-52 -297h308l51 297h80zM379 -74q-55 -116 -160 -116q-54 0 -80.5 29t-31.5 87h40v-7q31 -52 87 -52q35 0 57 14t39 45h49z" />
    <glyph glyph-name="hbrevebelow" unicode="&#x1e2b;" 
d="M363 0h-72l59 342q5 27 5 48q0 69 -68 69q-58 0 -98 -45.5t-54 -128.5l-50 -285h-72l125 718h73l-47 -267q40 49 72 68t75 19q56 0 87.5 -33.5t31.5 -94.5q0 -22 -5 -54zM311 -74q-55 -116 -160 -116q-54 0 -80.5 29t-31.5 87h40v-7q31 -52 87 -52q35 0 57 14t39 45h49z
" />
    <glyph glyph-name="Ldotbelow" unicode="&#x1e36;" 
d="M400 0h-378l125 718h80l-110 -632h298zM223 -180h-86l16 96h86z" />
    <glyph glyph-name="ldotbelow" unicode="&#x1e37;" horiz-adv-x="182" 
d="M87 0h-72l125 718h72zM63 -180h-86l16 96h86z" />
    <glyph glyph-name="Ldotbelowmacron" unicode="&#x1e38;" 
d="M400 0h-378l125 718h80l-110 -632h298zM223 -180h-86l16 96h86zM341 869l-10 -57h-257l10 57h257z" />
    <glyph glyph-name="ldotbelowmacron" unicode="&#x1e39;" horiz-adv-x="182" 
d="M87 0h-72l125 718h72zM63 -180h-86l16 96h86zM331 869l-10 -57h-257l10 57h257z" />
    <glyph glyph-name="Mdotbelow" unicode="&#x1e42;" horiz-adv-x="683" 
d="M584 0h-77l74 424l34 185l-274 -609h-78l-62 608l-23 -138q-4 -22 -7 -46l-74 -424h-77l125 718h114l63 -610l274 610h113zM314 -180h-86l16 96h86z" />
    <glyph glyph-name="mdotbelow" unicode="&#x1e43;" horiz-adv-x="683" 
d="M591 0h-72l59 338q4 21 4 49q0 72 -61 72q-43 0 -79.5 -40.5t-47.5 -99.5l-56 -319h-72l63 362q3 15 3 31q0 66 -52 66q-53 0 -92 -47t-53 -127l-50 -285h-72l91 523h69l-14 -77q37 49 71.5 70.5t77.5 21.5q40 0 63 -20t35 -65q47 50 76 67.5t68 17.5q51 0 80 -33t29 -91
q0 -24 -5 -52zM314 -180h-86l16 96h86z" />
    <glyph glyph-name="Ndotaccent" unicode="&#x1e44;" horiz-adv-x="592" 
d="M490 0h-90l-199 583l-102 -583h-77l125 718h95l194 -583l102 583h77zM438 792h-86l17 96h86z" />
    <glyph glyph-name="ndotaccent" unicode="&#x1e45;" 
d="M363 0h-72l56 322q5 33 5 60q0 77 -69 77q-55 0 -94.5 -46.5t-53.5 -127.5l-50 -285h-72l91 523h68l-13 -77q38 49 73.5 70.5t79.5 21.5q55 0 86.5 -34t31.5 -94q0 -22 -5 -54zM337 607h-86l17 96h86z" />
    <glyph glyph-name="Ndotbelow" unicode="&#x1e46;" horiz-adv-x="592" 
d="M490 0h-90l-199 583l-102 -583h-77l125 718h95l194 -583l102 583h77zM268 -180h-86l16 96h86z" />
    <glyph glyph-name="ndotbelow" unicode="&#x1e47;" 
d="M363 0h-72l56 322q5 33 5 60q0 77 -69 77q-55 0 -94.5 -46.5t-53.5 -127.5l-50 -285h-72l91 523h68l-13 -77q38 49 73.5 70.5t79.5 21.5q55 0 86.5 -34t31.5 -94q0 -22 -5 -54zM200 -180h-86l16 96h86z" />
    <glyph glyph-name="Rdotaccent" unicode="&#x1e58;" horiz-adv-x="592" 
d="M524 16l-3 -16h-98v17q0 57 18 163q5 33 5 50q0 78 -88 78h-193l-53 -308h-80l125 718h273q80 0 122 -36.5t42 -106.5q0 -143 -116 -222q29 -17 39.5 -35t10.5 -55q0 -23 -3 -45l-18 -130q-3 -21 -3 -34q0 -21 20 -38zM509 552q0 83 -88 83h-199l-42 -244h184
q71 0 108 43.5t37 117.5zM422 792h-86l17 96h86z" />
    <glyph glyph-name="rdotaccent" unicode="&#x1e59;" horiz-adv-x="273" 
d="M325 535l-16 -91h-27q-47 0 -85.5 -39.5t-48.5 -100.5l-53 -304h-72l91 523h68l-16 -90q39 57 71 81t70 24q9 0 18 -3zM246 607h-86l17 96h86z" />
    <glyph glyph-name="Rdotbelow" unicode="&#x1e5a;" horiz-adv-x="592" 
d="M524 16l-3 -16h-98v17q0 57 18 163q5 33 5 50q0 78 -88 78h-193l-53 -308h-80l125 718h273q80 0 122 -36.5t42 -106.5q0 -143 -116 -222q29 -17 39.5 -35t10.5 -55q0 -23 -3 -45l-18 -130q-3 -21 -3 -34q0 -21 20 -38zM509 552q0 83 -88 83h-199l-42 -244h184
q71 0 108 43.5t37 117.5zM252 -180h-86l16 96h86z" />
    <glyph glyph-name="rdotbelow" unicode="&#x1e5b;" horiz-adv-x="273" 
d="M325 535l-16 -91h-27q-47 0 -85.5 -39.5t-48.5 -100.5l-53 -304h-72l91 523h68l-16 -90q39 57 71 81t70 24q9 0 18 -3zM71 -180h-86l16 96h86z" />
    <glyph glyph-name="Rdotbelowmacron" unicode="&#x1e5c;" horiz-adv-x="592" 
d="M524 16l-3 -16h-98v17q0 57 18 163q5 33 5 50q0 78 -88 78h-193l-53 -308h-80l125 718h273q80 0 122 -36.5t42 -106.5q0 -143 -116 -222q29 -17 39.5 -35t10.5 -55q0 -23 -3 -45l-18 -130q-3 -21 -3 -34q0 -21 20 -38zM509 552q0 83 -88 83h-199l-42 -244h184
q71 0 108 43.5t37 117.5zM252 -180h-86l16 96h86zM520 869l-10 -57h-257l10 57h257z" />
    <glyph glyph-name="rdotbelowmacron" unicode="&#x1e5d;" horiz-adv-x="273" 
d="M325 535l-16 -91h-27q-47 0 -85.5 -39.5t-48.5 -100.5l-53 -304h-72l91 523h68l-16 -90q39 57 71 81t70 24q9 0 18 -3zM71 -180h-86l16 96h86zM346 699l-10 -57h-257l10 57h257z" />
    <glyph glyph-name="Sdotbelow" unicode="&#x1e62;" horiz-adv-x="547" 
d="M507 246q0 -118 -76.5 -191.5t-198.5 -73.5q-93 0 -145.5 49t-52.5 127q0 33 7 75h75q-4 -24 -4 -46q0 -57 37 -89.5t102 -32.5q81 0 128.5 41.5t47.5 111.5q0 36 -23 56.5t-84 38.5l-114 34q-100 30 -100 129q0 107 71.5 184.5t180.5 77.5q88 0 137 -44.5t49 -123.5
q0 -29 -4 -61h-75q2 26 2 33q0 52 -33 82.5t-90 30.5q-69 0 -113 -41.5t-44 -106.5q0 -53 56 -69l159 -47q105 -30 105 -144zM244 -180h-86l16 96h86z" />
    <glyph glyph-name="sdotbelow" unicode="&#x1e63;" horiz-adv-x="410" 
d="M371 189q0 -85 -60.5 -144.5t-146.5 -59.5q-73 0 -112.5 34.5t-39.5 96.5q0 24 4 52h70q-2 -22 -2 -29q0 -37 24.5 -57.5t69.5 -20.5q51 0 84 27t33 70q0 21 -16.5 34.5t-57.5 26.5l-79 25q-79 25 -79 98q0 82 56.5 139t138.5 57q63 0 99.5 -34.5t36.5 -95.5q0 -6 -2 -34
h-70q2 18 2 22q0 31 -22 48.5t-61 17.5q-46 0 -75 -25t-29 -65q0 -20 13.5 -31t52.5 -23l69 -22q52 -17 75.5 -42.5t23.5 -64.5zM177 -180h-86l16 96h86z" />
    <glyph glyph-name="Tdotbelow" unicode="&#x1e6c;" horiz-adv-x="501" 
d="M560 632h-199l-110 -632h-80l110 632h-199l15 86h478zM223 -180h-86l16 96h86z" />
    <glyph glyph-name="tdotbelow" unicode="&#x1e6d;" horiz-adv-x="228" 
d="M171 0q-56 -7 -60 -7q-67 0 -67 70q0 23 4 42l60 345h-58l13 73h58l25 146h73l-26 -146h69l-13 -73h-69l-59 -340q-1 -4 -1 -12q0 -29 37 -29h26zM86 -180h-86l16 96h86z" />
    <glyph glyph-name="Tlinebelow" unicode="&#x1e6e;" horiz-adv-x="501" 
d="M560 632h-199l-110 -632h-80l110 632h-199l15 86h478zM322 -103l-10 -57h-257l10 57h257z" />
    <glyph glyph-name="tlinebelow" unicode="&#x1e6f;" horiz-adv-x="228" 
d="M171 0q-56 -7 -60 -7q-67 0 -67 70q0 23 4 42l60 345h-58l13 73h58l25 146h73l-26 -146h69l-13 -73h-69l-59 -340q-1 -4 -1 -12q0 -29 37 -29h26zM185 -103l-10 -57h-257l10 57h257z" />
    <glyph glyph-name="Wgrave" unicode="&#x1e80;" horiz-adv-x="774" 
d="M846 718l-280 -718h-115v599l-241 -599h-112v718h94v-588l236 588h117v-588l213 588h88zM525 779h-55l-86 121h99z" />
    <glyph glyph-name="wgrave" unicode="&#x1e81;" horiz-adv-x="592" 
d="M633 523l-216 -523h-91v409l-156 -409h-74l-33 523h89v-415l156 415h93v-415l160 415h72zM386 584h-55l-83 141h99z" />
    <glyph glyph-name="Wacute" unicode="&#x1e82;" horiz-adv-x="774" 
d="M846 718l-280 -718h-115v599l-241 -599h-112v718h94v-588l236 588h117v-588l213 588h88zM652 900l-128 -121h-55l84 121h99z" />
    <glyph glyph-name="wacute" unicode="&#x1e83;" horiz-adv-x="592" 
d="M633 523l-216 -523h-91v409l-156 -409h-74l-33 523h89v-415l156 415h93v-415l160 415h72zM517 725l-132 -141h-55l88 141h99z" />
    <glyph glyph-name="Wdieresis" unicode="&#x1e84;" horiz-adv-x="774" 
d="M846 718l-280 -718h-115v599l-241 -599h-112v718h94v-588l236 588h117v-588l213 588h88zM463 792h-88l17 96h88zM624 792h-88l17 96h88z" />
    <glyph glyph-name="wdieresis" unicode="&#x1e85;" horiz-adv-x="592" 
d="M633 523l-216 -523h-91v409l-156 -409h-74l-33 523h89v-415l156 415h93v-415l160 415h72zM325 607h-88l17 96h88zM486 607h-88l17 96h88z" />
    <glyph glyph-name="Zdotbelow" unicode="&#x1e92;" horiz-adv-x="501" 
d="M442 0h-463l14 81l457 551h-334l15 86h436l-15 -84l-457 -548h362zM236 -180h-86l16 96h86z" />
    <glyph glyph-name="zdotbelow" unicode="&#x1e93;" horiz-adv-x="410" 
d="M357 73l-13 -73h-359l12 69l325 381h-239l13 73h332l-13 -72l-321 -378h263zM177 -180h-86l16 96h86z" />
    <glyph glyph-name="tdieresis" unicode="&#x1e97;" horiz-adv-x="228" 
d="M171 0q-56 -7 -60 -7q-67 0 -67 70q0 23 4 42l60 345h-58l13 73h58l25 146h73l-26 -146h69l-13 -73h-69l-59 -340q-1 -4 -1 -12q0 -29 37 -29h26zM159 743h-88l17 96h88zM320 743h-88l17 96h88z" />
    <glyph glyph-name="Adotbelow" unicode="&#x1ea0;" horiz-adv-x="547" 
d="M496 0h-87l-22 209h-236l-98 -209h-82l347 718h90zM374 295l-33 319l-150 -319h183zM246 -180h-86l16 96h86z" />
    <glyph glyph-name="adotbelow" unicode="&#x1ea1;" 
d="M406 64l-12 -64l-9 -3q-19 -7 -34 -7q-62 0 -62 56q0 6 2 24q-81 -85 -167 -85q-53 0 -83.5 31t-30.5 85q0 79 44.5 134t117.5 65l122 18q50 8 50 82q0 65 -86 65q-47 0 -74 -23t-44 -78h-66q39 174 202 174q67 0 104.5 -30.5t37.5 -84.5q0 -16 -3 -31l-54 -312
q0 -20 19 -20q9 0 26 4zM306 181l15 86q-19 -16 -125 -33q-57 -10 -83 -37t-26 -76q0 -63 63 -63q55 0 101 36.5t55 86.5zM194 -180h-86l16 96h86z" />
    <glyph glyph-name="Ahookabove" unicode="&#x1ea2;" horiz-adv-x="547" 
d="M496 0h-87l-22 209h-236l-98 -209h-82l347 718h90zM374 295l-33 319l-150 -319h183zM495 876q-3 -19 -15 -32t-41 -30q-35 -22 -37 -32l-4 -24h-56l5 27q3 18 15 29.5t43 28.5q33 19 34 33q2 11 -9 18t-32 7q-31 0 -43 -14q-8 -8 -12 -34h-55q15 92 120 92q46 0 69 -18.5
t18 -50.5z" />
    <glyph glyph-name="ahookabove" unicode="&#x1ea3;" 
d="M406 64l-12 -64l-9 -3q-19 -7 -34 -7q-62 0 -62 56q0 6 2 24q-81 -85 -167 -85q-53 0 -83.5 31t-30.5 85q0 79 44.5 134t117.5 65l122 18q50 8 50 82q0 65 -86 65q-47 0 -74 -23t-44 -78h-66q39 174 202 174q67 0 104.5 -30.5t37.5 -84.5q0 -16 -3 -31l-54 -312
q0 -20 19 -20q9 0 26 4zM306 181l15 86q-19 -16 -125 -33q-57 -10 -83 -37t-26 -76q0 -63 63 -63q55 0 101 36.5t55 86.5zM405 681q-3 -19 -15 -32t-41 -30q-35 -22 -37 -32l-4 -24h-56l5 27q3 18 15 29.5t43 28.5q33 19 34 33q2 11 -9 18t-32 7q-31 0 -43 -14
q-8 -8 -12 -34h-55q15 92 120 92q46 0 69 -18.5t18 -50.5z" />
    <glyph glyph-name="Acircumflexacute" unicode="&#x1ea4;" horiz-adv-x="547" 
d="M496 0h-87l-22 209h-236l-98 -209h-82l347 718h90zM374 295l-33 319l-150 -319h183zM555 1042l-129 -121h-55l85 121h99zM509 780h-66l-56 73l-82 -73h-65l117 121h77z" />
    <glyph glyph-name="acircumflexacute" unicode="&#x1ea5;" 
d="M406 64l-12 -64l-9 -3q-19 -7 -34 -7q-62 0 -62 56q0 6 2 24q-81 -85 -167 -85q-53 0 -83.5 31t-30.5 85q0 79 44.5 134t117.5 65l122 18q50 8 50 82q0 65 -86 65q-47 0 -74 -23t-44 -78h-66q39 174 202 174q67 0 104.5 -30.5t37.5 -84.5q0 -16 -3 -31l-54 -312
q0 -20 19 -20q9 0 26 4zM306 181l15 86q-19 -16 -125 -33q-57 -10 -83 -37t-26 -76q0 -63 63 -63q55 0 101 36.5t55 86.5zM465 847l-129 -121h-55l85 121h99zM419 585h-66l-56 73l-82 -73h-65l117 121h77z" />
    <glyph glyph-name="Acircumflexgrave" unicode="&#x1ea6;" horiz-adv-x="547" 
d="M496 0h-87l-22 209h-236l-98 -209h-82l347 718h90zM374 295l-33 319l-150 -319h183zM427 921h-55l-87 121h99zM509 780h-66l-56 73l-82 -73h-65l117 121h77z" />
    <glyph glyph-name="acircumflexgrave" unicode="&#x1ea7;" 
d="M406 64l-12 -64l-9 -3q-19 -7 -34 -7q-62 0 -62 56q0 6 2 24q-81 -85 -167 -85q-53 0 -83.5 31t-30.5 85q0 79 44.5 134t117.5 65l122 18q50 8 50 82q0 65 -86 65q-47 0 -74 -23t-44 -78h-66q39 174 202 174q67 0 104.5 -30.5t37.5 -84.5q0 -16 -3 -31l-54 -312
q0 -20 19 -20q9 0 26 4zM306 181l15 86q-19 -16 -125 -33q-57 -10 -83 -37t-26 -76q0 -63 63 -63q55 0 101 36.5t55 86.5zM337 726h-55l-87 121h99zM419 585h-66l-56 73l-82 -73h-65l117 121h77z" />
    <glyph glyph-name="Acircumflexhookabove" unicode="&#x1ea8;" horiz-adv-x="547" 
d="M496 0h-87l-22 209h-236l-98 -209h-82l347 718h90zM374 295l-33 319l-150 -319h183zM552 1027q-3 -17 -14.5 -29t-40.5 -28q-22 -12 -28.5 -17t-7.5 -11l-4 -21h-56l5 24q3 17 14.5 27t41.5 25q33 18 34 30q2 10 -9.5 16t-32.5 6q-32 0 -42 -12q-7 -6 -12 -31h-55
q15 83 119 83q45 0 69 -17t19 -45zM509 780h-66l-56 73l-82 -73h-65l117 121h77z" />
    <glyph glyph-name="acircumflexhookabove" unicode="&#x1ea9;" 
d="M406 64l-12 -64l-9 -3q-19 -7 -34 -7q-62 0 -62 56q0 6 2 24q-81 -85 -167 -85q-53 0 -83.5 31t-30.5 85q0 79 44.5 134t117.5 65l122 18q50 8 50 82q0 65 -86 65q-47 0 -74 -23t-44 -78h-66q39 174 202 174q67 0 104.5 -30.5t37.5 -84.5q0 -16 -3 -31l-54 -312
q0 -20 19 -20q9 0 26 4zM306 181l15 86q-19 -16 -125 -33q-57 -10 -83 -37t-26 -76q0 -63 63 -63q55 0 101 36.5t55 86.5zM462 832q-3 -17 -14.5 -29t-40.5 -28q-22 -12 -28.5 -17t-7.5 -11l-4 -21h-56l5 24q3 17 14.5 27t41.5 25q33 18 34 30q2 10 -9.5 16t-32.5 6
q-32 0 -42 -12q-7 -6 -12 -31h-55q15 83 119 83q45 0 69 -17t19 -45zM419 585h-66l-56 73l-82 -73h-65l117 121h77z" />
    <glyph glyph-name="Acircumflextilde" unicode="&#x1eaa;" horiz-adv-x="547" 
d="M496 0h-87l-22 209h-236l-98 -209h-82l347 718h90zM374 295l-33 319l-150 -319h183zM561 1047q-34 -109 -102 -109q-16 0 -45 13l-20 9q-34 15 -47 15q-28 0 -47 -44h-39q17 56 42 81.5t62 25.5q25 0 53 -15l17 -9q24 -13 38 -13q30 0 47 46h41zM509 780h-66l-56 73
l-82 -73h-65l117 121h77z" />
    <glyph glyph-name="acircumflextilde" unicode="&#x1eab;" 
d="M406 64l-12 -64l-9 -3q-19 -7 -34 -7q-62 0 -62 56q0 6 2 24q-81 -85 -167 -85q-53 0 -83.5 31t-30.5 85q0 79 44.5 134t117.5 65l122 18q50 8 50 82q0 65 -86 65q-47 0 -74 -23t-44 -78h-66q39 174 202 174q67 0 104.5 -30.5t37.5 -84.5q0 -16 -3 -31l-54 -312
q0 -20 19 -20q9 0 26 4zM306 181l15 86q-19 -16 -125 -33q-57 -10 -83 -37t-26 -76q0 -63 63 -63q55 0 101 36.5t55 86.5zM471 852q-34 -109 -102 -109q-16 0 -45 13l-20 9q-34 15 -47 15q-28 0 -47 -44h-39q17 56 42 81.5t62 25.5q25 0 53 -15l17 -9q24 -13 38 -13
q30 0 47 46h41zM419 585h-66l-56 73l-82 -73h-65l117 121h77z" />
    <glyph glyph-name="Acircumflexdotbelow" unicode="&#x1eac;" horiz-adv-x="547" 
d="M496 0h-87l-22 209h-236l-98 -209h-82l347 718h90zM374 295l-33 319l-150 -319h183zM508 780h-66l-56 73l-82 -73h-65l117 121h77zM246 -180h-86l16 96h86z" />
    <glyph glyph-name="acircumflexdotbelow" unicode="&#x1ead;" 
d="M406 64l-12 -64l-9 -3q-19 -7 -34 -7q-62 0 -62 56q0 6 2 24q-81 -85 -167 -85q-53 0 -83.5 31t-30.5 85q0 79 44.5 134t117.5 65l122 18q50 8 50 82q0 65 -86 65q-47 0 -74 -23t-44 -78h-66q39 174 202 174q67 0 104.5 -30.5t37.5 -84.5q0 -16 -3 -31l-54 -312
q0 -20 19 -20q9 0 26 4zM306 181l15 86q-19 -16 -125 -33q-57 -10 -83 -37t-26 -76q0 -63 63 -63q55 0 101 36.5t55 86.5zM403 585h-65l-38 93l-70 -93h-65l106 141h76zM194 -180h-86l16 96h86z" />
    <glyph glyph-name="Abreveacute" unicode="&#x1eae;" horiz-adv-x="547" 
d="M496 0h-87l-22 209h-236l-98 -209h-82l347 718h90zM374 295l-33 319l-150 -319h183zM556 1047l-129 -121h-55l85 121h99zM531 898q-27 -58 -65 -87t-94 -29q-54 0 -81 29t-32 87h40l1 -7q31 -52 87 -52q35 0 56.5 14t38.5 45h49z" />
    <glyph glyph-name="abreveacute" unicode="&#x1eaf;" 
d="M406 64l-12 -64l-9 -3q-19 -7 -34 -7q-62 0 -62 56q0 6 2 24q-81 -85 -167 -85q-53 0 -83.5 31t-30.5 85q0 79 44.5 134t117.5 65l122 18q50 8 50 82q0 65 -86 65q-47 0 -74 -23t-44 -78h-66q39 174 202 174q67 0 104.5 -30.5t37.5 -84.5q0 -16 -3 -31l-54 -312
q0 -20 19 -20q9 0 26 4zM306 181l15 86q-19 -16 -125 -33q-57 -10 -83 -37t-26 -76q0 -63 63 -63q55 0 101 36.5t55 86.5zM466 852l-129 -121h-55l85 121h99zM441 703q-27 -58 -65 -87t-94 -29q-54 0 -81 29t-32 87h40l1 -7q31 -52 87 -52q35 0 56.5 14t38.5 45h49z" />
    <glyph glyph-name="Abrevegrave" unicode="&#x1eb0;" horiz-adv-x="547" 
d="M496 0h-87l-22 209h-236l-98 -209h-82l347 718h90zM374 295l-33 319l-150 -319h183zM427 926h-55l-86 121h99zM531 898q-27 -58 -65 -87t-94 -29q-54 0 -81 29t-32 87h40l1 -7q31 -52 87 -52q35 0 56.5 14t38.5 45h49z" />
    <glyph glyph-name="abrevegrave" unicode="&#x1eb1;" 
d="M406 64l-12 -64l-9 -3q-19 -7 -34 -7q-62 0 -62 56q0 6 2 24q-81 -85 -167 -85q-53 0 -83.5 31t-30.5 85q0 79 44.5 134t117.5 65l122 18q50 8 50 82q0 65 -86 65q-47 0 -74 -23t-44 -78h-66q39 174 202 174q67 0 104.5 -30.5t37.5 -84.5q0 -16 -3 -31l-54 -312
q0 -20 19 -20q9 0 26 4zM306 181l15 86q-19 -16 -125 -33q-57 -10 -83 -37t-26 -76q0 -63 63 -63q55 0 101 36.5t55 86.5zM337 731h-55l-86 121h99zM441 703q-27 -58 -65 -87t-94 -29q-54 0 -81 29t-32 87h40l1 -7q31 -52 87 -52q35 0 56.5 14t38.5 45h49z" />
    <glyph glyph-name="Abrevehookabove" unicode="&#x1eb2;" horiz-adv-x="547" 
d="M496 0h-87l-22 209h-236l-98 -209h-82l347 718h90zM374 295l-33 319l-150 -319h183zM514 994q-3 -17 -14.5 -29t-40.5 -27q-35 -18 -37 -28l-3 -22h-56l4 24q3 17 15 27.5t42 25.5q31 15 34 29q2 10 -9.5 16.5t-32.5 6.5q-30 0 -43 -13q-8 -8 -11 -30h-55q14 82 118 82
q46 0 70 -17t19 -45zM531 898q-27 -58 -65 -87t-94 -29q-54 0 -81 29t-32 87h40l1 -7q31 -52 87 -52q35 0 56.5 14t38.5 45h49z" />
    <glyph glyph-name="abrevehookabove" unicode="&#x1eb3;" 
d="M406 64l-12 -64l-9 -3q-19 -7 -34 -7q-62 0 -62 56q0 6 2 24q-81 -85 -167 -85q-53 0 -83.5 31t-30.5 85q0 79 44.5 134t117.5 65l122 18q50 8 50 82q0 65 -86 65q-47 0 -74 -23t-44 -78h-66q39 174 202 174q67 0 104.5 -30.5t37.5 -84.5q0 -16 -3 -31l-54 -312
q0 -20 19 -20q9 0 26 4zM306 181l15 86q-19 -16 -125 -33q-57 -10 -83 -37t-26 -76q0 -63 63 -63q55 0 101 36.5t55 86.5zM424 799q-3 -17 -14.5 -29t-40.5 -27q-35 -18 -37 -28l-3 -22h-56l4 24q3 17 15 27.5t42 25.5q31 15 34 29q2 10 -9.5 16.5t-32.5 6.5q-30 0 -43 -13
q-8 -8 -11 -30h-55q14 82 118 82q46 0 70 -17t19 -45zM441 703q-27 -58 -65 -87t-94 -29q-54 0 -81 29t-32 87h40l1 -7q31 -52 87 -52q35 0 56.5 14t38.5 45h49z" />
    <glyph glyph-name="Abrevetilde" unicode="&#x1eb4;" horiz-adv-x="547" 
d="M496 0h-87l-22 209h-236l-98 -209h-82l347 718h90zM374 295l-33 319l-150 -319h183zM561 1051q-34 -109 -102 -109q-16 0 -45 13l-20 9q-34 15 -47 15q-28 0 -47 -44h-39q17 56 42 81.5t62 25.5q25 0 53 -15l17 -9q24 -13 38 -13q30 0 47 46h41zM531 898q-27 -58 -65 -87
t-94 -29q-54 0 -81 29t-32 87h40l1 -7q31 -52 87 -52q35 0 56.5 14t38.5 45h49z" />
    <glyph glyph-name="abrevetilde" unicode="&#x1eb5;" 
d="M406 64l-12 -64l-9 -3q-19 -7 -34 -7q-62 0 -62 56q0 6 2 24q-81 -85 -167 -85q-53 0 -83.5 31t-30.5 85q0 79 44.5 134t117.5 65l122 18q50 8 50 82q0 65 -86 65q-47 0 -74 -23t-44 -78h-66q39 174 202 174q67 0 104.5 -30.5t37.5 -84.5q0 -16 -3 -31l-54 -312
q0 -20 19 -20q9 0 26 4zM306 181l15 86q-19 -16 -125 -33q-57 -10 -83 -37t-26 -76q0 -63 63 -63q55 0 101 36.5t55 86.5zM471 856q-34 -109 -102 -109q-16 0 -45 13l-20 9q-34 15 -47 15q-28 0 -47 -44h-39q17 56 42 81.5t62 25.5q25 0 53 -15l17 -9q24 -13 38 -13
q30 0 47 46h41zM441 703q-27 -58 -65 -87t-94 -29q-54 0 -81 29t-32 87h40l1 -7q31 -52 87 -52q35 0 56.5 14t38.5 45h49z" />
    <glyph glyph-name="Abrevedotbelow" unicode="&#x1eb6;" horiz-adv-x="547" 
d="M496 0h-87l-22 209h-236l-98 -209h-82l347 718h90zM374 295l-33 319l-150 -319h183zM530 898q-27 -58 -65 -87t-94 -29q-54 0 -81 29t-32 87h40l1 -7q31 -52 87 -52q35 0 56.5 14t38.5 45h49zM246 -180h-86l16 96h86z" />
    <glyph glyph-name="abrevedotbelow" unicode="&#x1eb7;" 
d="M406 64l-12 -64l-9 -3q-19 -7 -34 -7q-62 0 -62 56q0 6 2 24q-81 -85 -167 -85q-53 0 -83.5 31t-30.5 85q0 79 44.5 134t117.5 65l122 18q50 8 50 82q0 65 -86 65q-47 0 -74 -23t-44 -78h-66q39 174 202 174q67 0 104.5 -30.5t37.5 -84.5q0 -16 -3 -31l-54 -312
q0 -20 19 -20q9 0 26 4zM306 181l15 86q-19 -16 -125 -33q-57 -10 -83 -37t-26 -76q0 -63 63 -63q55 0 101 36.5t55 86.5zM435 723q-22 -71 -58.5 -103.5t-94.5 -32.5q-49 0 -76 27.5t-25 79.5l1 29h40q4 -42 21.5 -60.5t53.5 -18.5t58 17.5t41 61.5h39zM194 -180h-86l16 96
h86z" />
    <glyph glyph-name="Edotbelow" unicode="&#x1eb8;" horiz-adv-x="547" 
d="M466 0h-435l125 718h429l-15 -86h-349l-39 -220h323l-15 -86h-323l-41 -240h355zM246 -180h-86l16 96h86z" />
    <glyph glyph-name="edotbelow" unicode="&#x1eb9;" 
d="M423 233h-313q-6 -37 -6 -62q0 -51 26 -80.5t72 -29.5q44 0 81 29t50 74h72q-28 -85 -86 -132t-133 -47t-116 49t-41 138q0 147 74.5 256.5t185.5 109.5q74 0 109.5 -52t35.5 -132q0 -44 -11 -121zM361 303q2 36 2 47q0 50 -24.5 79.5t-66.5 29.5q-52 0 -93 -43t-57 -113
h239zM200 -180h-86l16 96h86z" />
    <glyph glyph-name="Ehookabove" unicode="&#x1eba;" horiz-adv-x="547" 
d="M466 0h-435l125 718h429l-15 -86h-349l-39 -220h323l-15 -86h-323l-41 -240h355zM502 876q-3 -19 -15 -32t-41 -30q-35 -22 -37 -32l-4 -24h-56l5 27q3 18 15 29.5t43 28.5q33 19 34 33q2 11 -9 18t-32 7q-31 0 -43 -14q-8 -8 -12 -34h-55q15 92 120 92q46 0 69 -18.5
t18 -50.5z" />
    <glyph glyph-name="ehookabove" unicode="&#x1ebb;" 
d="M423 233h-313q-6 -37 -6 -62q0 -51 26 -80.5t72 -29.5q44 0 81 29t50 74h72q-28 -85 -86 -132t-133 -47t-116 49t-41 138q0 147 74.5 256.5t185.5 109.5q74 0 109.5 -52t35.5 -132q0 -44 -11 -121zM361 303q2 36 2 47q0 50 -24.5 79.5t-66.5 29.5q-52 0 -93 -43t-57 -113
h239zM411 681q-3 -19 -15 -32t-41 -30q-35 -22 -37 -32l-4 -24h-56l5 27q3 18 15 29.5t43 28.5q33 19 34 33q2 11 -9 18t-32 7q-31 0 -43 -14q-8 -8 -12 -34h-55q15 92 120 92q46 0 69 -18.5t18 -50.5z" />
    <glyph glyph-name="Etilde" unicode="&#x1ebc;" horiz-adv-x="547" 
d="M466 0h-435l125 718h429l-15 -86h-349l-39 -220h323l-15 -86h-323l-41 -240h355zM542 898q-34 -109 -102 -109q-16 0 -45 13l-20 9q-35 15 -47 15q-28 0 -47 -44h-39q17 56 42 81.5t62 25.5q24 0 53 -15l17 -9q24 -13 38 -13q30 0 47 46h41z" />
    <glyph glyph-name="etilde" unicode="&#x1ebd;" 
d="M423 233h-313q-6 -37 -6 -62q0 -51 26 -80.5t72 -29.5q44 0 81 29t50 74h72q-28 -85 -86 -132t-133 -47t-116 49t-41 138q0 147 74.5 256.5t185.5 109.5q74 0 109.5 -52t35.5 -132q0 -44 -11 -121zM361 303q2 36 2 47q0 50 -24.5 79.5t-66.5 29.5q-52 0 -93 -43t-57 -113
h239zM451 713q-34 -109 -102 -109q-16 0 -45 13l-20 9q-34 15 -47 15q-28 0 -47 -44h-39q17 56 42 81.5t62 25.5q25 0 53 -15l17 -9q24 -13 38 -13q30 0 47 46h41z" />
    <glyph glyph-name="Ecircumflexacute" unicode="&#x1ebe;" horiz-adv-x="547" 
d="M466 0h-435l125 718h429l-15 -86h-349l-39 -220h323l-15 -86h-323l-41 -240h355zM562 1042l-129 -121h-55l85 121h99zM516 780h-66l-56 73l-82 -73h-65l117 121h77z" />
    <glyph glyph-name="ecircumflexacute" unicode="&#x1ebf;" 
d="M423 233h-313q-6 -37 -6 -62q0 -51 26 -80.5t72 -29.5q44 0 81 29t50 74h72q-28 -85 -86 -132t-133 -47t-116 49t-41 138q0 147 74.5 256.5t185.5 109.5q74 0 109.5 -52t35.5 -132q0 -44 -11 -121zM361 303q2 36 2 47q0 50 -24.5 79.5t-66.5 29.5q-52 0 -93 -43t-57 -113
h239zM471 847l-129 -121h-55l85 121h99zM425 585h-66l-56 73l-82 -73h-65l117 121h77z" />
    <glyph glyph-name="Ecircumflexgrave" unicode="&#x1ec0;" horiz-adv-x="547" 
d="M466 0h-435l125 718h429l-15 -86h-349l-39 -220h323l-15 -86h-323l-41 -240h355zM434 921h-55l-87 121h99zM516 780h-66l-56 73l-82 -73h-65l117 121h77z" />
    <glyph glyph-name="ecircumflexgrave" unicode="&#x1ec1;" 
d="M423 233h-313q-6 -37 -6 -62q0 -51 26 -80.5t72 -29.5q44 0 81 29t50 74h72q-28 -85 -86 -132t-133 -47t-116 49t-41 138q0 147 74.5 256.5t185.5 109.5q74 0 109.5 -52t35.5 -132q0 -44 -11 -121zM361 303q2 36 2 47q0 50 -24.5 79.5t-66.5 29.5q-52 0 -93 -43t-57 -113
h239zM343 726h-55l-87 121h99zM425 585h-66l-56 73l-82 -73h-65l117 121h77z" />
    <glyph glyph-name="Ecircumflexhookabove" unicode="&#x1ec2;" horiz-adv-x="547" 
d="M466 0h-435l125 718h429l-15 -86h-349l-39 -220h323l-15 -86h-323l-41 -240h355zM559 1027q-3 -17 -14.5 -29t-40.5 -28q-22 -12 -28.5 -17t-7.5 -11l-4 -21h-56l5 24q3 17 14.5 27t41.5 25q33 18 34 30q2 10 -9.5 16t-32.5 6q-31 0 -42 -12q-7 -6 -12 -31h-55
q15 83 119 83q45 0 69 -17t19 -45zM516 780h-66l-56 73l-82 -73h-65l117 121h77z" />
    <glyph glyph-name="ecircumflexhookabove" unicode="&#x1ec3;" 
d="M423 233h-313q-6 -37 -6 -62q0 -51 26 -80.5t72 -29.5q44 0 81 29t50 74h72q-28 -85 -86 -132t-133 -47t-116 49t-41 138q0 147 74.5 256.5t185.5 109.5q74 0 109.5 -52t35.5 -132q0 -44 -11 -121zM361 303q2 36 2 47q0 50 -24.5 79.5t-66.5 29.5q-52 0 -93 -43t-57 -113
h239zM468 832q-3 -17 -14.5 -29t-40.5 -28q-22 -12 -28.5 -17t-7.5 -11l-4 -21h-56l5 24q3 17 14.5 27t41.5 25q33 18 34 30q2 10 -9.5 16t-32.5 6q-32 0 -42 -12q-7 -6 -12 -31h-55q15 83 119 83q45 0 69 -17t19 -45zM425 585h-66l-56 73l-82 -73h-65l117 121h77z" />
    <glyph glyph-name="Ecircumflextilde" unicode="&#x1ec4;" horiz-adv-x="547" 
d="M466 0h-435l125 718h429l-15 -86h-349l-39 -220h323l-15 -86h-323l-41 -240h355zM568 1047q-34 -109 -102 -109q-16 0 -45 13l-20 9q-35 15 -47 15q-28 0 -47 -44h-39q17 56 42 81.5t62 25.5q24 0 53 -15l17 -9q24 -13 38 -13q30 0 47 46h41zM516 780h-66l-56 73l-82 -73
h-65l117 121h77z" />
    <glyph glyph-name="ecircumflextilde" unicode="&#x1ec5;" 
d="M423 233h-313q-6 -37 -6 -62q0 -51 26 -80.5t72 -29.5q44 0 81 29t50 74h72q-28 -85 -86 -132t-133 -47t-116 49t-41 138q0 147 74.5 256.5t185.5 109.5q74 0 109.5 -52t35.5 -132q0 -44 -11 -121zM361 303q2 36 2 47q0 50 -24.5 79.5t-66.5 29.5q-52 0 -93 -43t-57 -113
h239zM477 852q-34 -109 -102 -109q-16 0 -45 13l-20 9q-35 15 -47 15q-28 0 -47 -44h-39q17 56 42 81.5t62 25.5q25 0 53 -15l17 -9q24 -13 38 -13q30 0 47 46h41zM425 585h-66l-56 73l-82 -73h-65l117 121h77z" />
    <glyph glyph-name="Ecircumflexdotbelow" unicode="&#x1ec6;" horiz-adv-x="547" 
d="M466 0h-435l125 718h429l-15 -86h-349l-39 -220h323l-15 -86h-323l-41 -240h355zM515 780h-66l-56 73l-82 -73h-65l117 121h77zM246 -180h-86l16 96h86z" />
    <glyph glyph-name="ecircumflexdotbelow" unicode="&#x1ec7;" 
d="M423 233h-313q-6 -37 -6 -62q0 -51 26 -80.5t72 -29.5q44 0 81 29t50 74h72q-28 -85 -86 -132t-133 -47t-116 49t-41 138q0 147 74.5 256.5t185.5 109.5q74 0 109.5 -52t35.5 -132q0 -44 -11 -121zM361 303q2 36 2 47q0 50 -24.5 79.5t-66.5 29.5q-52 0 -93 -43t-57 -113
h239zM409 585h-65l-38 93l-70 -93h-65l106 141h76zM200 -180h-86l16 96h86z" />
    <glyph glyph-name="Ihookabove" unicode="&#x1ec8;" horiz-adv-x="228" 
d="M114 0h-79l125 718h79zM331 876q-3 -19 -15 -32t-41 -30q-35 -22 -37 -32l-4 -24h-56l5 27q3 18 15 29.5t43 28.5q33 19 34 33q2 11 -9 18t-32 7q-31 0 -43 -14q-8 -8 -12 -34h-55q15 92 120 92q46 0 69 -18.5t18 -50.5z" />
    <glyph glyph-name="ihookabove" unicode="&#x1ec9;" horiz-adv-x="228" 
d="M110 0h-72l91 523h72zM297 681q-3 -19 -15 -32t-41 -30q-35 -22 -37 -32l-4 -24h-56l5 27q3 18 15 29.5t43 28.5q33 19 34 33q2 11 -9 18t-32 7q-31 0 -43 -14q-8 -8 -12 -34h-55q15 92 120 92q46 0 69 -18.5t18 -50.5z" />
    <glyph glyph-name="Idotbelow" unicode="&#x1eca;" horiz-adv-x="228" 
d="M114 0h-79l125 718h79zM86 -180h-86l16 96h86z" />
    <glyph glyph-name="idotbelow" unicode="&#x1ecb;" horiz-adv-x="182" 
d="M87 0h-72l91 523h72zM200 607h-86l17 96h86zM63 -180h-86l16 96h86z" />
    <glyph glyph-name="Odotbelow" unicode="&#x1ecc;" horiz-adv-x="638" 
d="M637 456q0 -120 -46 -228.5t-130 -177.5t-185 -69q-110 0 -170 73.5t-60 206.5q0 122 46.5 231t130.5 177t184 68q109 0 169.5 -73.5t60.5 -207.5zM554 445q0 96 -43 151t-119 55q-109 0 -186 -110.5t-77 -266.5q0 -97 43 -152t118 -55q109 0 186.5 112t77.5 266z
M290 -180h-86l16 96h86z" />
    <glyph glyph-name="odotbelow" unicode="&#x1ecd;" 
d="M439 336q0 -136 -74.5 -243t-179.5 -107q-74 0 -115.5 54t-41.5 149q0 136 74.5 242.5t179.5 106.5q73 0 115 -53.5t42 -148.5zM364 325q0 66 -25 101.5t-71 35.5q-69 0 -117 -80.5t-48 -183.5q0 -66 24.5 -101t71.5 -35q69 0 117 81t48 182zM200 -180h-86l16 96h86z" />
    <glyph glyph-name="Ohookabove" unicode="&#x1ece;" horiz-adv-x="638" 
d="M637 456q0 -120 -46 -228.5t-130 -177.5t-185 -69q-110 0 -170 73.5t-60 206.5q0 122 46.5 231t130.5 177t184 68q109 0 169.5 -73.5t60.5 -207.5zM554 445q0 96 -43 151t-119 55q-109 0 -186 -110.5t-77 -266.5q0 -97 43 -152t118 -55q109 0 186.5 112t77.5 266z
M535 876q-3 -19 -15 -32t-41 -30q-35 -22 -37 -32l-4 -24h-56l5 27q3 18 15 29.5t43 28.5q33 19 34 33q2 11 -9 18t-32 7q-31 0 -43 -14q-8 -8 -12 -34h-55q15 92 120 92q46 0 69 -18.5t18 -50.5z" />
    <glyph glyph-name="ohookabove" unicode="&#x1ecf;" 
d="M439 336q0 -136 -74.5 -243t-179.5 -107q-74 0 -115.5 54t-41.5 149q0 136 74.5 242.5t179.5 106.5q73 0 115 -53.5t42 -148.5zM364 325q0 66 -25 101.5t-71 35.5q-69 0 -117 -80.5t-48 -183.5q0 -66 24.5 -101t71.5 -35q69 0 117 81t48 182zM411 681q-3 -19 -15 -32
t-41 -30q-35 -22 -37 -32l-4 -24h-56l5 27q3 18 15 29.5t43 28.5q33 19 34 33q2 11 -9 18t-32 7q-31 0 -43 -14q-8 -8 -12 -34h-55q15 92 120 92q46 0 69 -18.5t18 -50.5z" />
    </font>
</defs>
</svg>
