<?xml version="1.0" standalone="no"?>
<!DOCTYPE svg PUBLIC "-//W3C//DTD SVG 1.1//EN" "http://www.w3.org/Graphics/SVG/1.1/DTD/svg11.dtd" >
<svg xmlns="http://www.w3.org/2000/svg" xmlns:xlink="http://www.w3.org/1999/xlink" version="1.1">
<metadata>
Created by FontForge 20170731 at Fri Feb 22 16:56:47 2008
 By Aleksey,,,
Copyright (URW)++, copyright 1999 by (URW)++ Design &#38; Development; Cyrillic glyphs added by Valek Filippov, copyright 2001-2002; Vietnamese characters were added by Han The Thanh; copyright 2006, 2008 for TeX Gyre extensions by B. Jackowski and J.M. Nowacki (on behalf of TeX users groups). This work is released under the GUST Font License --  see http://tug.org/fonts/licenses/GUST-FONT-LICENSE.txt for details.
</metadata>
<defs>
<font id="TeXGyreHerosCondensed-Regular" horiz-adv-x="456" >
  <font-face 
    font-family="TeXGyreHerosCn"
    font-weight="400"
    font-stretch="condensed"
    units-per-em="1000"
    panose-1="0 0 5 6 0 0 0 0 0 0"
    ascent="793"
    descent="-207"
    x-height="523"
    cap-height="718"
    bbox="-436 -282 1109 1089"
    underline-thickness="50"
    underline-position="-175"
    unicode-range="U+0020-FB04"
  />
<missing-glyph horiz-adv-x="280" 
 />
    <glyph glyph-name="I_J" unicode="IJ" horiz-adv-x="595" 
d="M134 0h-79v718h79v-718zM540 194q0 -102 -44.5 -157.5t-126.5 -55.5q-76 0 -121 48.5t-45 130.5v71h75v-50q0 -60 22 -88.5t68 -28.5q92 0 92 124v530h80v-524z" />
    <glyph glyph-name="i_j" unicode="ij" horiz-adv-x="364" 
d="M127 0h-72v523h72v-523zM134 607h-86v96h86v-96zM309 -77q0 -68 -26 -100.5t-81 -32.5q-15 0 -33 3v76h15q34 0 43.5 11.5t9.5 52.5v590h72v-600zM316 607h-86v96h86v-96z" />
    <glyph glyph-name="f_k" unicode="fk" horiz-adv-x="640" 
d="M215 450h-72v-450h-72v450h-60v73h60v90q0 115 109 115q13 0 35 -2v-79q-24 2 -30 2q-42 0 -42 -61v-65h72v-73zM641 0h-93l-133 264l-60 -66v-198h-72v718h72v-416l185 221h91l-164 -195z" />
    <glyph glyph-name="f_f" unicode="ff" horiz-adv-x="438" 
d="M427 450h-72v-450h-72v450h-140v-450h-72v450h-60v73h60v90q0 115 109 115q13 0 35 -2v-79q-24 2 -30 2q-42 0 -42 -61v-65h140v90q0 115 109 115q13 0 35 -2v-79q-24 2 -30 2q-42 0 -42 -61v-65h72v-73z" />
    <glyph glyph-name="f_i" unicode="fi" horiz-adv-x="410" 
d="M215 450h-72v-450h-72v450h-60v73h60v90q0 115 109 115q13 0 35 -2v-79q-24 2 -30 2q-42 0 -42 -61v-65h72v-73zM355 0h-72v523h72v-523zM362 607h-86v96h86v-96z" />
    <glyph glyph-name="f_l" unicode="fl" horiz-adv-x="410" 
d="M215 450h-72v-450h-72v450h-60v73h60v90q0 115 109 115q13 0 35 -2v-79q-24 2 -30 2q-42 0 -42 -61v-65h72v-73zM355 0h-72v718h72v-718z" />
    <glyph glyph-name="f_f_i" unicode="ffi" horiz-adv-x="622" 
d="M427 450h-72v-450h-72v450h-140v-450h-72v450h-60v73h60v90q0 115 109 115q13 0 35 -2v-79q-24 2 -30 2q-42 0 -42 -61v-65h140v90q0 115 109 115q13 0 35 -2v-79q-24 2 -30 2q-42 0 -42 -61v-65h72v-73zM567 0h-72v523h72v-523zM574 607h-86v96h86v-96z" />
    <glyph glyph-name="f_f_l" unicode="ffl" horiz-adv-x="622" 
d="M427 450h-72v-450h-72v450h-140v-450h-72v450h-60v73h60v90q0 115 109 115q13 0 35 -2v-79q-24 2 -30 2q-42 0 -42 -61v-65h140v90q0 115 109 115q13 0 35 -2v-79q-24 2 -30 2q-42 0 -42 -61v-65h72v-73zM567 0h-72v718h72v-718z" />
    <glyph glyph-name=".notdef" horiz-adv-x="280" 
 />
    <glyph glyph-name=".null" horiz-adv-x="0" 
 />
    <glyph glyph-name="nonmarkingreturn" horiz-adv-x="333" 
 />
    <glyph glyph-name="space" unicode=" " horiz-adv-x="228" 
 />
    <glyph glyph-name="exclam" unicode="!" horiz-adv-x="228" 
d="M153 0h-79v102h79v-102zM153 481l-20 -310h-39l-20 310v237h79v-237z" />
    <glyph glyph-name="quotedbl" unicode="&#x22;" horiz-adv-x="291" 
d="M117 463h-60v255h60v-255zM234 463h-60v255h60v-255z" />
    <glyph glyph-name="numbersign" unicode="#" 
d="M434 478l-7 -63h-85l-16 -142h84l-7 -63h-85l-23 -210h-55l24 210h-102l-24 -210h-54l23 210h-84l7 63h85l15 142h-84l7 63h85l24 210h55l-24 -210h102l23 210h55l-23 -210h84zM287 415h-102l-16 -142h103z" />
    <glyph glyph-name="dollar" unicode="$" 
d="M427 197q0 -96 -46.5 -153.5t-134.5 -62.5v-96h-38v96q-93 7 -137 63t-45 169h72q5 -83 27 -114.5t83 -44.5v265q-97 30 -133.5 72.5t-36.5 120.5q0 83 45 138t125 61v64h38v-64q81 -9 121 -55t45 -135h-69q-6 53 -27.5 79t-69.5 38v-239q115 -41 148 -78t33 -124z
M208 409v229q-46 -3 -72 -33.5t-26 -82.5q0 -88 98 -113zM355 179q0 39 -18 70t-47 42l-44 17v-254q53 3 81 36.5t28 88.5z" />
    <glyph glyph-name="percent" unicode="%" horiz-adv-x="729" 
d="M280 507q0 -88 -33 -137t-91 -49q-59 0 -91.5 49t-32.5 138t32.5 138t92.5 49q58 0 90.5 -50t32.5 -138zM223 508q0 134 -66 134q-68 0 -68 -134t67 -134t67 134zM549 703l-325 -722h-44l323 722h46zM697 180q0 -88 -32.5 -137.5t-91.5 -49.5t-91.5 49t-32.5 138
q0 90 32.5 138.5t92.5 48.5q58 0 90.5 -49.5t32.5 -137.5zM640 180q0 134 -66 134q-68 0 -68 -134t67 -134t67 134z" />
    <glyph glyph-name="ampersand" unicode="&#x26;" horiz-adv-x="547" 
d="M529 0h-93l-55 82q-40 -54 -78.5 -75.5t-91.5 -21.5q-82 0 -128.5 53t-46.5 146q0 70 27.5 114.5t105.5 100.5q-38 57 -50 87.5t-12 69.5q0 72 39 117t101 45q59 0 95 -41t36 -108q0 -55 -23.5 -96t-82.5 -91l108 -156q14 46 24 112h68q-7 -88 -48 -183zM342 141
l-133 198q-60 -48 -80.5 -79t-20.5 -77q0 -52 31.5 -86.5t78.5 -34.5q71 0 124 79zM308 564q0 35 -17.5 56t-47.5 21t-48 -20.5t-18 -55.5q0 -53 58 -126q41 35 57 62.5t16 62.5z" />
    <glyph glyph-name="quotesingle" unicode="'" horiz-adv-x="157" 
d="M108 463h-60v255h60v-255z" />
    <glyph glyph-name="parenleft" unicode="(" horiz-adv-x="273" 
d="M245 -207h-48q-82 153 -111.5 250.5t-29.5 218.5q0 122 31 227t107 244h50q-65 -150 -88 -248.5t-23 -230.5q0 -115 22 -205.5t90 -255.5z" />
    <glyph glyph-name="parenright" unicode=")" horiz-adv-x="273" 
d="M217 264q0 -122 -31 -227t-107 -244h-50q66 151 88.5 249t22.5 230q0 115 -22 206.5t-90 254.5h48q83 -154 112 -251t29 -218z" />
    <glyph glyph-name="asterisk" unicode="*" horiz-adv-x="319" 
d="M286 591l-89 -34l55 -92l-40 -34l-53 94l-54 -94l-40 34l55 92l-88 34l16 55l86 -38v110h49v-110l86 38z" />
    <glyph glyph-name="plus" unicode="+" horiz-adv-x="479" 
d="M424 221h-155v-155h-58v155h-156v58h156v156h58v-156h155v-58z" />
    <glyph glyph-name="comma" unicode="," horiz-adv-x="228" 
d="M157 8q0 -135 -86 -155v46q43 6 44 101h-44v107h86v-99z" />
    <glyph glyph-name="hyphen" unicode="-" horiz-adv-x="273" 
d="M237 232h-201v90h201v-90z" />
    <glyph glyph-name="period" unicode="." horiz-adv-x="228" 
d="M157 0h-86v107h86v-107z" />
    <glyph glyph-name="slash" unicode="/" horiz-adv-x="228" 
d="M242 737l-201 -756h-55l202 756h54z" />
    <glyph glyph-name="zero" unicode="0" 
d="M426 341q0 -172 -52 -266t-146 -94q-95 0 -146.5 94.5t-51.5 267.5t52 266.5t148 93.5q93 0 144.5 -95t51.5 -267zM349 343q0 137 -31 209.5t-89 72.5q-122 0 -122 -282q0 -284 121 -284t121 284z" />
    <glyph glyph-name="one" unicode="1" 
d="M294 0h-77v499h-134v70q80 6 109 31t46 103h56v-703z" />
    <glyph glyph-name="two" unicode="2" 
d="M416 0h-395q5 99 36.5 165.5t98.5 113.5l77 54q70 49 88 79t18 82q0 59 -31 95t-83 36q-117 0 -117 -174h-72q0 126 51 189t144 63q83 0 134 -58t51 -153q0 -75 -29.5 -123t-124.5 -111l-60 -40q-91 -61 -100 -135h314v-83z" />
    <glyph glyph-name="three" unicode="3" 
d="M428 207q0 -103 -56 -164.5t-148 -61.5q-89 0 -137 52.5t-59 181.5h75q4 -86 33 -121t87 -35t93 38t35 100q0 60 -33 94t-92 34h-10q-10 -1 -32 -1v76q28 -2 36 -2q53 0 82 29.5t29 83.5q0 52 -28.5 83t-77.5 31q-54 0 -80.5 -35.5t-31.5 -116.5h-71q9 230 184 230
q82 0 131 -50.5t49 -135.5q0 -109 -76 -145q53 -24 75.5 -62.5t22.5 -102.5z" />
    <glyph glyph-name="four" unicode="4" 
d="M429 171h-85v-171h-72v171h-252v87l264 445h60v-455h85v-77zM272 248v321l-186 -321h186z" />
    <glyph glyph-name="five" unicode="5" 
d="M421 226q0 -107 -54.5 -176t-152.5 -69q-82 0 -128.5 47t-59.5 147h75q13 -117 118 -117q55 0 90 45t35 116q0 69 -35 112t-92 43q-61 0 -107 -67l-63 4l44 377h298v-87h-244l-25 -193q51 44 111 44q82 0 136 -64.5t54 -161.5z" />
    <glyph glyph-name="six" unicode="6" 
d="M425 223q0 -101 -53.5 -171.5t-139.5 -70.5q-97 0 -149 88.5t-52 252.5q0 178 56.5 279.5t155.5 101.5q72 0 116 -48.5t54 -138.5h-71q-10 57 -33.5 83t-64.5 26q-60 0 -96.5 -67t-42.5 -200q46 90 137 90q81 0 132 -62.5t51 -162.5zM350 218q0 69 -31 110.5t-83 41.5
q-55 0 -87.5 -41t-32.5 -112q0 -70 33.5 -113.5t86.5 -43.5q51 0 82.5 43.5t31.5 114.5z" />
    <glyph glyph-name="seven" unicode="7" 
d="M429 610q-183 -250 -237 -610h-80q19 149 80.5 305.5t155.5 295.5h-318v87h399v-78z" />
    <glyph glyph-name="eight" unicode="8" 
d="M424 201q0 -98 -53 -159t-139 -61q-91 0 -146 58.5t-55 155.5q0 68 22 108t76 70q-78 42 -78 137q0 86 48.5 139.5t126.5 53.5q79 0 128 -51t49 -133q0 -52 -17 -86t-56 -59q94 -56 94 -173zM347 191q0 65 -32 102t-87 37q-54 0 -87 -36.5t-33 -96.5q0 -64 33.5 -101
t89.5 -37t86 34t30 98zM328 518q0 48 -28.5 77.5t-74.5 29.5t-72.5 -29t-26.5 -80q0 -48 28.5 -79t71.5 -31q44 0 73 31.5t29 80.5z" />
    <glyph glyph-name="nine" unicode="9" 
d="M421 379q0 -183 -55.5 -290.5t-156.5 -107.5q-75 0 -119 49.5t-49 138.5h72q10 -115 97 -115q38 0 61.5 19t44 79.5t34.5 172.5q-40 -90 -136 -90q-81 0 -130.5 62.5t-49.5 164.5q0 108 51.5 174.5t136.5 66.5q97 0 148 -83t51 -241zM336 471q0 71 -30 112.5t-82 41.5
q-54 0 -84.5 -43t-30.5 -120q0 -73 29 -111t85 -38q53 0 83 41.5t30 116.5z" />
    <glyph glyph-name="colon" unicode=":" horiz-adv-x="228" 
d="M157 0h-86v107h86v-107zM157 409h-86v107h86v-107z" />
    <glyph glyph-name="semicolon" unicode=";" horiz-adv-x="228" 
d="M157 8q0 -135 -86 -155v46q43 6 44 101h-44v107h86v-99zM157 409h-86v107h86v-107z" />
    <glyph glyph-name="less" unicode="&#x3c;" horiz-adv-x="479" 
d="M369 -65l-280 295v40l280 295v-84l-219 -231l219 -231v-84z" />
    <glyph glyph-name="equal" unicode="=" horiz-adv-x="479" 
d="M424 311h-369v58h369v-58zM424 131h-369v58h369v-58z" />
    <glyph glyph-name="greater" unicode="&#x3e;" horiz-adv-x="479" 
d="M369 230l-280 -295v84l219 231l-219 231v84l280 -295v-40z" />
    <glyph glyph-name="question" unicode="?" 
d="M403 532q0 -46 -15 -79t-62 -87t-59 -85t-12 -98h-72q0 77 13.5 114.5t63.5 100.5q44 55 55 77t11 56q0 55 -26.5 87t-73.5 32q-108 0 -108 -157h-72q0 65 9.5 99.5t33.5 65.5q53 69 140 69q77 0 125.5 -54.5t48.5 -140.5zM261 0h-80v102h80v-102z" />
    <glyph glyph-name="at" unicode="@" horiz-adv-x="832" 
d="M712 424q0 -107 -61.5 -197.5t-136.5 -90.5q-47 0 -50 64q-53 -64 -103 -64t-84 47.5t-34 117.5q0 110 56.5 190.5t132.5 80.5q33 0 55 -18t40 -60l16 62h56l-39 -164q-35 -146 -35 -164q0 -27 17 -27q43 0 80 69t37 150q0 110 -65 182.5t-163 72.5q-107 0 -178.5 -91.5
t-71.5 -227.5q0 -133 73 -223t181 -90q117 0 200 114h55q-95 -176 -257 -176q-130 0 -221 110.5t-91 268.5q0 157 90.5 267t219.5 110q118 0 199.5 -91t81.5 -222zM501 406q0 39 -20 66.5t-48 27.5q-47 0 -85 -61t-38 -137q0 -40 19.5 -67t48.5 -27q43 0 83 63t40 135z" />
    <glyph glyph-name="A" unicode="A" horiz-adv-x="547" 
d="M536 0h-87l-58 209h-236l-62 -209h-82l221 718h91zM362 296l-88 318l-95 -318h183z" />
    <glyph glyph-name="B" unicode="B" horiz-adv-x="547" 
d="M514 214q0 -97 -54.5 -155.5t-144.5 -58.5h-254v718h259q75 0 120.5 -49.5t45.5 -131.5q0 -99 -78 -150q58 -29 82 -68t24 -105zM406 528q0 55 -29.5 81t-91.5 26h-144v-221h143q62 0 92 28t30 86zM434 214q0 122 -137 122h-156v-253h170q58 0 90.5 34.5t32.5 96.5z" />
    <glyph glyph-name="C" unicode="C" horiz-adv-x="592" 
d="M558 264q-15 -84 -34 -130t-53 -81q-69 -72 -170 -72q-122 0 -193.5 102t-71.5 275q0 174 74.5 276.5t200.5 102.5q98 0 162.5 -62t78.5 -173h-77q-34 148 -162 148q-91 0 -143 -78.5t-52 -216.5q0 -136 50 -211.5t140 -75.5q67 0 110 46.5t63 149.5h77z" />
    <glyph glyph-name="D" unicode="D" horiz-adv-x="592" 
d="M553 367q0 -160 -65.5 -263.5t-185.5 -103.5h-236v718h239q113 0 180.5 -95.5t67.5 -255.5zM471 359q0 133 -45.5 204.5t-130.5 71.5h-149v-552h154q79 0 125 74t46 202z" />
    <glyph glyph-name="E" unicode="E" horiz-adv-x="547" 
d="M505 0h-434v718h428v-87h-348v-219h321v-87h-321v-238h354v-87z" />
    <glyph glyph-name="F" unicode="F" horiz-adv-x="501" 
d="M478 631h-327v-219h288v-87h-288v-325h-80v718h407v-87z" />
    <glyph glyph-name="G" unicode="G" horiz-adv-x="638" 
d="M577 0h-52l-18 93q-77 -112 -199 -112q-124 0 -196.5 107t-72.5 262q0 173 77 280t201 107q98 0 166 -63t84 -174h-77q-36 150 -172 150q-91 0 -144 -80t-53 -217q0 -141 51 -215t148 -74q81 0 131.5 59t50.5 178h-183v83h258v-384z" />
    <glyph glyph-name="H" unicode="H" horiz-adv-x="592" 
d="M530 0h-80v334h-307v-334h-80v718h80v-297h307v297h80v-718z" />
    <glyph glyph-name="I" unicode="I" horiz-adv-x="228" 
d="M154 0h-79v718h79v-718z" />
    <glyph glyph-name="J" unicode="J" horiz-adv-x="410" 
d="M351 194q0 -102 -44.5 -157.5t-126.5 -55.5q-76 0 -121 48.5t-45 130.5v71h75v-50q0 -60 22 -88.5t68 -28.5q92 0 92 124v530h80v-524z" />
    <glyph glyph-name="K" unicode="K" horiz-adv-x="547" 
d="M544 0h-103l-206 360l-93 -108v-252h-80v718h80v-348l286 348h110l-246 -290z" />
    <glyph glyph-name="L" unicode="L" 
d="M440 0h-378v718h80v-631h298v-87z" />
    <glyph glyph-name="M" unicode="M" horiz-adv-x="683" 
d="M624 0h-75v424v185l-168 -609h-78l-166 608v-138v-470h-77v718h114l169 -610l168 610h113v-718z" />
    <glyph glyph-name="N" unicode="N" horiz-adv-x="592" 
d="M530 0h-89l-302 583v-583h-77v718h94l297 -583v583h77v-718z" />
    <glyph glyph-name="O" unicode="O" horiz-adv-x="638" 
d="M606 358q0 -104 -32 -188t-98.5 -136.5t-156.5 -52.5t-156.5 52.5t-98.5 136.5t-32 188q0 165 77 272t214 107q124 0 203.5 -105.5t79.5 -273.5zM524 359q0 130 -56 210.5t-146 80.5q-95 0 -151.5 -79t-56.5 -213q0 -130 56.5 -210t148.5 -80t148.5 80t56.5 211z" />
    <glyph glyph-name="P" unicode="P" horiz-adv-x="547" 
d="M510 515q0 -96 -48 -154t-127 -58h-184v-303h-80v718h264q79 0 127 -56t48 -147zM428 512q0 123 -117 123h-160v-249h157q120 0 120 126z" />
    <glyph glyph-name="Q" unicode="Q" horiz-adv-x="638" 
d="M606 360q0 -164 -85 -282l80 -76l-40 -58l-90 85q-68 -48 -152 -48q-135 0 -211 108.5t-76 269.5t76 269.5t211 108.5q90 0 156.5 -52.5t98.5 -136.5t32 -188zM524 359q0 131 -56.5 211t-148.5 80t-148.5 -80t-56.5 -211t56.5 -211t148.5 -80q44 0 87 22l-62 58l41 60
l74 -71q65 89 65 222z" />
    <glyph glyph-name="R" unicode="R" horiz-adv-x="592" 
d="M561 0h-98q-13 54 -13 180q0 68 -25 98t-80 30h-193v-308h-80v718h273q94 0 143.5 -50t49.5 -144q0 -61 -18 -99t-64 -72q38 -18 52.5 -45.5t18.5 -89.5l4 -130q1 -33 6.5 -46t23.5 -26v-16zM456 516q0 119 -106 119h-198v-244h184q61 0 90.5 30.5t29.5 94.5z" />
    <glyph glyph-name="S" unicode="S" horiz-adv-x="547" 
d="M508 197q0 -101 -62 -158.5t-170 -57.5t-172 62t-64 189h75q0 -83 43 -125.5t122 -42.5q71 0 111 32.5t40 91.5q0 51 -26.5 77.5t-98.5 46.5l-121 34q-125 35 -125 172q0 97 55.5 158t154.5 61q106 0 164 -56.5t58 -172.5h-75q0 71 -40 108.5t-107 37.5q-63 0 -98 -32.5
t-35 -91.5q0 -74 69 -93l168 -47q134 -38 134 -193z" />
    <glyph glyph-name="T" unicode="T" horiz-adv-x="501" 
d="M490 631h-199v-631h-80v631h-200v87h479v-87z" />
    <glyph glyph-name="U" unicode="U" horiz-adv-x="592" 
d="M528 252q0 -124 -64 -197.5t-172 -73.5q-104 0 -165.5 70t-61.5 188v479h80v-452q0 -95 39 -146.5t111 -51.5q73 0 113 51t40 145v454h80v-466z" />
    <glyph glyph-name="V" unicode="V" horiz-adv-x="547" 
d="M531 718l-215 -718h-85l-215 718h89l169 -615l167 615h90z" />
    <glyph glyph-name="W" unicode="W" horiz-adv-x="774" 
d="M761 718l-155 -718h-84l-135 599l-137 -599h-84l-153 718h86l111 -588l133 588h87l133 -588l110 588h88z" />
    <glyph glyph-name="X" unicode="X" horiz-adv-x="547" 
d="M531 0h-98l-158 295l-163 -295h-96l210 368l-197 350h100l149 -275l149 275h95l-197 -350z" />
    <glyph glyph-name="Y" unicode="Y" horiz-adv-x="547" 
d="M535 718l-222 -429v-289h-80v289l-222 429h93l169 -345l169 345h93z" />
    <glyph glyph-name="Z" unicode="Z" horiz-adv-x="501" 
d="M482 0h-463v82l361 549h-334v87h436v-85l-362 -546h362v-87z" />
    <glyph glyph-name="bracketleft" unicode="[" horiz-adv-x="228" 
d="M205 -196h-153v918h153v-72h-88v-774h88v-72z" />
    <glyph glyph-name="backslash" unicode="\" horiz-adv-x="228" 
d="M242 -19h-55l-201 756h54z" />
    <glyph glyph-name="bracketright" unicode="]" horiz-adv-x="228" 
d="M176 -196h-153v72h88v774h-88v72h153v-918z" />
    <glyph glyph-name="asciicircum" unicode="^" horiz-adv-x="385" 
d="M396 264h-63l-140 344l-140 -344h-64l174 424h59z" />
    <glyph glyph-name="underscore" unicode="_" 
d="M456 -125h-456v50h456v-50z" />
    <glyph glyph-name="grave" unicode="`" horiz-adv-x="273" 
d="M164 584h-55l-107 141h89z" />
    <glyph glyph-name="a" unicode="a" 
d="M435 0q-29 -10 -42 -10q-37 0 -53.5 18.5t-20.5 61.5q-35 -45 -70.5 -65t-81.5 -20q-62 0 -99.5 42t-37.5 111q0 68 34 110t96 52l119 18q38 6 38 60q0 87 -99 87q-101 0 -101 -101h-66q0 174 172 174q77 0 120.5 -39t43.5 -107v-301q0 -31 23 -31q5 0 25 4v-64zM315 181
v86q-11 -10 -33 -16t-85 -17q-49 -8 -70.5 -28.5t-21.5 -59.5q0 -42 20 -65t57 -23q54 0 93.5 36.5t39.5 86.5z" />
    <glyph glyph-name="b" unicode="b" 
d="M424 274q0 -131 -51 -210t-136 -79q-42 0 -70 19t-51 64v-68h-68v718h72v-263q28 44 58 63.5t70 19.5q79 0 127.5 -73t48.5 -191zM349 268q0 192 -114 192q-118 0 -118 -211q0 -89 31.5 -138t85.5 -49q55 0 85 54t30 152z" />
    <glyph glyph-name="c" unicode="c" horiz-adv-x="410" 
d="M391 185q-26 -200 -174 -200q-88 0 -140 72.5t-52 194.5q0 131 55 208.5t148 77.5q144 0 163 -191h-70q-9 59 -33 86t-67 27q-56 0 -87.5 -53t-31.5 -148t29.5 -146t84.5 -51q82 0 105 123h70z" />
    <glyph glyph-name="d" unicode="d" 
d="M409 0h-68v75q-23 -49 -51.5 -69.5t-72.5 -20.5q-85 0 -136.5 79t-51.5 210q0 119 49 191.5t128 72.5q44 0 75 -22t56 -72v274h72v-718zM336 248q0 103 -29.5 157.5t-85.5 54.5q-117 0 -117 -191q0 -98 30 -152.5t84 -54.5q55 0 86.5 49t31.5 137z" />
    <glyph glyph-name="e" unicode="e" 
d="M423 233h-313q6 -171 122 -171q44 0 76 29t37 73h72q-14 -85 -63.5 -132t-123.5 -47q-91 0 -144 71.5t-53 195.5q0 131 55 208.5t148 77.5q87 0 134.5 -71.5t52.5 -233.5zM348 303q-11 157 -115 157q-52 0 -86 -43.5t-37 -113.5h238z" />
    <glyph glyph-name="f" unicode="f" horiz-adv-x="228" 
d="M215 450h-72v-450h-72v450h-60v73h60v90q0 115 109 115q13 0 35 -2v-79q-24 2 -30 2q-42 0 -42 -61v-65h72v-73z" />
    <glyph glyph-name="g" unicode="g" 
d="M409 43q0 -137 -49 -200t-149 -63q-71 0 -111 36t-54 120h72q10 -44 32.5 -63.5t63.5 -19.5q65 0 94 40.5t29 143.5v21q-40 -73 -117 -73q-85 0 -136 79t-51 210q0 119 49 191.5t128 72.5q43 0 72.5 -20.5t58.5 -71.5v77h68v-480zM340 247q0 103 -29.5 158t-85.5 55
q-117 0 -117 -191q0 -98 30 -152.5t84 -54.5q55 0 86.5 49.5t31.5 135.5z" />
    <glyph glyph-name="h" unicode="h" 
d="M403 0h-72v342q0 62 -20 90t-64 28q-58 0 -90 -46t-32 -129v-285h-72v718h72v-267q31 49 60.5 68t72.5 19q68 0 106.5 -48t38.5 -134v-356z" />
    <glyph glyph-name="i" unicode="i" horiz-adv-x="182" 
d="M127 0h-72v523h72v-523zM134 607h-86v96h86v-96z" />
    <glyph glyph-name="j" unicode="j" horiz-adv-x="182" 
d="M127 -77q0 -68 -26 -100.5t-81 -32.5q-15 0 -33 3v76h15q34 0 43.5 11.5t9.5 52.5v590h72v-600zM134 607h-86v96h86v-96z" />
    <glyph glyph-name="k" unicode="k" horiz-adv-x="410" 
d="M411 0h-93l-133 264l-60 -66v-198h-72v718h72v-416l185 221h91l-164 -195z" />
    <glyph glyph-name="l" unicode="l" horiz-adv-x="182" 
d="M127 0h-72v718h72v-718z" />
    <glyph glyph-name="m" unicode="m" horiz-adv-x="683" 
d="M631 0h-72v338q0 122 -78 122q-43 0 -73 -41t-30 -100v-319h-72v362q0 46 -17.5 72t-49.5 26q-52 0 -83 -48t-31 -127v-285h-72v523h68v-77q28 49 59 70.5t74 21.5q40 0 66.5 -19.5t46.5 -65.5q37 50 63.5 67.5t65.5 17.5q62 0 98.5 -47t36.5 -129v-362z" />
    <glyph glyph-name="n" unicode="n" 
d="M403 0h-72v322q0 72 -21 105t-67 33q-55 0 -86.5 -46.5t-31.5 -128.5v-285h-72v523h68v-77q52 92 137 92q68 0 106.5 -48t38.5 -134v-356z" />
    <glyph glyph-name="o" unicode="o" 
d="M427 262q0 -122 -55.5 -199t-143.5 -77t-143.5 77t-55.5 199q0 124 55.5 200t146.5 76q86 0 141 -77.5t55 -198.5zM352 262q0 90 -33.5 144.5t-88.5 54.5q-58 0 -92 -53.5t-34 -145.5q0 -91 34 -145t90 -54t90 54t34 145z" />
    <glyph glyph-name="p" unicode="p" 
d="M424 274q0 -131 -51 -210t-136 -79q-75 0 -117 73v-265h-72v730h68v-77q28 51 57.5 71.5t73.5 20.5q79 0 128 -72.5t49 -191.5zM349 271q0 92 -29 140.5t-85 48.5q-118 0 -118 -215q0 -85 31.5 -134t85.5 -49q55 0 85 55t30 154z" />
    <glyph glyph-name="q" unicode="q" 
d="M405 -207h-72v265q-42 -73 -117 -73q-85 0 -136 79t-51 210q0 119 49 191.5t128 72.5q43 0 72.5 -20.5t58.5 -71.5v77h68v-730zM336 245q0 105 -29.5 160t-85.5 55q-117 0 -117 -190q0 -98 30 -153t84 -55q55 0 86.5 48.5t31.5 134.5z" />
    <glyph glyph-name="r" unicode="r" horiz-adv-x="273" 
d="M272 445h-27q-48 0 -79 -39.5t-31 -100.5v-305h-72v523h68v-89q29 56 57 80t65 24q9 0 19 -3v-90z" />
    <glyph glyph-name="s" unicode="s" horiz-adv-x="410" 
d="M380 157q0 -79 -48 -125.5t-130 -46.5q-84 0 -127.5 44t-48.5 139h70q4 -56 30 -81t81 -25q47 0 74 22t27 60q0 29 -17.5 44.5t-67.5 30.5l-84 25q-99 30 -99 129q0 75 45 120t119 45q73 0 115 -42.5t47 -121.5h-70q-4 87 -97 87q-41 0 -65 -20t-24 -54q0 -28 15 -41.5
t62 -27.5l73 -22q65 -19 92.5 -51.5t27.5 -87.5z" />
    <glyph glyph-name="t" unicode="t" horiz-adv-x="228" 
d="M211 450h-70v-340q0 -22 10 -31.5t34 -9.5h25v-69l-28 -3.5l-16 -2t-7 -1t-6 -0.5q-84 0 -84 112v345h-58v73h58v146h72v-146h70v-73z" />
    <glyph glyph-name="u" unicode="u" 
d="M401 0h-68v81q-29 -54 -58.5 -75t-77.5 -21q-66 0 -103.5 43t-37.5 119v376h72v-347q0 -114 83 -114q54 0 86 47t32 126v288h72v-523z" />
    <glyph glyph-name="v" unicode="v" horiz-adv-x="410" 
d="M403 523l-163 -523h-77l-156 523h83l112 -429l122 429h79z" />
    <glyph glyph-name="w" unicode="w" horiz-adv-x="592" 
d="M581 523l-125 -523h-74l-88 409l-85 -409h-74l-124 523h79l83 -415l83 415h81l84 -415l88 415h72z" />
    <glyph glyph-name="x" unicode="x" horiz-adv-x="410" 
d="M402 0h-92l-107 197l-103 -197h-91l151 269l-144 254h93l99 -184l100 184h88l-145 -254z" />
    <glyph glyph-name="y" unicode="y" horiz-adv-x="410" 
d="M401 523l-155 -513q-26 -84 -40 -123t-33 -65t-37 -31t-53 -5q-13 0 -29 6l-6 2v80q21 -9 44 -9t33.5 13t24.5 54l18 54l-159 537h81l115 -429l116 429h80z" />
    <glyph glyph-name="z" unicode="z" horiz-adv-x="410" 
d="M385 0h-360v69l259 381h-239v73h333v-72l-257 -378h264v-73z" />
    <glyph glyph-name="braceleft" unicode="{" horiz-adv-x="274" 
d="M239 -196h-55q-36 0 -60 37t-24 92v171q0 53 -16.5 89t-49.5 41v60q66 10 66 127v172q0 55 24 92t60 37h55v-65h-36q-38 0 -38 -82v-170q0 -48 -21 -87.5t-53 -53.5q34 -16 54 -55t20 -89v-169q0 -82 38 -82h36v-65z" />
    <glyph glyph-name="bar" unicode="|" horiz-adv-x="213" 
d="M136 -196h-58v918h58v-918z" />
    <glyph glyph-name="braceright" unicode="}" horiz-adv-x="274" 
d="M239 234q-33 -6 -49.5 -41.5t-16.5 -88.5v-171q0 -55 -24 -92t-60 -37h-55v65h36q38 0 38 82v169q0 50 20 89t54 55q-32 14 -53 53.5t-21 87.5v170q0 82 -38 82h-36v65h55q36 0 60 -37t24 -92v-172q0 -117 66 -127v-60z" />
    <glyph glyph-name="asciitilde" unicode="~" horiz-adv-x="479" 
d="M429 267q-26 -46 -49.5 -66t-53.5 -20q-34 0 -83 33q-53 35 -93 35q-36 0 -61 -49l-39 36q39 86 101 86q21 0 43 -8.5t73 -36.5q41 -23 62 -23q29 0 59 51z" />
    <glyph glyph-name="uni00A0" unicode="&#xa0;" horiz-adv-x="228" 
 />
    <glyph glyph-name="exclamdown" unicode="&#xa1;" horiz-adv-x="228" 
d="M154 421h-79v102h79v-102zM154 -195h-79v237l20 310h39l20 -310v-237z" />
    <glyph glyph-name="cent" unicode="&#xa2;" 
d="M421 183q-14 -98 -61.5 -150t-121.5 -52q-17 0 -52 7l-25 -103h-34l28 114q-59 40 -86 100t-27 152q0 134 53.5 210.5t147.5 76.5q21 0 36 -6l21 91h32l-20 -100q44 -18 72 -64.5t34 -113.5h-68q-15 81 -55 102l-91 -386q14 -3 28 -3q50 0 77 28t42 97h70zM263 459
q-10 2 -18 2q-62 0 -96.5 -54.5t-34.5 -154.5q0 -122 60 -174z" />
    <glyph glyph-name="sterling" unicode="&#xa3;" 
d="M442 32q-53 -48 -103 -48q-13 0 -84.5 22.5t-86.5 22.5q-42 0 -98 -40l-40 69q100 88 100 185q0 27 -15 74h-88v63h57q-36 88 -36 136q0 89 55 145.5t142 56.5t134.5 -59.5t47.5 -153.5v-15h-72v9q0 63 -31.5 102.5t-83.5 39.5q-48 0 -81.5 -36.5t-33.5 -88.5
q0 -43 42 -136h137v-63h-113q7 -35 7 -64q0 -100 -103 -192q62 41 112 41q15 0 72 -17.5t66 -17.5q34 0 63 31z" />
    <glyph glyph-name="currency" unicode="&#xa4;" 
d="M392 141l-41 -41l-32 31q-40 -27 -89 -27t-89 27l-32 -31l-41 41l32 31q-28 40 -28 90q0 49 28 89l-32 31l41 41l32 -31q41 28 89 28t89 -28l32 31l41 -41l-32 -31q28 -40 28 -89q0 -50 -28 -90zM330 262q0 41 -29.5 70.5t-70.5 29.5t-70.5 -29.5t-29.5 -70.5
q0 -42 29.5 -71t70.5 -29t70.5 29t29.5 71z" />
    <glyph glyph-name="yen" unicode="&#xa5;" 
d="M453 688l-159 -304h128v-57h-159v-85h159v-57h-159v-185h-72v185h-157v57h157v85h-157v57h126l-158 304h82l143 -295l144 295h82z" />
    <glyph glyph-name="brokenbar" unicode="&#xa6;" horiz-adv-x="213" 
d="M136 355h-58v367h58v-367zM136 -196h-58v367h58v-367z" />
    <glyph glyph-name="section" unicode="&#xa7;" 
d="M420 244q0 -51 -19 -87t-66 -73q43 -58 43 -114q0 -69 -44 -115t-111 -46q-148 0 -155 188h72q3 -111 81 -111q39 0 62 22t23 59q0 43 -45 80l-173 140q-53 44 -53 126q0 52 18 86t64 68q-22 31 -30 51.5t-8 48.5q0 75 41.5 122.5t107.5 47.5q142 0 149 -183h-69
q-4 56 -23 81t-57 25q-34 0 -55.5 -22t-21.5 -57q0 -49 60 -91l120 -86q47 -34 68 -72t21 -88zM352 224q0 58 -51 97l-143 107q-55 -38 -55 -98q0 -54 37 -84l155 -122q32 26 44.5 48t12.5 52z" />
    <glyph glyph-name="dieresis" unicode="&#xa8;" horiz-adv-x="273" 
d="M100 607h-88v96h88v-96zM261 607h-88v96h88v-96z" />
    <glyph glyph-name="copyright" unicode="&#xa9;" horiz-adv-x="604" 
d="M584 329q0 -141 -79.5 -244.5t-202.5 -103.5t-202.5 103.5t-79.5 244.5t79.5 244.5t202.5 103.5t202.5 -103.5t79.5 -244.5zM544 329q0 124 -67.5 216t-174.5 92t-174.5 -92t-67.5 -216t67.5 -216t174.5 -92t174.5 92t67.5 216zM459 283q-15 -83 -53 -119
q-42 -39 -102 -39q-72 0 -115 55t-43 149t44.5 149.5t119.5 55.5q60 0 99 -35t46 -97h-52q-18 78 -92 78q-52 0 -81 -41t-29 -112t28 -109.5t79 -38.5q39 0 63 24.5t35 79.5h53z" />
    <glyph glyph-name="ordfeminine" unicode="&#xaa;" horiz-adv-x="303" 
d="M284 410l-6 -2q-14 -3 -21 -3q-25 0 -35.5 11t-12.5 40q-44 -51 -99 -51q-41 0 -65.5 25.5t-24.5 67.5t24 68t68 32l72 10q20 3 20 35q0 42 -62 42q-57 0 -63 -53h-45q4 54 31 79.5t82 25.5q50 0 78.5 -23.5t28.5 -64.5v-178q0 -19 15 -19q1 0 3 0.5t5.5 1t6.5 0.5v-44z
M204 531v39q-8 -10 -75 -20q-31 -5 -44 -15t-13 -30q0 -48 47 -48q37 0 61 21t24 53zM272 304h-243v48h243v-48z" />
    <glyph glyph-name="guillemotleft" unicode="&#xab;" 
d="M208 108l-128 123v92l128 123v-88l-86 -81l86 -81v-88zM376 108l-128 123v92l128 123v-88l-86 -81l86 -81v-88z" />
    <glyph glyph-name="logicalnot" unicode="&#xac;" horiz-adv-x="479" 
d="M424 369v-209h-58v151h-311v58h369z" />
    <glyph glyph-name="uni00AD" unicode="&#xad;" horiz-adv-x="273" 
d="M237 232h-201v90h201v-90z" />
    <glyph glyph-name="registered" unicode="&#xae;" horiz-adv-x="604" 
d="M584 329q0 -141 -79.5 -244.5t-202.5 -103.5t-202.5 103.5t-79.5 244.5t79.5 244.5t202.5 103.5t202.5 -103.5t79.5 -244.5zM544 329q0 124 -67.5 216t-174.5 92t-174.5 -92t-67.5 -216t67.5 -216t174.5 -92t174.5 92t67.5 216zM448 149v-14h-63q-9 23 -9 99
q0 34 -14 49.5t-44 15.5h-109v-164h-54v389h163q57 0 87 -27.5t30 -79.5q0 -57 -44 -90q20 -10 28 -25.5t9 -46.5l3 -69q0 -17 3 -23.5t14 -13.5zM380 413q0 59 -59 59h-112v-122h104q67 0 67 63z" />
    <glyph glyph-name="macron" unicode="&#xaf;" horiz-adv-x="273" 
d="M265 627h-257v57h257v-57z" />
    <glyph glyph-name="degree" unicode="&#xb0;" horiz-adv-x="328" 
d="M284 557q0 -62 -34.5 -104t-85.5 -42t-85.5 42t-34.5 104q0 63 34.5 104.5t87.5 41.5q50 0 84 -42.5t34 -103.5zM244 557q0 40 -24.5 71.5t-55.5 31.5t-55.5 -31t-24.5 -72t24.5 -72t55.5 -31t55.5 31t24.5 72z" />
    <glyph glyph-name="plusminus" unicode="&#xb1;" horiz-adv-x="479" 
d="M424 279h-155v-155h-58v155h-156v58h156v156h58v-156h155v-58zM424 0h-369v58h369v-58z" />
    <glyph glyph-name="two.superior" unicode="&#xb2;" horiz-adv-x="273" 
d="M265 280h-262q6 115 85 168l50 33q46 30 57.5 47.5t12.5 54.5q0 35 -18 54t-51 19q-36 0 -53.5 -24.5t-20.5 -79.5h-50q6 162 128 162q54 0 88 -38t34 -99q0 -47 -21 -77.5t-77 -64.5l-37 -23q-43 -26 -65 -70h200v-62z" />
    <glyph glyph-name="three.superior" unicode="&#xb3;" horiz-adv-x="273" 
d="M266 416q0 -66 -37 -106t-98 -40q-56 0 -88.5 34.5t-38.5 116.5h56q3 -51 19 -72t53 -21t57 21.5t20 60.5q0 38 -19.5 54.5t-64.5 16.5h-19v52h22q68 0 68 65q0 58 -65 58q-33 0 -49 -18.5t-19 -61.5h-50q6 138 123 138q53 0 85 -30.5t32 -81.5q0 -66 -51 -87
q34 -13 49 -36t15 -63z" />
    <glyph glyph-name="acute" unicode="&#xb4;" horiz-adv-x="273" 
d="M271 725l-107 -141h-55l73 141h89z" />
    <glyph glyph-name="mu" unicode="&#xb5;" 
d="M401 0h-68v81q-28 -53 -57.5 -74.5t-76.5 -21.5q-46 0 -71 36v-228h-72v730h72v-347q0 -114 83 -114q54 0 86 47t32 126v288h72v-523z" />
    <glyph glyph-name="paragraph" unicode="&#xb6;" horiz-adv-x="440" 
d="M408 -173h-60v831h-97v-831h-60v517q-85 4 -130.5 55.5t-45.5 133.5q0 89 49.5 137t140.5 48h203v-891z" />
    <glyph glyph-name="periodcentered" unicode="&#xb7;" horiz-adv-x="228" 
d="M157 250q0 -18 -12.5 -30.5t-30.5 -12.5t-30.5 12.5t-12.5 30.5t12.5 30.5t30.5 12.5t30.5 -12.5t12.5 -30.5z" />
    <glyph glyph-name="cedilla" unicode="&#xb8;" horiz-adv-x="273" 
d="M212 -138q0 -41 -26.5 -66.5t-69.5 -25.5q-35 0 -79 22l14 40q29 -15 52 -15q47 0 47 42q0 18 -11.5 31.5t-28.5 13.5q-10 0 -31 -9l-14 19l52 88h47l-32 -60h12q30 0 49 -23t19 -57z" />
    <glyph glyph-name="one.superior" unicode="&#xb9;" horiz-adv-x="273" 
d="M182 281h-58v296h-89v46q53 4 72 19t29 61h46v-422z" />
    <glyph glyph-name="ordmasculine" unicode="&#xba;" horiz-adv-x="299" 
d="M280 571q0 -79 -34 -122.5t-96 -43.5q-61 0 -95.5 43.5t-34.5 121.5q0 80 34 123.5t98 43.5q60 0 94 -44t34 -122zM225 571q0 54 -19.5 84t-54.5 30q-37 0 -56.5 -29.5t-19.5 -84.5q0 -54 19.5 -84t55.5 -30t55.5 30t19.5 84zM271 304h-243v48h243v-48z" />
    <glyph glyph-name="guillemotright" unicode="&#xbb;" 
d="M208 231l-128 -123v88l86 81l-86 81v88l128 -123v-92zM376 231l-128 -123v88l86 81l-86 81v88l128 -123v-92z" />
    <glyph glyph-name="onequarter" unicode="&#xbc;" horiz-adv-x="684" 
d="M620 94h-55v-94h-52v94h-169v60l169 268h52v-270h55v-58zM536 703l-363 -728h-47l363 728h47zM205 281h-56v299h-89v43q53 4 72 19t29 61h44v-422zM513 152v190l-118 -190h118z" />
    <glyph glyph-name="onehalf" unicode="&#xbd;" horiz-adv-x="684" 
d="M506 703l-363 -728h-46l362 728h47zM182 281h-58v296h-89v46q53 4 72 19t29 61h46v-422zM634 0h-262q3 60 23 99.5t63 67.5l49 33q47 32 58.5 48.5t11.5 53.5q0 35 -18 54t-51 19q-35 0 -53 -25t-21 -79h-49q3 162 127 162q55 0 88.5 -38t33.5 -99q0 -46 -21 -76t-77 -65
l-37 -23q-45 -29 -65 -70h200v-62z" />
    <glyph glyph-name="threequarters" unicode="&#xbe;" horiz-adv-x="684" 
d="M664 94h-55v-94h-52v94h-169v60l169 268h52v-270h55v-58zM584 703l-363 -728h-47l363 728h47zM300 415q0 -65 -37 -105t-98 -40q-56 0 -88 33.5t-40 117.5h56q3 -51 19.5 -72t53.5 -21t57 21.5t20 60.5q0 38 -19.5 54.5t-65.5 16.5h-19v52h22q68 0 68 65q0 58 -64 58
q-34 0 -50 -18.5t-19 -61.5h-50q6 138 123 138q53 0 85 -30.5t32 -81.5q0 -66 -51 -87q35 -14 50 -37t15 -63zM557 152v190l-118 -190h118z" />
    <glyph glyph-name="questiondown" unicode="&#xbf;" 
d="M410 30q0 -65 -9.5 -99.5t-33.5 -65.5q-53 -69 -140 -69q-77 0 -125.5 54.5t-48.5 140.5q0 46 15 79t62 87t59 85t12 98h72q0 -77 -13.5 -114.5t-63.5 -100.5q-44 -55 -55 -77t-11 -56q0 -55 26.5 -87t73.5 -32q108 0 108 157h72zM275 421h-80v102h80v-102z" />
    <glyph glyph-name="Agrave" unicode="&#xc0;" horiz-adv-x="547" 
d="M536 0h-87l-58 209h-236l-62 -209h-82l221 718h91zM362 296l-88 318l-95 -318h183zM309 779h-60l-107 121h94z" />
    <glyph glyph-name="Aacute" unicode="&#xc1;" horiz-adv-x="547" 
d="M536 0h-87l-58 209h-236l-62 -209h-82l221 718h91zM362 296l-88 318l-95 -318h183zM415 900l-107 -121h-60l73 121h94z" />
    <glyph glyph-name="Acircumflex" unicode="&#xc2;" horiz-adv-x="547" 
d="M536 0h-87l-58 209h-236l-62 -209h-82l221 718h91zM362 296l-88 318l-95 -318h183zM412 780h-66l-69 73l-69 -73h-65l96 121h77z" />
    <glyph glyph-name="Atilde" unicode="&#xc3;" horiz-adv-x="547" 
d="M536 0h-87l-58 209h-236l-62 -209h-82l221 718h91zM362 296l-88 318l-95 -318h183zM418 898q-15 -109 -83 -109q-15 0 -47 13l-21 9q-34 15 -51 15q-26 0 -38 -44h-39q14 107 85 107q23 0 56 -15l18 -9q26 -13 41 -13q30 0 38 46h41z" />
    <glyph glyph-name="Adieresis" unicode="&#xc4;" horiz-adv-x="547" 
d="M536 0h-87l-58 209h-236l-62 -209h-82l221 718h91zM362 296l-88 318l-95 -318h183zM242 792h-88v96h88v-96zM403 792h-88v96h88v-96z" />
    <glyph glyph-name="Aring" unicode="&#xc5;" horiz-adv-x="547" 
d="M536 0h-87l-58 209h-236l-62 -209h-82l221 718h91zM362 296l-88 318l-95 -318h183zM380 858q0 -35 -29 -58.5t-72 -23.5q-44 0 -73 23.5t-29 60.5q0 35 29 58.5t73 23.5t72.5 -23.5t28.5 -60.5zM336 858q0 20 -17 34t-40 14t-40.5 -13.5t-17.5 -32.5q0 -20 17 -34t41 -14
q23 0 40 13.5t17 32.5z" />
    <glyph glyph-name="AE" unicode="&#xc6;" horiz-adv-x="820" 
d="M780 0h-405v209h-217l-65 -209h-86l239 718h528v-87h-319v-219h291v-87h-291v-238h325v-87zM375 296v335h-80l-109 -335h189z" />
    <glyph glyph-name="Ccedilla" unicode="&#xc7;" horiz-adv-x="592" 
d="M558 264q-15 -84 -34 -130t-53 -81q-56 -59 -137 -70l-22 -41h12q30 0 49 -23t19 -57q0 -41 -26.5 -66.5t-69.5 -25.5q-35 0 -79 22l14 40q29 -15 52 -15q47 0 47 42q0 18 -11.5 31.5t-28.5 13.5q-10 0 -31 -9l-14 19l40 67q-115 8 -182 109t-67 268q0 174 74.5 276.5
t200.5 102.5q98 0 162.5 -62t78.5 -173h-77q-34 148 -162 148q-91 0 -143 -78.5t-52 -216.5q0 -136 50 -211.5t140 -75.5q67 0 110 46.5t63 149.5h77z" />
    <glyph glyph-name="Egrave" unicode="&#xc8;" horiz-adv-x="547" 
d="M505 0h-434v718h428v-87h-348v-219h321v-87h-321v-238h354v-87zM316 779h-60l-107 121h94z" />
    <glyph glyph-name="Eacute" unicode="&#xc9;" horiz-adv-x="547" 
d="M505 0h-434v718h428v-87h-348v-219h321v-87h-321v-238h354v-87zM422 900l-107 -121h-60l73 121h94z" />
    <glyph glyph-name="Ecircumflex" unicode="&#xca;" horiz-adv-x="547" 
d="M505 0h-434v718h428v-87h-348v-219h321v-87h-321v-238h354v-87zM419 780h-66l-69 73l-69 -73h-65l96 121h77z" />
    <glyph glyph-name="Edieresis" unicode="&#xcb;" horiz-adv-x="547" 
d="M505 0h-434v718h428v-87h-348v-219h321v-87h-321v-238h354v-87zM249 792h-88v96h88v-96zM410 792h-88v96h88v-96z" />
    <glyph glyph-name="Igrave" unicode="&#xcc;" horiz-adv-x="228" 
d="M154 0h-79v718h79v-718zM154 779h-60l-107 121h94z" />
    <glyph glyph-name="Iacute" unicode="&#xcd;" horiz-adv-x="228" 
d="M154 0h-79v718h79v-718zM243 900l-107 -121h-60l73 121h94z" />
    <glyph glyph-name="Icircumflex" unicode="&#xce;" horiz-adv-x="228" 
d="M154 0h-79v718h79v-718zM249 780h-66l-69 73l-69 -73h-65l96 121h77z" />
    <glyph glyph-name="Idieresis" unicode="&#xcf;" horiz-adv-x="228" 
d="M154 0h-79v718h79v-718zM79 792h-88v96h88v-96zM240 792h-88v96h88v-96z" />
    <glyph glyph-name="Eth" unicode="&#xd0;" horiz-adv-x="592" 
d="M553 372q0 -169 -67 -270.5t-184 -101.5h-236v325h-66v87h66v306h240q112 0 179.5 -95t67.5 -251zM471 359q0 133 -45.5 204.5t-130.5 71.5h-149v-223h158v-87h-158v-242h155q79 0 124.5 74t45.5 202z" />
    <glyph glyph-name="Ntilde" unicode="&#xd1;" horiz-adv-x="592" 
d="M530 0h-89l-302 583v-583h-77v718h94l297 -583v583h77v-718zM436 898q-15 -109 -83 -109q-15 0 -47 13l-21 9q-34 15 -51 15q-26 0 -38 -44h-39q14 107 85 107q23 0 56 -15l18 -9q26 -13 41 -13q30 0 38 46h41z" />
    <glyph glyph-name="Ograve" unicode="&#xd2;" horiz-adv-x="638" 
d="M606 358q0 -104 -32 -188t-98.5 -136.5t-156.5 -52.5t-156.5 52.5t-98.5 136.5t-32 188q0 165 77 272t214 107q124 0 203.5 -105.5t79.5 -273.5zM524 359q0 130 -56 210.5t-146 80.5q-95 0 -151.5 -79t-56.5 -213q0 -130 56.5 -210t148.5 -80t148.5 80t56.5 211zM354 779
h-60l-107 121h94z" />
    <glyph glyph-name="Oacute" unicode="&#xd3;" horiz-adv-x="638" 
d="M606 358q0 -104 -32 -188t-98.5 -136.5t-156.5 -52.5t-156.5 52.5t-98.5 136.5t-32 188q0 165 77 272t214 107q124 0 203.5 -105.5t79.5 -273.5zM524 359q0 130 -56 210.5t-146 80.5q-95 0 -151.5 -79t-56.5 -213q0 -130 56.5 -210t148.5 -80t148.5 80t56.5 211zM460 900
l-107 -121h-60l73 121h94z" />
    <glyph glyph-name="Ocircumflex" unicode="&#xd4;" horiz-adv-x="638" 
d="M606 358q0 -104 -32 -188t-98.5 -136.5t-156.5 -52.5t-156.5 52.5t-98.5 136.5t-32 188q0 165 77 272t214 107q124 0 203.5 -105.5t79.5 -273.5zM524 359q0 130 -56 210.5t-146 80.5q-95 0 -151.5 -79t-56.5 -213q0 -130 56.5 -210t148.5 -80t148.5 80t56.5 211zM457 780
h-66l-69 73l-69 -73h-65l96 121h77z" />
    <glyph glyph-name="Otilde" unicode="&#xd5;" horiz-adv-x="638" 
d="M606 358q0 -104 -32 -188t-98.5 -136.5t-156.5 -52.5t-156.5 52.5t-98.5 136.5t-32 188q0 165 77 272t214 107q124 0 203.5 -105.5t79.5 -273.5zM524 359q0 130 -56 210.5t-146 80.5q-95 0 -151.5 -79t-56.5 -213q0 -130 56.5 -210t148.5 -80t148.5 80t56.5 211zM463 898
q-15 -109 -83 -109q-15 0 -47 13l-21 9q-34 15 -51 15q-26 0 -38 -44h-39q14 107 85 107q23 0 56 -15l18 -9q26 -13 41 -13q30 0 38 46h41z" />
    <glyph glyph-name="Odieresis" unicode="&#xd6;" horiz-adv-x="638" 
d="M606 358q0 -104 -32 -188t-98.5 -136.5t-156.5 -52.5t-156.5 52.5t-98.5 136.5t-32 188q0 165 77 272t214 107q124 0 203.5 -105.5t79.5 -273.5zM524 359q0 130 -56 210.5t-146 80.5q-95 0 -151.5 -79t-56.5 -213q0 -130 56.5 -210t148.5 -80t148.5 80t56.5 211zM287 792
h-88v96h88v-96zM448 792h-88v96h88v-96z" />
    <glyph glyph-name="multiply" unicode="&#xd7;" horiz-adv-x="479" 
d="M391 141l-41 -41l-110 109l-110 -110l-41 41l110 111l-110 110l41 41l110 -110l110 109l41 -41l-110 -109z" />
    <glyph glyph-name="Oslash" unicode="&#xd8;" horiz-adv-x="638" 
d="M607 707l-68 -91q67 -118 67 -258q0 -160 -76.5 -268.5t-211.5 -108.5q-59 0 -104 20.5t-88 66.5l-66 -87l-26 28l68 90q-70 120 -70 261q0 104 32 188t98.5 136.5t157.5 52.5q61 0 106.5 -21t88.5 -68l67 89zM524 359q0 104 -40 184l-306 -405q60 -70 140 -70
q93 0 149.5 80t56.5 211zM463 578q-61 72 -143 72q-93 0 -149.5 -80t-56.5 -211q0 -103 42 -188z" />
    <glyph glyph-name="Ugrave" unicode="&#xd9;" horiz-adv-x="592" 
d="M528 252q0 -124 -64 -197.5t-172 -73.5q-104 0 -165.5 70t-61.5 188v479h80v-452q0 -95 39 -146.5t111 -51.5q73 0 113 51t40 145v454h80v-466zM328 779h-60l-107 121h94z" />
    <glyph glyph-name="Uacute" unicode="&#xda;" horiz-adv-x="592" 
d="M528 252q0 -124 -64 -197.5t-172 -73.5q-104 0 -165.5 70t-61.5 188v479h80v-452q0 -95 39 -146.5t111 -51.5q73 0 113 51t40 145v454h80v-466zM434 900l-107 -121h-60l73 121h94z" />
    <glyph glyph-name="Ucircumflex" unicode="&#xdb;" horiz-adv-x="592" 
d="M528 252q0 -124 -64 -197.5t-172 -73.5q-104 0 -165.5 70t-61.5 188v479h80v-452q0 -95 39 -146.5t111 -51.5q73 0 113 51t40 145v454h80v-466zM431 780h-66l-69 73l-69 -73h-65l96 121h77z" />
    <glyph glyph-name="Udieresis" unicode="&#xdc;" horiz-adv-x="592" 
d="M528 252q0 -124 -64 -197.5t-172 -73.5q-104 0 -165.5 70t-61.5 188v479h80v-452q0 -95 39 -146.5t111 -51.5q73 0 113 51t40 145v454h80v-466zM261 792h-88v96h88v-96zM422 792h-88v96h88v-96z" />
    <glyph glyph-name="Yacute" unicode="&#xdd;" horiz-adv-x="547" 
d="M535 718l-222 -429v-289h-80v289l-222 429h93l169 -345l169 345h93zM410 900l-107 -121h-60l73 121h94z" />
    <glyph glyph-name="Thorn" unicode="&#xde;" horiz-adv-x="547" 
d="M510 396q0 -96 -48 -154t-127 -58h-184v-184h-80v718h80v-119h184q79 0 127 -56t48 -147zM428 393q0 123 -117 123h-160v-249h157q120 0 120 126z" />
    <glyph glyph-name="germandbls" unicode="&#xdf;" horiz-adv-x="501" 
d="M468 223q0 -102 -54 -170t-152 -68q-22 0 -41 6l-3 1v75q20 -4 35 -4q140 0 140 151q0 140 -140 140q-18 0 -31 -4v79q10 -2 23 -2q58 0 90.5 29t32.5 82t-33 83t-91 30q-62 0 -89.5 -33.5t-27.5 -107.5v-510h-72v532q0 92 51 144t141 52q88 0 140.5 -49.5t52.5 -132.5
q0 -93 -67 -146q95 -40 95 -177z" />
    <glyph glyph-name="agrave" unicode="&#xe0;" 
d="M435 0q-29 -10 -42 -10q-37 0 -53.5 18.5t-20.5 61.5q-35 -45 -70.5 -65t-81.5 -20q-62 0 -99.5 42t-37.5 111q0 68 34 110t96 52l119 18q38 6 38 60q0 87 -99 87q-101 0 -101 -101h-66q0 174 172 174q77 0 120.5 -39t43.5 -107v-301q0 -31 23 -31q5 0 25 4v-64zM315 181
v86q-11 -10 -33 -16t-85 -17q-49 -8 -70.5 -28.5t-21.5 -59.5q0 -42 20 -65t57 -23q54 0 93.5 36.5t39.5 86.5zM251 584h-55l-107 141h89z" />
    <glyph glyph-name="aacute" unicode="&#xe1;" 
d="M435 0q-29 -10 -42 -10q-37 0 -53.5 18.5t-20.5 61.5q-35 -45 -70.5 -65t-81.5 -20q-62 0 -99.5 42t-37.5 111q0 68 34 110t96 52l119 18q38 6 38 60q0 87 -99 87q-101 0 -101 -101h-66q0 174 172 174q77 0 120.5 -39t43.5 -107v-301q0 -31 23 -31q5 0 25 4v-64zM315 181
v86q-11 -10 -33 -16t-85 -17q-49 -8 -70.5 -28.5t-21.5 -59.5q0 -42 20 -65t57 -23q54 0 93.5 36.5t39.5 86.5zM357 725l-107 -141h-55l73 141h89z" />
    <glyph glyph-name="acircumflex" unicode="&#xe2;" 
d="M435 0q-29 -10 -42 -10q-37 0 -53.5 18.5t-20.5 61.5q-35 -45 -70.5 -65t-81.5 -20q-62 0 -99.5 42t-37.5 111q0 68 34 110t96 52l119 18q38 6 38 60q0 87 -99 87q-101 0 -101 -101h-66q0 174 172 174q77 0 120.5 -39t43.5 -107v-301q0 -31 23 -31q5 0 25 4v-64zM315 181
v86q-11 -10 -33 -16t-85 -17q-49 -8 -70.5 -28.5t-21.5 -59.5q0 -42 20 -65t57 -23q54 0 93.5 36.5t39.5 86.5zM342 585h-66l-54 93l-54 -93h-65l81 141h77z" />
    <glyph glyph-name="atilde" unicode="&#xe3;" 
d="M435 0q-29 -10 -42 -10q-37 0 -53.5 18.5t-20.5 61.5q-35 -45 -70.5 -65t-81.5 -20q-62 0 -99.5 42t-37.5 111q0 68 34 110t96 52l119 18q38 6 38 60q0 87 -99 87q-101 0 -101 -101h-66q0 174 172 174q77 0 120.5 -39t43.5 -107v-301q0 -31 23 -31q5 0 25 4v-64zM315 181
v86q-11 -10 -33 -16t-85 -17q-49 -8 -70.5 -28.5t-21.5 -59.5q0 -42 20 -65t57 -23q54 0 93.5 36.5t39.5 86.5zM362 713q-15 -109 -83 -109q-15 0 -47 13l-21 9q-34 15 -51 15q-26 0 -38 -44h-39q14 107 85 107q23 0 56 -15l18 -9q26 -13 41 -13q30 0 38 46h41z" />
    <glyph glyph-name="adieresis" unicode="&#xe4;" 
d="M435 0q-29 -10 -42 -10q-37 0 -53.5 18.5t-20.5 61.5q-35 -45 -70.5 -65t-81.5 -20q-62 0 -99.5 42t-37.5 111q0 68 34 110t96 52l119 18q38 6 38 60q0 87 -99 87q-101 0 -101 -101h-66q0 174 172 174q77 0 120.5 -39t43.5 -107v-301q0 -31 23 -31q5 0 25 4v-64zM315 181
v86q-11 -10 -33 -16t-85 -17q-49 -8 -70.5 -28.5t-21.5 -59.5q0 -42 20 -65t57 -23q54 0 93.5 36.5t39.5 86.5zM186 607h-88v96h88v-96zM347 607h-88v96h88v-96z" />
    <glyph glyph-name="aring" unicode="&#xe5;" 
d="M435 0q-29 -10 -42 -10q-37 0 -53.5 18.5t-20.5 61.5q-35 -45 -70.5 -65t-81.5 -20q-62 0 -99.5 42t-37.5 111q0 68 34 110t96 52l119 18q38 6 38 60q0 87 -99 87q-101 0 -101 -101h-66q0 174 172 174q77 0 120.5 -39t43.5 -107v-301q0 -31 23 -31q5 0 25 4v-64zM315 181
v86q-11 -10 -33 -16t-85 -17q-49 -8 -70.5 -28.5t-21.5 -59.5q0 -42 20 -65t57 -23q54 0 93.5 36.5t39.5 86.5zM324 654q0 -35 -29 -58.5t-72 -23.5q-44 0 -73 23.5t-29 60.5q0 35 29 58.5t73 23.5t72.5 -23.5t28.5 -60.5zM280 654q0 20 -17 34t-40 14t-40.5 -13.5
t-17.5 -32.5q0 -20 17 -34t41 -14q23 0 40 13.5t17 32.5z" />
    <glyph glyph-name="ae" unicode="&#xe6;" horiz-adv-x="729" 
d="M695 233h-314q6 -171 122 -171q43 0 75.5 29t38.5 73h72q-13 -82 -62 -130.5t-127 -48.5q-58 0 -95.5 25.5t-65.5 83.5q-34 -58 -74 -83.5t-94 -25.5q-65 0 -103 41.5t-38 111.5q0 68 34 110t96 52l119 18q38 6 38 60q0 87 -99 87q-47 0 -70 -22.5t-31 -78.5h-66
q5 92 48 133t129 41q48 0 77 -15.5t62 -58.5q35 42 65.5 58t75.5 16q87 0 133.5 -70.5t53.5 -234.5zM620 303q-12 157 -116 157q-52 0 -85.5 -43t-37.5 -114h239zM315 181v86q-10 -10 -32 -16t-86 -17q-49 -8 -70.5 -29t-21.5 -59q0 -42 20 -65t57 -23q54 0 93.5 36.5
t39.5 86.5z" />
    <glyph glyph-name="ccedilla" unicode="&#xe7;" horiz-adv-x="410" 
d="M391 185q-22 -178 -145 -198l-24 -45h12q30 0 49 -23t19 -57q0 -41 -26.5 -66.5t-69.5 -25.5q-35 0 -79 22l14 40q29 -15 52 -15q47 0 47 42q0 18 -11.5 31.5t-28.5 13.5q-10 0 -31 -9l-14 19l43 72q-80 8 -126.5 79.5t-46.5 186.5q0 131 55 208.5t148 77.5
q144 0 163 -191h-70q-9 59 -33 86t-67 27q-56 0 -87.5 -53t-31.5 -148t29.5 -146t84.5 -51q82 0 105 123h70z" />
    <glyph glyph-name="egrave" unicode="&#xe8;" 
d="M423 233h-313q6 -171 122 -171q44 0 76 29t37 73h72q-14 -85 -63.5 -132t-123.5 -47q-91 0 -144 71.5t-53 195.5q0 131 55 208.5t148 77.5q87 0 134.5 -71.5t52.5 -233.5zM348 303q-11 157 -115 157q-52 0 -86 -43.5t-37 -113.5h238zM256 584h-55l-107 141h89z" />
    <glyph glyph-name="eacute" unicode="&#xe9;" 
d="M423 233h-313q6 -171 122 -171q44 0 76 29t37 73h72q-14 -85 -63.5 -132t-123.5 -47q-91 0 -144 71.5t-53 195.5q0 131 55 208.5t148 77.5q87 0 134.5 -71.5t52.5 -233.5zM348 303q-11 157 -115 157q-52 0 -86 -43.5t-37 -113.5h238zM362 725l-107 -141h-55l73 141h89z
" />
    <glyph glyph-name="ecircumflex" unicode="&#xea;" 
d="M423 233h-313q6 -171 122 -171q44 0 76 29t37 73h72q-14 -85 -63.5 -132t-123.5 -47q-91 0 -144 71.5t-53 195.5q0 131 55 208.5t148 77.5q87 0 134.5 -71.5t52.5 -233.5zM348 303q-11 157 -115 157q-52 0 -86 -43.5t-37 -113.5h238zM347 585h-66l-54 93l-54 -93h-65
l81 141h77z" />
    <glyph glyph-name="edieresis" unicode="&#xeb;" 
d="M423 233h-313q6 -171 122 -171q44 0 76 29t37 73h72q-14 -85 -63.5 -132t-123.5 -47q-91 0 -144 71.5t-53 195.5q0 131 55 208.5t148 77.5q87 0 134.5 -71.5t52.5 -233.5zM348 303q-11 157 -115 157q-52 0 -86 -43.5t-37 -113.5h238zM191 607h-88v96h88v-96zM352 607h-88
v96h88v-96z" />
    <glyph glyph-name="igrave" unicode="&#xec;" horiz-adv-x="228" 
d="M150 0h-72v523h72v-523zM150 584h-55l-107 141h89z" />
    <glyph glyph-name="iacute" unicode="&#xed;" horiz-adv-x="228" 
d="M150 0h-72v523h72v-523zM240 725l-107 -141h-55l73 141h89z" />
    <glyph glyph-name="icircumflex" unicode="&#xee;" horiz-adv-x="228" 
d="M150 0h-72v523h72v-523zM233 585h-66l-54 93l-54 -93h-65l81 141h77z" />
    <glyph glyph-name="idieresis" unicode="&#xef;" horiz-adv-x="228" 
d="M150 0h-72v523h72v-523zM77 607h-88v96h88v-96zM238 607h-88v96h88v-96z" />
    <glyph glyph-name="eth" unicode="&#xf0;" 
d="M428 290q0 -140 -53.5 -222.5t-144.5 -82.5q-88 0 -144.5 75t-56.5 193q0 117 54 193.5t136 76.5q35 0 59 -13t52 -47q-30 83 -94 149l-101 -62l-35 42l97 57q-34 31 -73 52l61 36q40 -20 74 -51l87 51l39 -40l-88 -51q71 -88 101 -171.5t30 -184.5zM353 254
q0 84 -35 138t-88 54q-56 0 -91 -54t-35 -138t34 -138t90 -54t90.5 54.5t34.5 137.5z" />
    <glyph glyph-name="ntilde" unicode="&#xf1;" 
d="M403 0h-72v322q0 72 -21 105t-67 33q-55 0 -86.5 -46.5t-31.5 -128.5v-285h-72v523h68v-77q52 92 137 92q68 0 106.5 -48t38.5 -134v-356zM367 713q-15 -109 -83 -109q-15 0 -47 13l-21 9q-34 15 -51 15q-26 0 -38 -44h-39q14 107 85 107q23 0 56 -15l18 -9
q26 -13 41 -13q30 0 38 46h41z" />
    <glyph glyph-name="ograve" unicode="&#xf2;" 
d="M427 262q0 -122 -55.5 -199t-143.5 -77t-143.5 77t-55.5 199q0 124 55.5 200t146.5 76q86 0 141 -77.5t55 -198.5zM352 262q0 90 -33.5 144.5t-88.5 54.5q-58 0 -92 -53.5t-34 -145.5q0 -91 34 -145t90 -54t90 54t34 145zM256 584h-55l-107 141h89z" />
    <glyph glyph-name="oacute" unicode="&#xf3;" 
d="M427 262q0 -122 -55.5 -199t-143.5 -77t-143.5 77t-55.5 199q0 124 55.5 200t146.5 76q86 0 141 -77.5t55 -198.5zM352 262q0 90 -33.5 144.5t-88.5 54.5q-58 0 -92 -53.5t-34 -145.5q0 -91 34 -145t90 -54t90 54t34 145zM362 725l-107 -141h-55l73 141h89z" />
    <glyph glyph-name="ocircumflex" unicode="&#xf4;" 
d="M427 262q0 -122 -55.5 -199t-143.5 -77t-143.5 77t-55.5 199q0 124 55.5 200t146.5 76q86 0 141 -77.5t55 -198.5zM352 262q0 90 -33.5 144.5t-88.5 54.5q-58 0 -92 -53.5t-34 -145.5q0 -91 34 -145t90 -54t90 54t34 145zM347 585h-66l-54 93l-54 -93h-65l81 141h77z" />
    <glyph glyph-name="otilde" unicode="&#xf5;" 
d="M427 262q0 -122 -55.5 -199t-143.5 -77t-143.5 77t-55.5 199q0 124 55.5 200t146.5 76q86 0 141 -77.5t55 -198.5zM352 262q0 90 -33.5 144.5t-88.5 54.5q-58 0 -92 -53.5t-34 -145.5q0 -91 34 -145t90 -54t90 54t34 145zM367 713q-15 -109 -83 -109q-15 0 -47 13l-21 9
q-34 15 -51 15q-26 0 -38 -44h-39q14 107 85 107q23 0 56 -15l18 -9q26 -13 41 -13q30 0 38 46h41z" />
    <glyph glyph-name="odieresis" unicode="&#xf6;" 
d="M427 262q0 -122 -55.5 -199t-143.5 -77t-143.5 77t-55.5 199q0 124 55.5 200t146.5 76q86 0 141 -77.5t55 -198.5zM352 262q0 90 -33.5 144.5t-88.5 54.5q-58 0 -92 -53.5t-34 -145.5q0 -91 34 -145t90 -54t90 54t34 145zM191 607h-88v96h88v-96zM352 607h-88v96h88v-96z
" />
    <glyph glyph-name="divide" unicode="&#xf7;" horiz-adv-x="479" 
d="M424 221h-369v58h369v-58zM283 430q0 -18 -13 -30.5t-30 -12.5q-18 0 -30.5 12.5t-12.5 30.5q0 17 12.5 30t30.5 13q17 0 30 -13t13 -30zM283 71q0 -18 -13 -30.5t-30 -12.5q-18 0 -30.5 12.5t-12.5 30.5q0 17 12.5 30t30.5 13q17 0 30 -13t13 -30z" />
    <glyph glyph-name="oslash" unicode="&#xf8;" 
d="M440 519l-57 -78q44 -82 44 -180q0 -122 -55.5 -198.5t-144.5 -76.5q-73 0 -129 60l-50 -68l-25 26l52 72q-46 85 -46 186q0 123 55.5 199.5t144.5 76.5q76 0 133 -65l53 72zM317 410q-35 51 -89 51q-56 0 -90 -54t-34 -145q0 -62 20 -119zM352 262q0 58 -18 111
l-191 -265q33 -45 84 -45q57 0 91 54t34 145z" />
    <glyph glyph-name="ugrave" unicode="&#xf9;" 
d="M401 0h-68v81q-29 -54 -58.5 -75t-77.5 -21q-66 0 -103.5 43t-37.5 119v376h72v-347q0 -114 83 -114q54 0 86 47t32 126v288h72v-523zM256 584h-55l-107 141h89z" />
    <glyph glyph-name="uacute" unicode="&#xfa;" 
d="M401 0h-68v81q-29 -54 -58.5 -75t-77.5 -21q-66 0 -103.5 43t-37.5 119v376h72v-347q0 -114 83 -114q54 0 86 47t32 126v288h72v-523zM362 725l-107 -141h-55l73 141h89z" />
    <glyph glyph-name="ucircumflex" unicode="&#xfb;" 
d="M401 0h-68v81q-29 -54 -58.5 -75t-77.5 -21q-66 0 -103.5 43t-37.5 119v376h72v-347q0 -114 83 -114q54 0 86 47t32 126v288h72v-523zM347 585h-66l-54 93l-54 -93h-65l81 141h77z" />
    <glyph glyph-name="udieresis" unicode="&#xfc;" 
d="M401 0h-68v81q-29 -54 -58.5 -75t-77.5 -21q-66 0 -103.5 43t-37.5 119v376h72v-347q0 -114 83 -114q54 0 86 47t32 126v288h72v-523zM191 607h-88v96h88v-96zM352 607h-88v96h88v-96z" />
    <glyph glyph-name="yacute" unicode="&#xfd;" horiz-adv-x="410" 
d="M401 523l-155 -513q-26 -84 -40 -123t-33 -65t-37 -31t-53 -5q-13 0 -29 6l-6 2v80q21 -9 44 -9t33.5 13t24.5 54l18 54l-159 537h81l115 -429l116 429h80zM339 725l-107 -141h-55l73 141h89z" />
    <glyph glyph-name="thorn" unicode="&#xfe;" 
d="M424 274q0 -131 -51 -210t-136 -79q-75 0 -117 73v-265h-72v925h72v-270q26 49 54.5 69.5t71.5 20.5q80 0 129 -72.5t49 -191.5zM349 271q0 92 -29 140.5t-85 48.5q-118 0 -118 -216q0 -85 31.5 -133.5t85.5 -48.5q55 0 85 55t30 154z" />
    <glyph glyph-name="ydieresis" unicode="&#xff;" horiz-adv-x="410" 
d="M401 523l-155 -513q-26 -84 -40 -123t-33 -65t-37 -31t-53 -5q-13 0 -29 6l-6 2v80q21 -9 44 -9t33.5 13t24.5 54l18 54l-159 537h81l115 -429l116 429h80zM168 607h-88v96h88v-96zM329 607h-88v96h88v-96z" />
    <glyph glyph-name="Amacron" unicode="&#x100;" horiz-adv-x="547" 
d="M536 0h-87l-58 209h-236l-62 -209h-82l221 718h91zM362 296l-88 318l-95 -318h183zM407 812h-257v57h257v-57z" />
    <glyph glyph-name="amacron" unicode="&#x101;" 
d="M435 0q-29 -10 -42 -10q-37 0 -53.5 18.5t-20.5 61.5q-35 -45 -70.5 -65t-81.5 -20q-62 0 -99.5 42t-37.5 111q0 68 34 110t96 52l119 18q38 6 38 60q0 87 -99 87q-101 0 -101 -101h-66q0 174 172 174q77 0 120.5 -39t43.5 -107v-301q0 -31 23 -31q5 0 25 4v-64zM315 181
v86q-11 -10 -33 -16t-85 -17q-49 -8 -70.5 -28.5t-21.5 -59.5q0 -42 20 -65t57 -23q54 0 93.5 36.5t39.5 86.5zM351 627h-257v57h257v-57z" />
    <glyph glyph-name="Abreve" unicode="&#x102;" horiz-adv-x="547" 
d="M536 0h-87l-58 209h-236l-62 -209h-82l221 718h91zM362 296l-88 318l-95 -318h183zM414 898q-17 -58 -50 -87t-89 -29q-102 0 -133 116h40l2 -7q40 -52 96 -52q35 0 54 14t31 45h49z" />
    <glyph glyph-name="abreve" unicode="&#x103;" 
d="M435 0q-29 -10 -42 -10q-37 0 -53.5 18.5t-20.5 61.5q-35 -45 -70.5 -65t-81.5 -20q-62 0 -99.5 42t-37.5 111q0 68 34 110t96 52l119 18q38 6 38 60q0 87 -99 87q-101 0 -101 -101h-66q0 174 172 174q77 0 120.5 -39t43.5 -107v-301q0 -31 23 -31q5 0 25 4v-64zM315 181
v86q-11 -10 -33 -16t-85 -17q-49 -8 -70.5 -28.5t-21.5 -59.5q0 -42 20 -65t57 -23q54 0 93.5 36.5t39.5 86.5zM349 723q-9 -71 -40 -103.5t-89 -32.5q-56 0 -86 33t-37 103h40l2 -7q19 -72 86 -72q37 0 55.5 17.5t29.5 61.5h39z" />
    <glyph glyph-name="Aogonek" unicode="&#x104;" horiz-adv-x="547" 
d="M536 -230h-31q-50 0 -86.5 27t-36.5 70q0 39 16 67t54 66l-61 209h-236l-62 -209h-82l221 718h91l213 -718q-49 -10 -70 -56q-12 -28 -12 -59q0 -24 12 -33t39 -9h31v-73zM362 296l-88 318l-95 -318h183z" />
    <glyph glyph-name="aogonek" unicode="&#x105;" 
d="M435 -230h-31q-50 0 -86.5 27t-36.5 70q0 39 16 67t54 66q-27 15 -32 70q-35 -45 -70.5 -65t-81.5 -20q-62 0 -99.5 42t-37.5 111q0 68 34 110t96 52l119 18q38 6 38 60q0 87 -99 87q-101 0 -101 -101h-66q0 174 172 174q77 0 120.5 -39t43.5 -107v-301q0 -31 23 -31
q5 0 25 4v-64q-49 -10 -70 -56q-12 -28 -12 -59q0 -24 12 -33t39 -9h31v-73zM315 181v86q-11 -10 -33 -16t-85 -17q-49 -8 -70.5 -28.5t-21.5 -59.5q0 -42 20 -65t57 -23q54 0 93.5 36.5t39.5 86.5z" />
    <glyph glyph-name="Cacute" unicode="&#x106;" horiz-adv-x="592" 
d="M558 264q-15 -84 -34 -130t-53 -81q-69 -72 -170 -72q-122 0 -193.5 102t-71.5 275q0 174 74.5 276.5t200.5 102.5q98 0 162.5 -62t78.5 -173h-77q-34 148 -162 148q-91 0 -143 -78.5t-52 -216.5q0 -136 50 -211.5t140 -75.5q67 0 110 46.5t63 149.5h77zM448 900
l-107 -121h-60l73 121h94z" />
    <glyph glyph-name="cacute" unicode="&#x107;" horiz-adv-x="410" 
d="M391 185q-26 -200 -174 -200q-88 0 -140 72.5t-52 194.5q0 131 55 208.5t148 77.5q144 0 163 -191h-70q-9 59 -33 86t-67 27q-56 0 -87.5 -53t-31.5 -148t29.5 -146t84.5 -51q82 0 105 123h70zM339 725l-107 -141h-55l73 141h89z" />
    <glyph glyph-name="Ccircumflex" unicode="&#x108;" horiz-adv-x="592" 
d="M558 264q-15 -84 -34 -130t-53 -81q-69 -72 -170 -72q-122 0 -193.5 102t-71.5 275q0 174 74.5 276.5t200.5 102.5q98 0 162.5 -62t78.5 -173h-77q-34 148 -162 148q-91 0 -143 -78.5t-52 -216.5q0 -136 50 -211.5t140 -75.5q67 0 110 46.5t63 149.5h77zM445 780h-66
l-69 73l-69 -73h-65l96 121h77z" />
    <glyph glyph-name="ccircumflex" unicode="&#x109;" horiz-adv-x="410" 
d="M391 185q-26 -200 -174 -200q-88 0 -140 72.5t-52 194.5q0 131 55 208.5t148 77.5q144 0 163 -191h-70q-9 59 -33 86t-67 27q-56 0 -87.5 -53t-31.5 -148t29.5 -146t84.5 -51q82 0 105 123h70zM324 585h-66l-54 93l-54 -93h-65l81 141h77z" />
    <glyph glyph-name="Cdotaccent" unicode="&#x10a;" horiz-adv-x="592" 
d="M558 264q-15 -84 -34 -130t-53 -81q-69 -72 -170 -72q-122 0 -193.5 102t-71.5 275q0 174 74.5 276.5t200.5 102.5q98 0 162.5 -62t78.5 -173h-77q-34 148 -162 148q-91 0 -143 -78.5t-52 -216.5q0 -136 50 -211.5t140 -75.5q67 0 110 46.5t63 149.5h77zM355 792h-86v96
h86v-96z" />
    <glyph glyph-name="cdotaccent" unicode="&#x10b;" horiz-adv-x="410" 
d="M391 185q-26 -200 -174 -200q-88 0 -140 72.5t-52 194.5q0 131 55 208.5t148 77.5q144 0 163 -191h-70q-9 59 -33 86t-67 27q-56 0 -87.5 -53t-31.5 -148t29.5 -146t84.5 -51q82 0 105 123h70zM248 607h-86v96h86v-96z" />
    <glyph glyph-name="Ccaron" unicode="&#x10c;" horiz-adv-x="592" 
d="M558 264q-15 -84 -34 -130t-53 -81q-69 -72 -170 -72q-122 0 -193.5 102t-71.5 275q0 174 74.5 276.5t200.5 102.5q98 0 162.5 -62t78.5 -173h-77q-34 148 -162 148q-91 0 -143 -78.5t-52 -216.5q0 -136 50 -211.5t140 -75.5q67 0 110 46.5t63 149.5h77zM446 901
l-96 -121h-77l-96 121h66l69 -73l69 73h65z" />
    <glyph glyph-name="ccaron" unicode="&#x10d;" horiz-adv-x="410" 
d="M391 185q-26 -200 -174 -200q-88 0 -140 72.5t-52 194.5q0 131 55 208.5t148 77.5q144 0 163 -191h-70q-9 59 -33 86t-67 27q-56 0 -87.5 -53t-31.5 -148t29.5 -146t84.5 -51q82 0 105 123h70zM324 726l-81 -141h-77l-81 141h66l54 -93l54 93h65z" />
    <glyph glyph-name="Dcaron" unicode="&#x10e;" horiz-adv-x="592" 
d="M553 367q0 -160 -65.5 -263.5t-185.5 -103.5h-236v718h239q113 0 180.5 -95.5t67.5 -255.5zM471 359q0 133 -45.5 204.5t-130.5 71.5h-149v-552h154q79 0 125 74t46 202zM430 901l-96 -121h-77l-96 121h66l69 -73l69 73h65z" />
    <glyph glyph-name="dcaron" unicode="&#x10f;" 
d="M409 0h-68v75q-23 -49 -51.5 -69.5t-72.5 -20.5q-85 0 -136.5 79t-51.5 210q0 119 49 191.5t128 72.5q44 0 75 -22t56 -72v274h72v-718zM336 248q0 103 -29.5 157.5t-85.5 54.5q-117 0 -117 -191q0 -98 30 -152.5t84 -54.5q55 0 86.5 49t31.5 137zM547 625
q0 -129 -82 -129v36q45 0 45 79v10h-46v97h83v-93z" />
    <glyph glyph-name="Dcroat" unicode="&#x110;" horiz-adv-x="592" 
d="M553 372q0 -169 -67 -270.5t-184 -101.5h-236v325h-66v87h66v306h240q112 0 179.5 -95t67.5 -251zM471 359q0 133 -45.5 204.5t-130.5 71.5h-149v-223h158v-87h-158v-242h155q79 0 124.5 74t45.5 202z" />
    <glyph glyph-name="dcroat" unicode="&#x111;" horiz-adv-x="481" 
d="M481 592h-72v-592h-68v75q-23 -49 -51.5 -69.5t-72.5 -20.5q-85 0 -136.5 79t-51.5 210q0 119 49 191.5t128 72.5q44 0 75 -22t56 -72v148h-113v57h113v69h72v-69h72v-57zM336 248q0 103 -29.5 157.5t-85.5 54.5q-117 0 -117 -191q0 -98 30 -152.5t84 -54.5q55 0 86.5 49
t31.5 137z" />
    <glyph glyph-name="Emacron" unicode="&#x112;" horiz-adv-x="547" 
d="M505 0h-434v718h428v-87h-348v-219h321v-87h-321v-238h354v-87zM414 812h-257v57h257v-57z" />
    <glyph glyph-name="emacron" unicode="&#x113;" 
d="M423 233h-313q6 -171 122 -171q44 0 76 29t37 73h72q-14 -85 -63.5 -132t-123.5 -47q-91 0 -144 71.5t-53 195.5q0 131 55 208.5t148 77.5q87 0 134.5 -71.5t52.5 -233.5zM348 303q-11 157 -115 157q-52 0 -86 -43.5t-37 -113.5h238zM356 627h-257v57h257v-57z" />
    <glyph glyph-name="Ebreve" unicode="&#x114;" horiz-adv-x="547" 
d="M505 0h-434v718h428v-87h-348v-219h321v-87h-321v-238h354v-87zM421 898q-17 -58 -50 -87t-89 -29q-102 0 -133 116h40l2 -7q40 -52 96 -52q35 0 54 14t31 45h49z" />
    <glyph glyph-name="ebreve" unicode="&#x115;" 
d="M423 233h-313q6 -171 122 -171q44 0 76 29t37 73h72q-14 -85 -63.5 -132t-123.5 -47q-91 0 -144 71.5t-53 195.5q0 131 55 208.5t148 77.5q87 0 134.5 -71.5t52.5 -233.5zM348 303q-11 157 -115 157q-52 0 -86 -43.5t-37 -113.5h238zM354 723q-9 -71 -40 -103.5
t-89 -32.5q-56 0 -86 33t-37 103h40l2 -7q19 -72 86 -72q37 0 55.5 17.5t29.5 61.5h39z" />
    <glyph glyph-name="Edotaccent" unicode="&#x116;" horiz-adv-x="547" 
d="M505 0h-434v718h428v-87h-348v-219h321v-87h-321v-238h354v-87zM329 792h-86v96h86v-96z" />
    <glyph glyph-name="edotaccent" unicode="&#x117;" 
d="M423 233h-313q6 -171 122 -171q44 0 76 29t37 73h72q-14 -85 -63.5 -132t-123.5 -47q-91 0 -144 71.5t-53 195.5q0 131 55 208.5t148 77.5q87 0 134.5 -71.5t52.5 -233.5zM348 303q-11 157 -115 157q-52 0 -86 -43.5t-37 -113.5h238zM271 607h-86v96h86v-96z" />
    <glyph glyph-name="Eogonek" unicode="&#x118;" horiz-adv-x="547" 
d="M505 -230h-31q-50 0 -86.5 27t-36.5 70q0 39 16 67t54 66h-350v718h428v-87h-348v-219h321v-87h-321v-238h354v-87q-49 -10 -70 -56q-12 -28 -12 -59q0 -24 12 -33t39 -9h31v-73z" />
    <glyph glyph-name="eogonek" unicode="&#x119;" 
d="M423 233h-313q6 -171 122 -171q44 0 76 29t37 73h72q-16 -102 -84 -149q-76 -52 -76 -130q0 -24 12 -33t39 -9h31v-73h-31q-50 0 -86.5 27t-36.5 70q0 35 13 61.5t43 56.5h-11q-91 0 -144 71.5t-53 195.5q0 131 55 208.5t148 77.5q87 0 134.5 -71.5t52.5 -233.5zM348 303
q-11 157 -115 157q-52 0 -86 -43.5t-37 -113.5h238z" />
    <glyph glyph-name="Ecaron" unicode="&#x11a;" horiz-adv-x="547" 
d="M505 0h-434v718h428v-87h-348v-219h321v-87h-321v-238h354v-87zM420 901l-96 -121h-77l-96 121h66l69 -73l69 73h65z" />
    <glyph glyph-name="ecaron" unicode="&#x11b;" 
d="M423 233h-313q6 -171 122 -171q44 0 76 29t37 73h72q-14 -85 -63.5 -132t-123.5 -47q-91 0 -144 71.5t-53 195.5q0 131 55 208.5t148 77.5q87 0 134.5 -71.5t52.5 -233.5zM348 303q-11 157 -115 157q-52 0 -86 -43.5t-37 -113.5h238zM347 726l-81 -141h-77l-81 141h66
l54 -93l54 93h65z" />
    <glyph glyph-name="Gcircumflex" unicode="&#x11c;" horiz-adv-x="638" 
d="M577 0h-52l-18 93q-77 -112 -199 -112q-124 0 -196.5 107t-72.5 262q0 173 77 280t201 107q98 0 166 -63t84 -174h-77q-36 150 -172 150q-91 0 -144 -80t-53 -217q0 -141 51 -215t148 -74q81 0 131.5 59t50.5 178h-183v83h258v-384zM451 780h-66l-69 73l-69 -73h-65
l96 121h77z" />
    <glyph glyph-name="gcircumflex" unicode="&#x11d;" 
d="M409 43q0 -137 -49 -200t-149 -63q-71 0 -111 36t-54 120h72q10 -44 32.5 -63.5t63.5 -19.5q65 0 94 40.5t29 143.5v21q-40 -73 -117 -73q-85 0 -136 79t-51 210q0 119 49 191.5t128 72.5q43 0 72.5 -20.5t58.5 -71.5v77h68v-480zM340 247q0 103 -29.5 158t-85.5 55
q-117 0 -117 -191q0 -98 30 -152.5t84 -54.5q55 0 86.5 49.5t31.5 135.5zM347 585h-66l-54 93l-54 -93h-65l81 141h77z" />
    <glyph glyph-name="Gbreve" unicode="&#x11e;" horiz-adv-x="638" 
d="M577 0h-52l-18 93q-77 -112 -199 -112q-124 0 -196.5 107t-72.5 262q0 173 77 280t201 107q98 0 166 -63t84 -174h-77q-36 150 -172 150q-91 0 -144 -80t-53 -217q0 -141 51 -215t148 -74q81 0 131.5 59t50.5 178h-183v83h258v-384zM453 898q-17 -58 -50 -87t-89 -29
q-102 0 -133 116h40l2 -7q40 -52 96 -52q35 0 54 14t31 45h49z" />
    <glyph glyph-name="gbreve" unicode="&#x11f;" 
d="M409 43q0 -137 -49 -200t-149 -63q-71 0 -111 36t-54 120h72q10 -44 32.5 -63.5t63.5 -19.5q65 0 94 40.5t29 143.5v21q-40 -73 -117 -73q-85 0 -136 79t-51 210q0 119 49 191.5t128 72.5q43 0 72.5 -20.5t58.5 -71.5v77h68v-480zM340 247q0 103 -29.5 158t-85.5 55
q-117 0 -117 -191q0 -98 30 -152.5t84 -54.5q55 0 86.5 49.5t31.5 135.5zM354 723q-9 -71 -40 -103.5t-89 -32.5q-56 0 -86 33t-37 103h40l2 -7q19 -72 86 -72q37 0 55.5 17.5t29.5 61.5h39z" />
    <glyph glyph-name="Gdotaccent" unicode="&#x120;" horiz-adv-x="638" 
d="M577 0h-52l-18 93q-77 -112 -199 -112q-124 0 -196.5 107t-72.5 262q0 173 77 280t201 107q98 0 166 -63t84 -174h-77q-36 150 -172 150q-91 0 -144 -80t-53 -217q0 -141 51 -215t148 -74q81 0 131.5 59t50.5 178h-183v83h258v-384zM361 792h-86v96h86v-96z" />
    <glyph glyph-name="gdotaccent" unicode="&#x121;" 
d="M409 43q0 -137 -49 -200t-149 -63q-71 0 -111 36t-54 120h72q10 -44 32.5 -63.5t63.5 -19.5q65 0 94 40.5t29 143.5v21q-40 -73 -117 -73q-85 0 -136 79t-51 210q0 119 49 191.5t128 72.5q43 0 72.5 -20.5t58.5 -71.5v77h68v-480zM340 247q0 103 -29.5 158t-85.5 55
q-117 0 -117 -191q0 -98 30 -152.5t84 -54.5q55 0 86.5 49.5t31.5 135.5zM271 607h-86v96h86v-96z" />
    <glyph glyph-name="Gcommaaccent" unicode="&#x122;" horiz-adv-x="638" 
d="M577 0h-52l-18 93q-77 -112 -199 -112q-124 0 -196.5 107t-72.5 262q0 173 77 280t201 107q98 0 166 -63t84 -174h-77q-36 150 -172 150q-91 0 -144 -80t-53 -217q0 -141 51 -215t148 -74q81 0 131.5 59t50.5 178h-183v83h258v-384zM358 -153q0 -129 -82 -129v36
q45 0 45 79v10h-46v97h83v-93z" />
    <glyph glyph-name="gcommaaccent" unicode="&#x123;" 
d="M270 572h-83v93q0 129 82 129v-36q-45 0 -45 -79v-10h46v-97zM409 43q0 -137 -49 -200t-149 -63q-71 0 -111 36t-54 120h72q10 -44 32.5 -63.5t63.5 -19.5q65 0 94 40.5t29 143.5v21q-40 -73 -117 -73q-85 0 -136 79t-51 210q0 119 49 191.5t128 72.5q43 0 72.5 -20.5
t58.5 -71.5v77h68v-480zM340 247q0 103 -29.5 158t-85.5 55q-117 0 -117 -191q0 -98 30 -152.5t84 -54.5q55 0 86.5 49.5t31.5 135.5z" />
    <glyph glyph-name="Hcircumflex" unicode="&#x124;" horiz-adv-x="592" 
d="M530 0h-80v334h-307v-334h-80v718h80v-297h307v297h80v-718zM431 780h-66l-69 73l-69 -73h-65l96 121h77z" />
    <glyph glyph-name="hcircumflex" unicode="&#x125;" 
d="M403 0h-72v342q0 62 -20 90t-64 28q-58 0 -90 -46t-32 -129v-285h-72v718h72v-267q31 49 60.5 68t72.5 19q68 0 106.5 -48t38.5 -134v-356zM362 780h-66l-69 73l-69 -73h-65l96 121h77z" />
    <glyph glyph-name="Hbar" unicode="&#x126;" horiz-adv-x="592" 
d="M570 552h-40v-552h-80v334h-307v-334h-80v552h-40v45h40v121h80v-121h307v121h80v-121h40v-45zM450 421v131h-307v-131h307z" />
    <glyph glyph-name="hbar" unicode="&#x127;" horiz-adv-x="496" 
d="M441 0h-72v342q0 62 -20 90t-64 28q-58 0 -90 -46t-32 -129v-285h-72v515l-36 -17v50l36 17v153h72v-120l103 48v-51l-103 -47v-97q31 49 60.5 68t72.5 19q68 0 106.5 -48t38.5 -134v-356z" />
    <glyph glyph-name="Itilde" unicode="&#x128;" horiz-adv-x="228" 
d="M154 0h-79v718h79v-718zM255 898q-15 -109 -83 -109q-15 0 -47 13l-21 9q-34 15 -51 15q-26 0 -38 -44h-39q14 107 85 107q23 0 56 -15l18 -9q26 -13 41 -13q30 0 38 46h41z" />
    <glyph glyph-name="itilde" unicode="&#x129;" horiz-adv-x="228" 
d="M150 0h-72v523h72v-523zM253 713q-15 -109 -83 -109q-15 0 -47 13l-21 9q-34 15 -51 15q-26 0 -38 -44h-39q14 107 85 107q23 0 56 -15l18 -9q26 -13 41 -13q30 0 38 46h41z" />
    <glyph glyph-name="Imacron" unicode="&#x12a;" horiz-adv-x="228" 
d="M154 0h-79v718h79v-718zM244 812h-257v57h257v-57z" />
    <glyph glyph-name="imacron" unicode="&#x12b;" horiz-adv-x="228" 
d="M150 0h-72v523h72v-523zM242 627h-257v57h257v-57z" />
    <glyph glyph-name="Ibreve" unicode="&#x12c;" horiz-adv-x="228" 
d="M154 0h-79v718h79v-718zM251 898q-17 -58 -50 -87t-89 -29q-102 0 -133 116h40l2 -7q40 -52 96 -52q35 0 54 14t31 45h49z" />
    <glyph glyph-name="ibreve" unicode="&#x12d;" horiz-adv-x="228" 
d="M150 0h-72v523h72v-523zM240 723q-9 -71 -40 -103.5t-89 -32.5q-56 0 -86 33t-37 103h40l2 -7q19 -72 86 -72q37 0 55.5 17.5t29.5 61.5h39z" />
    <glyph glyph-name="Iogonek" unicode="&#x12e;" horiz-adv-x="228" 
d="M174 -230h-31q-50 0 -86.5 27t-36.5 70q0 39 16 67t54 66h-15v718h79v-718q-32 -19 -50 -56q-12 -29 -12 -59q0 -24 12 -33t39 -9h31v-73z" />
    <glyph glyph-name="iogonek" unicode="&#x12f;" horiz-adv-x="228" 
d="M180 -230h-31q-50 0 -86.5 27t-36.5 70q0 39 16 67t54 66h-18v523h72v-523q-24 -23 -40 -56q-12 -28 -12 -59q0 -24 12 -33t39 -9h31v-73zM157 607h-86v96h86v-96z" />
    <glyph glyph-name="Idotaccent" unicode="&#x130;" horiz-adv-x="228" 
d="M154 0h-79v718h79v-718zM159 792h-86v96h86v-96z" />
    <glyph glyph-name="dotlessi" unicode="&#x131;" horiz-adv-x="182" 
d="M127 0h-72v523h72v-523z" />
    <glyph glyph-name="Jcircumflex" unicode="&#x134;" horiz-adv-x="410" 
d="M351 194q0 -102 -44.5 -157.5t-126.5 -55.5q-76 0 -121 48.5t-45 130.5v71h75v-50q0 -60 22 -88.5t68 -28.5q92 0 92 124v530h80v-524zM445 780h-66l-69 73l-69 -73h-65l96 121h77z" />
    <glyph glyph-name="jcircumflex" unicode="&#x135;" horiz-adv-x="182" 
d="M127 -77q0 -68 -26 -100.5t-81 -32.5q-15 0 -33 3v76h15q34 0 43.5 11.5t9.5 52.5v590h72v-600zM210 585h-66l-54 93l-54 -93h-65l81 141h77z" />
    <glyph glyph-name="Kcommaaccent" unicode="&#x136;" horiz-adv-x="547" 
d="M544 0h-103l-206 360l-93 -108v-252h-80v718h80v-348l286 348h110l-246 -290zM305 -153q0 -129 -82 -129v36q45 0 45 79v10h-46v97h83v-93z" />
    <glyph glyph-name="kcommaaccent" unicode="&#x137;" horiz-adv-x="410" 
d="M411 0h-93l-133 264l-60 -66v-198h-72v718h72v-416l185 221h91l-164 -195zM246 -153q0 -129 -82 -129v36q45 0 45 79v10h-46v97h83v-93z" />
    <glyph glyph-name="Lacute" unicode="&#x139;" 
d="M440 0h-378v718h80v-631h298v-87zM230 900l-107 -121h-60l73 121h94z" />
    <glyph glyph-name="lacute" unicode="&#x13a;" horiz-adv-x="182" 
d="M127 0h-72v718h72v-718zM223 900l-107 -121h-60l73 121h94z" />
    <glyph glyph-name="Lcommaaccent" unicode="&#x13b;" 
d="M440 0h-378v718h80v-631h298v-87zM292 -153q0 -129 -82 -129v36q45 0 45 79v10h-46v97h83v-93z" />
    <glyph glyph-name="lcommaaccent" unicode="&#x13c;" horiz-adv-x="182" 
d="M127 0h-72v718h72v-718zM132 -153q0 -129 -82 -129v36q45 0 45 79v10h-46v97h83v-93z" />
    <glyph glyph-name="Lcaron" unicode="&#x13d;" 
d="M440 0h-378v718h80v-631h298v-87zM280 625q0 -129 -82 -129v36q45 0 45 79v10h-46v97h83v-93z" />
    <glyph glyph-name="lcaron" unicode="&#x13e;" horiz-adv-x="182" 
d="M127 0h-72v718h72v-718zM265 625q0 -129 -82 -129v36q45 0 45 79v10h-46v97h83v-93z" />
    <glyph glyph-name="Ldot" unicode="&#x13f;" 
d="M440 0h-378v718h80v-631h298v-87zM373 330h-86v96h86v-96z" />
    <glyph glyph-name="ldot" unicode="&#x140;" horiz-adv-x="268" 
d="M127 0h-72v718h72v-718zM268 330h-86v96h86v-96z" />
    <glyph glyph-name="Lslash" unicode="&#x141;" horiz-adv-x="552" 
d="M506 0h-378v248l-57 -65v89l57 65v381h80v-300l150 172v-88l-150 -172v-243h298v-87z" />
    <glyph glyph-name="lslash" unicode="&#x142;" horiz-adv-x="314" 
d="M261 507l-68 -63v-444h-72v387l-68 -64v79l68 64v252h72v-195l68 64v-80z" />
    <glyph glyph-name="Nacute" unicode="&#x143;" horiz-adv-x="592" 
d="M530 0h-89l-302 583v-583h-77v718h94l297 -583v583h77v-718zM433 900l-107 -121h-60l73 121h94z" />
    <glyph glyph-name="nacute" unicode="&#x144;" 
d="M403 0h-72v322q0 72 -21 105t-67 33q-55 0 -86.5 -46.5t-31.5 -128.5v-285h-72v523h68v-77q52 92 137 92q68 0 106.5 -48t38.5 -134v-356zM362 725l-107 -141h-55l73 141h89z" />
    <glyph glyph-name="Ncommaaccent" unicode="&#x145;" horiz-adv-x="592" 
d="M530 0h-89l-302 583v-583h-77v718h94l297 -583v583h77v-718zM337 -153q0 -129 -82 -129v36q45 0 45 79v10h-46v97h83v-93z" />
    <glyph glyph-name="ncommaaccent" unicode="&#x146;" 
d="M403 0h-72v322q0 72 -21 105t-67 33q-55 0 -86.5 -46.5t-31.5 -128.5v-285h-72v523h68v-77q52 92 137 92q68 0 106.5 -48t38.5 -134v-356zM269 -153q0 -129 -82 -129v36q45 0 45 79v10h-46v97h83v-93z" />
    <glyph glyph-name="Ncaron" unicode="&#x147;" horiz-adv-x="592" 
d="M530 0h-89l-302 583v-583h-77v718h94l297 -583v583h77v-718zM431 901l-96 -121h-77l-96 121h66l69 -73l69 73h65z" />
    <glyph glyph-name="ncaron" unicode="&#x148;" 
d="M403 0h-72v322q0 72 -21 105t-67 33q-55 0 -86.5 -46.5t-31.5 -128.5v-285h-72v523h68v-77q52 92 137 92q68 0 106.5 -48t38.5 -134v-356zM347 726l-81 -141h-77l-81 141h66l54 -93l54 93h65z" />
    <glyph glyph-name="Eng" unicode="&#x14a;" horiz-adv-x="592" 
d="M530 -37q0 -102 -44.5 -157.5t-126.5 -55.5q-76 0 -121 48.5t-45 130.5l75 21q0 -60 22 -88.5t68 -28.5q45 0 70 42.5t25 101.5l-314 606v-583h-77v718h94l297 -583v583h77v-755z" />
    <glyph glyph-name="eng" unicode="&#x14b;" 
d="M403 -77q0 -68 -26 -100.5t-81 -32.5q-15 0 -33 3v76h15q34 0 43.5 11.5t9.5 52.5v389q0 72 -21 105t-67 33q-55 0 -86.5 -46.5t-31.5 -128.5v-285h-72v523h68v-77q52 92 137 92q68 0 106.5 -48t38.5 -134v-433z" />
    <glyph glyph-name="Omacron" unicode="&#x14c;" horiz-adv-x="638" 
d="M606 358q0 -104 -32 -188t-98.5 -136.5t-156.5 -52.5t-156.5 52.5t-98.5 136.5t-32 188q0 165 77 272t214 107q124 0 203.5 -105.5t79.5 -273.5zM524 359q0 130 -56 210.5t-146 80.5q-95 0 -151.5 -79t-56.5 -213q0 -130 56.5 -210t148.5 -80t148.5 80t56.5 211zM452 812
h-257v57h257v-57z" />
    <glyph glyph-name="omacron" unicode="&#x14d;" 
d="M427 262q0 -122 -55.5 -199t-143.5 -77t-143.5 77t-55.5 199q0 124 55.5 200t146.5 76q86 0 141 -77.5t55 -198.5zM352 262q0 90 -33.5 144.5t-88.5 54.5q-58 0 -92 -53.5t-34 -145.5q0 -91 34 -145t90 -54t90 54t34 145zM356 627h-257v57h257v-57z" />
    <glyph glyph-name="Obreve" unicode="&#x14e;" horiz-adv-x="638" 
d="M606 358q0 -104 -32 -188t-98.5 -136.5t-156.5 -52.5t-156.5 52.5t-98.5 136.5t-32 188q0 165 77 272t214 107q124 0 203.5 -105.5t79.5 -273.5zM524 359q0 130 -56 210.5t-146 80.5q-95 0 -151.5 -79t-56.5 -213q0 -130 56.5 -210t148.5 -80t148.5 80t56.5 211zM459 898
q-17 -58 -50 -87t-89 -29q-102 0 -133 116h40l2 -7q40 -52 96 -52q35 0 54 14t31 45h49z" />
    <glyph glyph-name="obreve" unicode="&#x14f;" 
d="M427 262q0 -122 -55.5 -199t-143.5 -77t-143.5 77t-55.5 199q0 124 55.5 200t146.5 76q86 0 141 -77.5t55 -198.5zM352 262q0 90 -33.5 144.5t-88.5 54.5q-58 0 -92 -53.5t-34 -145.5q0 -91 34 -145t90 -54t90 54t34 145zM354 723q-9 -71 -40 -103.5t-89 -32.5
q-56 0 -86 33t-37 103h40l2 -7q19 -72 86 -72q37 0 55.5 17.5t29.5 61.5h39z" />
    <glyph glyph-name="Ohungarumlaut" unicode="&#x150;" horiz-adv-x="638" 
d="M606 358q0 -104 -32 -188t-98.5 -136.5t-156.5 -52.5t-156.5 52.5t-98.5 136.5t-32 188q0 165 77 272t214 107q124 0 203.5 -105.5t79.5 -273.5zM524 359q0 130 -56 210.5t-146 80.5q-95 0 -151.5 -79t-56.5 -213q0 -130 56.5 -210t148.5 -80t148.5 80t56.5 211zM383 921
l-107 -141h-55l73 141h89zM531 921l-107 -141h-55l73 141h89z" />
    <glyph glyph-name="ohungarumlaut" unicode="&#x151;" 
d="M427 262q0 -122 -55.5 -199t-143.5 -77t-143.5 77t-55.5 199q0 124 55.5 200t146.5 76q86 0 141 -77.5t55 -198.5zM352 262q0 90 -33.5 144.5t-88.5 54.5q-58 0 -92 -53.5t-34 -145.5q0 -91 34 -145t90 -54t90 54t34 145zM288 726l-107 -141h-55l73 141h89zM436 726
l-107 -141h-55l73 141h89z" />
    <glyph glyph-name="OE" unicode="&#x152;" horiz-adv-x="820" 
d="M791 0h-362v78q-37 -56 -70 -76.5t-86 -20.5q-111 0 -177 100.5t-66 269.5q0 173 68 279.5t181 106.5q54 0 87.5 -21.5t63.5 -74.5v77h359v-87h-285v-219h272v-87h-272v-238h287v-87zM424 230v262q0 73 -39 117.5t-103 44.5q-82 0 -126 -80t-44 -231q0 -136 44 -207.5
t127 -71.5q64 0 102.5 45.5t38.5 120.5z" />
    <glyph glyph-name="oe" unicode="&#x153;" horiz-adv-x="774" 
d="M740 233h-314q6 -171 123 -171q43 0 75 29t38 73h72q-14 -85 -63.5 -132t-124.5 -47q-55 0 -92 23t-72 78q-46 -100 -151 -100q-91 0 -146.5 76t-55.5 200q0 122 55.5 199t143.5 77q103 0 161 -106q34 58 71 82t92 24q88 0 135.5 -71t52.5 -234zM665 303
q-11 157 -115 157q-53 0 -87 -43.5t-37 -113.5h239zM353 262q0 90 -33.5 144.5t-89.5 54.5q-58 0 -92 -54t-34 -145t34 -145t90 -54q57 0 91 54t34 145z" />
    <glyph glyph-name="Racute" unicode="&#x154;" horiz-adv-x="592" 
d="M561 0h-98q-13 54 -13 180q0 68 -25 98t-80 30h-193v-308h-80v718h273q94 0 143.5 -50t49.5 -144q0 -61 -18 -99t-64 -72q38 -18 52.5 -45.5t18.5 -89.5l4 -130q1 -33 6.5 -46t23.5 -26v-16zM456 516q0 119 -106 119h-198v-244h184q61 0 90.5 30.5t29.5 94.5zM419 900
l-107 -121h-60l73 121h94z" />
    <glyph glyph-name="racute" unicode="&#x155;" horiz-adv-x="273" 
d="M272 445h-27q-48 0 -79 -39.5t-31 -100.5v-305h-72v523h68v-89q29 56 57 80t65 24q9 0 19 -3v-90zM269 725l-107 -141h-55l73 141h89z" />
    <glyph glyph-name="Rcommaaccent" unicode="&#x156;" horiz-adv-x="592" 
d="M561 0h-98q-13 54 -13 180q0 68 -25 98t-80 30h-193v-308h-80v718h273q94 0 143.5 -50t49.5 -144q0 -61 -18 -99t-64 -72q38 -18 52.5 -45.5t18.5 -89.5l4 -130q1 -33 6.5 -46t23.5 -26v-16zM456 516q0 119 -106 119h-198v-244h184q61 0 90.5 30.5t29.5 94.5zM323 -153
q0 -129 -82 -129v36q45 0 45 79v10h-46v97h83v-93z" />
    <glyph glyph-name="rcommaaccent" unicode="&#x157;" horiz-adv-x="273" 
d="M272 445h-27q-48 0 -79 -39.5t-31 -100.5v-305h-72v523h68v-89q29 56 57 80t65 24q9 0 19 -3v-90zM140 -153q0 -129 -82 -129v36q45 0 45 79v10h-46v97h83v-93z" />
    <glyph glyph-name="Rcaron" unicode="&#x158;" horiz-adv-x="592" 
d="M561 0h-98q-13 54 -13 180q0 68 -25 98t-80 30h-193v-308h-80v718h273q94 0 143.5 -50t49.5 -144q0 -61 -18 -99t-64 -72q38 -18 52.5 -45.5t18.5 -89.5l4 -130q1 -33 6.5 -46t23.5 -26v-16zM456 516q0 119 -106 119h-198v-244h184q61 0 90.5 30.5t29.5 94.5zM417 901
l-96 -121h-77l-96 121h66l69 -73l69 73h65z" />
    <glyph glyph-name="rcaron" unicode="&#x159;" horiz-adv-x="273" 
d="M272 445h-27q-48 0 -79 -39.5t-31 -100.5v-305h-72v523h68v-89q29 56 57 80t65 24q9 0 19 -3v-90zM254 726l-81 -141h-77l-81 141h66l54 -93l54 93h65z" />
    <glyph glyph-name="Sacute" unicode="&#x15a;" horiz-adv-x="547" 
d="M508 197q0 -101 -62 -158.5t-170 -57.5t-172 62t-64 189h75q0 -83 43 -125.5t122 -42.5q71 0 111 32.5t40 91.5q0 51 -26.5 77.5t-98.5 46.5l-121 34q-125 35 -125 172q0 97 55.5 158t154.5 61q106 0 164 -56.5t58 -172.5h-75q0 71 -40 108.5t-107 37.5q-63 0 -98 -32.5
t-35 -91.5q0 -74 69 -93l168 -47q134 -38 134 -193zM410 900l-107 -121h-60l73 121h94z" />
    <glyph glyph-name="sacute" unicode="&#x15b;" horiz-adv-x="410" 
d="M380 157q0 -79 -48 -125.5t-130 -46.5q-84 0 -127.5 44t-48.5 139h70q4 -56 30 -81t81 -25q47 0 74 22t27 60q0 29 -17.5 44.5t-67.5 30.5l-84 25q-99 30 -99 129q0 75 45 120t119 45q73 0 115 -42.5t47 -121.5h-70q-4 87 -97 87q-41 0 -65 -20t-24 -54q0 -28 15 -41.5
t62 -27.5l73 -22q65 -19 92.5 -51.5t27.5 -87.5zM337 725l-107 -141h-55l73 141h89z" />
    <glyph glyph-name="Scircumflex" unicode="&#x15c;" horiz-adv-x="547" 
d="M508 197q0 -101 -62 -158.5t-170 -57.5t-172 62t-64 189h75q0 -83 43 -125.5t122 -42.5q71 0 111 32.5t40 91.5q0 51 -26.5 77.5t-98.5 46.5l-121 34q-125 35 -125 172q0 97 55.5 158t154.5 61q106 0 164 -56.5t58 -172.5h-75q0 71 -40 108.5t-107 37.5q-63 0 -98 -32.5
t-35 -91.5q0 -74 69 -93l168 -47q134 -38 134 -193zM407 780h-66l-69 73l-69 -73h-65l96 121h77z" />
    <glyph glyph-name="scircumflex" unicode="&#x15d;" horiz-adv-x="410" 
d="M380 157q0 -79 -48 -125.5t-130 -46.5q-84 0 -127.5 44t-48.5 139h70q4 -56 30 -81t81 -25q47 0 74 22t27 60q0 29 -17.5 44.5t-67.5 30.5l-84 25q-99 30 -99 129q0 75 45 120t119 45q73 0 115 -42.5t47 -121.5h-70q-4 87 -97 87q-41 0 -65 -20t-24 -54q0 -28 15 -41.5
t62 -27.5l73 -22q65 -19 92.5 -51.5t27.5 -87.5zM322 585h-66l-54 93l-54 -93h-65l81 141h77z" />
    <glyph glyph-name="Scedilla" unicode="&#x15e;" horiz-adv-x="547" 
d="M508 197q0 -94 -54.5 -150.5t-150.5 -64.5l-21 -40h12q30 0 49 -23t19 -57q0 -41 -26.5 -66.5t-69.5 -25.5q-35 0 -79 22l14 40q29 -15 52 -15q47 0 47 42q0 18 -11.5 31.5t-28.5 13.5q-10 0 -31 -9l-14 19l40 68q-99 6 -157 67.5t-58 182.5h75q0 -83 43 -125.5
t122 -42.5q71 0 111 32.5t40 91.5q0 51 -26.5 77.5t-98.5 46.5l-121 34q-125 35 -125 172q0 97 55.5 158t154.5 61q106 0 164 -56.5t58 -172.5h-75q0 71 -40 108.5t-107 37.5q-63 0 -98 -32.5t-35 -91.5q0 -74 69 -93l168 -47q134 -38 134 -193z" />
    <glyph glyph-name="scedilla" unicode="&#x15f;" horiz-adv-x="410" 
d="M380 157q0 -70 -38.5 -115t-105.5 -55l-24 -45h12q30 0 49 -23t19 -57q0 -41 -26.5 -66.5t-69.5 -25.5q-35 0 -79 22l14 40q29 -15 52 -15q47 0 47 42q0 18 -11.5 31.5t-28.5 13.5q-10 0 -31 -9l-14 19l42 71q-76 4 -116 48t-45 135h70q4 -56 30 -81t81 -25q47 0 74 22
t27 60q0 29 -17.5 44.5t-67.5 30.5l-84 25q-99 30 -99 129q0 75 45 120t119 45q73 0 115 -42.5t47 -121.5h-70q-4 87 -97 87q-41 0 -65 -20t-24 -54q0 -28 15 -41.5t62 -27.5l73 -22q65 -19 92.5 -51.5t27.5 -87.5z" />
    <glyph glyph-name="Scaron" unicode="&#x160;" horiz-adv-x="547" 
d="M508 197q0 -101 -62 -158.5t-170 -57.5t-172 62t-64 189h75q0 -83 43 -125.5t122 -42.5q71 0 111 32.5t40 91.5q0 51 -26.5 77.5t-98.5 46.5l-121 34q-125 35 -125 172q0 97 55.5 158t154.5 61q106 0 164 -56.5t58 -172.5h-75q0 71 -40 108.5t-107 37.5q-63 0 -98 -32.5
t-35 -91.5q0 -74 69 -93l168 -47q134 -38 134 -193zM408 901l-96 -121h-77l-96 121h66l69 -73l69 73h65z" />
    <glyph glyph-name="scaron" unicode="&#x161;" horiz-adv-x="410" 
d="M380 157q0 -79 -48 -125.5t-130 -46.5q-84 0 -127.5 44t-48.5 139h70q4 -56 30 -81t81 -25q47 0 74 22t27 60q0 29 -17.5 44.5t-67.5 30.5l-84 25q-99 30 -99 129q0 75 45 120t119 45q73 0 115 -42.5t47 -121.5h-70q-4 87 -97 87q-41 0 -65 -20t-24 -54q0 -28 15 -41.5
t62 -27.5l73 -22q65 -19 92.5 -51.5t27.5 -87.5zM322 726l-81 -141h-77l-81 141h66l54 -93l54 93h65z" />
    <glyph glyph-name="Tcedilla" unicode="&#x162;" horiz-adv-x="501" 
d="M490 631h-199v-631h-18l-31 -58h12q30 0 49 -23t19 -57q0 -41 -26.5 -66.5t-69.5 -25.5q-35 0 -79 22l14 40q29 -15 52 -15q47 0 47 42q0 18 -11.5 31.5t-28.5 13.5q-10 0 -31 -9l-14 19l51 86h-15v631h-200v87h479v-87z" />
    <glyph glyph-name="tcedilla" unicode="&#x163;" horiz-adv-x="228" 
d="M212 -138q0 -41 -26.5 -66.5t-69.5 -25.5q-35 0 -79 22l14 40q29 -15 52 -15q47 0 47 42q0 18 -11.5 31.5t-28.5 13.5q-10 0 -31 -9l-14 19l51 86q-47 21 -47 105v345h-58v73h58v146h72v-146h70v-73h-70v-340q0 -22 10 -31.5t34 -9.5h25v-69q-27 -3 -51 -7l-27 -51h12
q30 0 49 -23t19 -57z" />
    <glyph glyph-name="Tcaron" unicode="&#x164;" horiz-adv-x="501" 
d="M490 631h-199v-631h-80v631h-200v87h479v-87zM386 901l-96 -121h-77l-96 121h66l69 -73l69 73h65z" />
    <glyph glyph-name="tcaron" unicode="&#x165;" horiz-adv-x="228" 
d="M211 450h-70v-340q0 -22 10 -31.5t34 -9.5h25v-69l-28 -3.5l-16 -2t-7 -1t-6 -0.5q-84 0 -84 112v345h-58v73h58v146h72v-146h70v-73zM252 680q0 -129 -82 -129v36q45 0 45 79v10h-46v97h83v-93z" />
    <glyph glyph-name="Utilde" unicode="&#x168;" horiz-adv-x="592" 
d="M528 252q0 -124 -64 -197.5t-172 -73.5q-104 0 -165.5 70t-61.5 188v479h80v-452q0 -95 39 -146.5t111 -51.5q73 0 113 51t40 145v454h80v-466zM437 898q-15 -109 -83 -109q-15 0 -47 13l-21 9q-34 15 -51 15q-26 0 -38 -44h-39q14 107 85 107q23 0 56 -15l18 -9
q26 -13 41 -13q30 0 38 46h41z" />
    <glyph glyph-name="utilde" unicode="&#x169;" 
d="M401 0h-68v81q-29 -54 -58.5 -75t-77.5 -21q-66 0 -103.5 43t-37.5 119v376h72v-347q0 -114 83 -114q54 0 86 47t32 126v288h72v-523zM367 713q-15 -109 -83 -109q-15 0 -47 13l-21 9q-34 15 -51 15q-26 0 -38 -44h-39q14 107 85 107q23 0 56 -15l18 -9q26 -13 41 -13
q30 0 38 46h41z" />
    <glyph glyph-name="Umacron" unicode="&#x16a;" horiz-adv-x="592" 
d="M528 252q0 -124 -64 -197.5t-172 -73.5q-104 0 -165.5 70t-61.5 188v479h80v-452q0 -95 39 -146.5t111 -51.5q73 0 113 51t40 145v454h80v-466zM426 812h-257v57h257v-57z" />
    <glyph glyph-name="umacron" unicode="&#x16b;" 
d="M401 0h-68v81q-29 -54 -58.5 -75t-77.5 -21q-66 0 -103.5 43t-37.5 119v376h72v-347q0 -114 83 -114q54 0 86 47t32 126v288h72v-523zM356 627h-257v57h257v-57z" />
    <glyph glyph-name="Ubreve" unicode="&#x16c;" horiz-adv-x="592" 
d="M528 252q0 -124 -64 -197.5t-172 -73.5q-104 0 -165.5 70t-61.5 188v479h80v-452q0 -95 39 -146.5t111 -51.5q73 0 113 51t40 145v454h80v-466zM433 898q-17 -58 -50 -87t-89 -29q-102 0 -133 116h40l2 -7q40 -52 96 -52q35 0 54 14t31 45h49z" />
    <glyph glyph-name="ubreve" unicode="&#x16d;" 
d="M401 0h-68v81q-29 -54 -58.5 -75t-77.5 -21q-66 0 -103.5 43t-37.5 119v376h72v-347q0 -114 83 -114q54 0 86 47t32 126v288h72v-523zM354 723q-9 -71 -40 -103.5t-89 -32.5q-56 0 -86 33t-37 103h40l2 -7q19 -72 86 -72q37 0 55.5 17.5t29.5 61.5h39z" />
    <glyph glyph-name="Uring" unicode="&#x16e;" horiz-adv-x="592" 
d="M528 252q0 -124 -64 -197.5t-172 -73.5q-104 0 -165.5 70t-61.5 188v479h80v-452q0 -95 39 -146.5t111 -51.5q73 0 113 51t40 145v454h80v-466zM399 858q0 -35 -29 -58.5t-72 -23.5q-44 0 -73 23.5t-29 60.5q0 35 29 58.5t73 23.5t72.5 -23.5t28.5 -60.5zM355 858
q0 20 -17 34t-40 14t-40.5 -13.5t-17.5 -32.5q0 -20 17 -34t41 -14q23 0 40 13.5t17 32.5z" />
    <glyph glyph-name="uring" unicode="&#x16f;" 
d="M401 0h-68v81q-29 -54 -58.5 -75t-77.5 -21q-66 0 -103.5 43t-37.5 119v376h72v-347q0 -114 83 -114q54 0 86 47t32 126v288h72v-523zM329 654q0 -35 -29 -58.5t-72 -23.5q-44 0 -73 23.5t-29 60.5q0 35 29 58.5t73 23.5t72.5 -23.5t28.5 -60.5zM285 654q0 20 -17 34
t-40 14t-40.5 -13.5t-17.5 -32.5q0 -20 17 -34t41 -14q23 0 40 13.5t17 32.5z" />
    <glyph glyph-name="Uhungarumlaut" unicode="&#x170;" horiz-adv-x="592" 
d="M528 252q0 -124 -64 -197.5t-172 -73.5q-104 0 -165.5 70t-61.5 188v479h80v-452q0 -95 39 -146.5t111 -51.5q73 0 113 51t40 145v454h80v-466zM357 921l-107 -141h-55l73 141h89zM505 921l-107 -141h-55l73 141h89z" />
    <glyph glyph-name="uhungarumlaut" unicode="&#x171;" 
d="M401 0h-68v81q-29 -54 -58.5 -75t-77.5 -21q-66 0 -103.5 43t-37.5 119v376h72v-347q0 -114 83 -114q54 0 86 47t32 126v288h72v-523zM288 726l-107 -141h-55l73 141h89zM436 726l-107 -141h-55l73 141h89z" />
    <glyph glyph-name="Uogonek" unicode="&#x172;" horiz-adv-x="592" 
d="M528 252q0 -96 -39.5 -163t-109.5 -93q-33 -12 -51.5 -43t-18.5 -68q0 -24 12 -33t39 -9h31v-73h-31q-50 0 -86.5 27t-36.5 70q0 33 12.5 58.5t39.5 55.5q-103 2 -163.5 71t-60.5 187v479h80v-452q0 -95 39 -146.5t111 -51.5q73 0 113 51t40 145v454h80v-466z" />
    <glyph glyph-name="uogonek" unicode="&#x173;" 
d="M411 -230h-31q-50 0 -86.5 27t-36.5 70q0 41 20.5 76.5t55.5 56.5v81q-29 -54 -58.5 -75t-77.5 -21q-66 0 -103.5 43t-37.5 119v376h72v-347q0 -114 83 -114q54 0 86 47t32 126v288h72v-523q-41 -15 -60 -56q-12 -28 -12 -59q0 -24 12 -33t39 -9h31v-73z" />
    <glyph glyph-name="Wcircumflex" unicode="&#x174;" horiz-adv-x="774" 
d="M761 718l-155 -718h-84l-135 599l-137 -599h-84l-153 718h86l111 -588l133 588h87l133 -588l110 588h88zM521 780h-66l-69 73l-69 -73h-65l96 121h77z" />
    <glyph glyph-name="wcircumflex" unicode="&#x175;" horiz-adv-x="592" 
d="M581 523l-125 -523h-74l-88 409l-85 -409h-74l-124 523h79l83 -415l83 415h81l84 -415l88 415h72zM415 585h-66l-54 93l-54 -93h-65l81 141h77z" />
    <glyph glyph-name="Ycircumflex" unicode="&#x176;" horiz-adv-x="547" 
d="M535 718l-222 -429v-289h-80v289l-222 429h93l169 -345l169 345h93zM407 780h-66l-69 73l-69 -73h-65l96 121h77z" />
    <glyph glyph-name="ycircumflex" unicode="&#x177;" horiz-adv-x="410" 
d="M401 523l-155 -513q-26 -84 -40 -123t-33 -65t-37 -31t-53 -5q-13 0 -29 6l-6 2v80q21 -9 44 -9t33.5 13t24.5 54l18 54l-159 537h81l115 -429l116 429h80zM324 585h-66l-54 93l-54 -93h-65l81 141h77z" />
    <glyph glyph-name="Ydieresis" unicode="&#x178;" horiz-adv-x="547" 
d="M535 718l-222 -429v-289h-80v289l-222 429h93l169 -345l169 345h93zM237 792h-88v96h88v-96zM398 792h-88v96h88v-96z" />
    <glyph glyph-name="Zacute" unicode="&#x179;" horiz-adv-x="501" 
d="M482 0h-463v82l361 549h-334v87h436v-85l-362 -546h362v-87zM401 900l-107 -121h-60l73 121h94z" />
    <glyph glyph-name="zacute" unicode="&#x17a;" horiz-adv-x="410" 
d="M385 0h-360v69l259 381h-239v73h333v-72l-257 -378h264v-73zM339 725l-107 -141h-55l73 141h89z" />
    <glyph glyph-name="Zdotaccent" unicode="&#x17b;" horiz-adv-x="501" 
d="M482 0h-463v82l361 549h-334v87h436v-85l-362 -546h362v-87zM308 792h-86v96h86v-96z" />
    <glyph glyph-name="zdotaccent" unicode="&#x17c;" horiz-adv-x="410" 
d="M385 0h-360v69l259 381h-239v73h333v-72l-257 -378h264v-73zM248 607h-86v96h86v-96z" />
    <glyph glyph-name="Zcaron" unicode="&#x17d;" horiz-adv-x="501" 
d="M482 0h-463v82l361 549h-334v87h436v-85l-362 -546h362v-87zM399 901l-96 -121h-77l-96 121h66l69 -73l69 73h65z" />
    <glyph glyph-name="zcaron" unicode="&#x17e;" horiz-adv-x="410" 
d="M385 0h-360v69l259 381h-239v73h333v-72l-257 -378h264v-73zM324 726l-81 -141h-77l-81 141h66l54 -93l54 93h65z" />
    <glyph glyph-name="longs" unicode="&#x17f;" horiz-adv-x="228" 
d="M215 647q-24 2 -30 2q-42 0 -42 -61v-588h-72v613q0 115 109 115q13 0 35 -2v-79z" />
    <glyph glyph-name="Ereversed" unicode="&#x18e;" horiz-adv-x="547" 
d="M505 0h-434v87h354v238h-321v87h321v219h-348v87h428v-718z" />
    <glyph glyph-name="florin" unicode="&#x192;" 
d="M411 722l-12 -78l-7 3q-25 13 -40 13q-50 0 -66 -96l-17 -103h94v-70h-104l-49 -327q-21 -140 -62 -205.5t-108 -65.5q-28 0 -49 12l13 81q22 -15 42 -15q33 0 51.5 37.5t33.5 137.5l52 345h-89v70h101l23 124q13 68 49 110t83 42q28 0 61 -15z" />
    <glyph glyph-name="Ohorn" unicode="&#x1a0;" horiz-adv-x="638" 
d="M607 719q0 -38 -16 -69.5t-44 -47.5q59 -102 59 -244q0 -104 -32 -188t-98.5 -136.5t-156.5 -52.5t-156.5 52.5t-98.5 136.5t-32 188q0 165 77 272t214 107q121 0 199 -100q42 19 42 82h-43v96h86v-96zM524 359q0 130 -56 210.5t-146 80.5q-95 0 -151.5 -79t-56.5 -213
q0 -130 56.5 -210t148.5 -80t148.5 80t56.5 211z" />
    <glyph glyph-name="ohorn" unicode="&#x1a1;" horiz-adv-x="465" 
d="M446 524q0 -72 -48 -109q29 -66 29 -153q0 -122 -55.5 -199t-143.5 -77t-143.5 77t-55.5 199q0 124 55.5 200t146.5 76q90 0 146 -85q26 24 26 71h-43v96h86v-96zM352 262q0 90 -33.5 144.5t-88.5 54.5q-58 0 -92 -53.5t-34 -145.5q0 -91 34 -145t90 -54t90 54t34 145z
" />
    <glyph glyph-name="Uhorn" unicode="&#x1af;" horiz-adv-x="652" 
d="M633 719q0 -52 -29.5 -90.5t-75.5 -38.5v-338q0 -124 -64 -197.5t-172 -73.5q-104 0 -165.5 70t-61.5 188v479h80v-452q0 -95 39 -146.5t111 -51.5q73 0 113 51t40 145v454h80v-85q28 0 45 25.5t17 60.5h-43v96h86v-96z" />
    <glyph glyph-name="uhorn" unicode="&#x1b0;" horiz-adv-x="525" 
d="M506 524q0 -52 -29.5 -90.5t-75.5 -38.5v-395h-68v81q-29 -54 -58.5 -75t-77.5 -21q-66 0 -103.5 43t-37.5 119v376h72v-347q0 -114 83 -114q54 0 86 47t32 126v288h72v-85q28 0 45 25.5t17 60.5h-43v96h86v-96z" />
    <glyph glyph-name="eturned" unicode="&#x1dd;" 
d="M423 271q0 -131 -55 -208.5t-148 -77.5q-87 0 -134.5 71.5t-52.5 233.5h313q-6 171 -122 171q-44 0 -76 -29t-37 -73h-72q14 85 63.5 132t123.5 47q91 0 144 -71.5t53 -195.5zM346 220h-238q11 -157 115 -157q52 0 86 43.5t37 113.5z" />
    <glyph glyph-name="Gcaron" unicode="&#x1e6;" horiz-adv-x="638" 
d="M577 0h-52l-18 93q-77 -112 -199 -112q-124 0 -196.5 107t-72.5 262q0 173 77 280t201 107q98 0 166 -63t84 -174h-77q-36 150 -172 150q-91 0 -144 -80t-53 -217q0 -141 51 -215t148 -74q81 0 131.5 59t50.5 178h-183v83h258v-384zM452 901l-96 -121h-77l-96 121h66
l69 -73l69 73h65z" />
    <glyph glyph-name="gcaron" unicode="&#x1e7;" 
d="M409 43q0 -137 -49 -200t-149 -63q-71 0 -111 36t-54 120h72q10 -44 32.5 -63.5t63.5 -19.5q65 0 94 40.5t29 143.5v21q-40 -73 -117 -73q-85 0 -136 79t-51 210q0 119 49 191.5t128 72.5q43 0 72.5 -20.5t58.5 -71.5v77h68v-480zM340 247q0 103 -29.5 158t-85.5 55
q-117 0 -117 -191q0 -98 30 -152.5t84 -54.5q55 0 86.5 49.5t31.5 135.5zM347 726l-81 -141h-77l-81 141h66l54 -93l54 93h65z" />
    <glyph glyph-name="Oogonek" unicode="&#x1ea;" horiz-adv-x="638" 
d="M606 358q0 -125 -48.5 -222.5t-136.5 -134.5q-37 -15 -60 -46.5t-23 -69.5q0 -24 12 -33t39 -9h31v-73h-31q-50 0 -86.5 27t-36.5 70q0 33 12.5 58.5t39.5 55.5q-134 1 -210 109t-76 268q0 165 77 272t214 107q124 0 203.5 -105.5t79.5 -273.5zM524 359q0 130 -56 210.5
t-146 80.5q-95 0 -151.5 -79t-56.5 -213q0 -130 56.5 -210t148.5 -80t148.5 80t56.5 211z" />
    <glyph glyph-name="oogonek" unicode="&#x1eb;" 
d="M427 262q0 -90 -31.5 -158t-86.5 -98q-33 -18 -51.5 -50.5t-18.5 -70.5q0 -24 12 -33t39 -9h31v-73h-31q-50 0 -86.5 27t-36.5 70q0 35 13 61.5t43 57.5q-86 2 -140 79t-54 197q0 124 55.5 200t146.5 76q86 0 141 -77.5t55 -198.5zM352 262q0 90 -33.5 144.5t-88.5 54.5
q-58 0 -92 -53.5t-34 -145.5q0 -91 34 -145t90 -54t90 54t34 145z" />
    <glyph glyph-name="Gacute" unicode="&#x1f4;" horiz-adv-x="638" 
d="M577 0h-52l-18 93q-77 -112 -199 -112q-124 0 -196.5 107t-72.5 262q0 173 77 280t201 107q98 0 166 -63t84 -174h-77q-36 150 -172 150q-91 0 -144 -80t-53 -217q0 -141 51 -215t148 -74q81 0 131.5 59t50.5 178h-183v83h258v-384zM454 900l-107 -121h-60l73 121h94z
" />
    <glyph glyph-name="gacute" unicode="&#x1f5;" 
d="M409 43q0 -137 -49 -200t-149 -63q-71 0 -111 36t-54 120h72q10 -44 32.5 -63.5t63.5 -19.5q65 0 94 40.5t29 143.5v21q-40 -73 -117 -73q-85 0 -136 79t-51 210q0 119 49 191.5t128 72.5q43 0 72.5 -20.5t58.5 -71.5v77h68v-480zM340 247q0 103 -29.5 158t-85.5 55
q-117 0 -117 -191q0 -98 30 -152.5t84 -54.5q55 0 86.5 49.5t31.5 135.5zM362 725l-107 -141h-55l73 141h89z" />
    <glyph glyph-name="Aringacute" unicode="&#x1fa;" horiz-adv-x="547" 
d="M536 0h-87l-58 209h-236l-62 -209h-82l221 718h91zM362 296l-88 318l-95 -318h183zM415 1083l-107 -121h-60l73 121h94zM380 858q0 -35 -29 -58.5t-72 -23.5q-44 0 -73 23.5t-29 60.5q0 35 29 58.5t73 23.5t72.5 -23.5t28.5 -60.5zM336 858q0 20 -17 34t-40 14
t-40.5 -13.5t-17.5 -32.5q0 -20 17 -34t41 -14q23 0 40 13.5t17 32.5z" />
    <glyph glyph-name="aringacute" unicode="&#x1fb;" 
d="M435 0q-29 -10 -42 -10q-37 0 -53.5 18.5t-20.5 61.5q-35 -45 -70.5 -65t-81.5 -20q-62 0 -99.5 42t-37.5 111q0 68 34 110t96 52l119 18q38 6 38 60q0 87 -99 87q-101 0 -101 -101h-66q0 174 172 174q77 0 120.5 -39t43.5 -107v-301q0 -31 23 -31q5 0 25 4v-64zM315 181
v86q-11 -10 -33 -16t-85 -17q-49 -8 -70.5 -28.5t-21.5 -59.5q0 -42 20 -65t57 -23q54 0 93.5 36.5t39.5 86.5zM360 888l-107 -121h-60l73 121h94zM325 663q0 -35 -29 -58.5t-72 -23.5q-44 0 -73 23.5t-29 60.5q0 35 29 58.5t73 23.5t72.5 -23.5t28.5 -60.5zM281 663
q0 20 -17 34t-40 14t-40.5 -13.5t-17.5 -32.5q0 -20 17 -34t41 -14q23 0 40 13.5t17 32.5z" />
    <glyph glyph-name="AEacute" unicode="&#x1fc;" horiz-adv-x="820" 
d="M780 0h-405v209h-217l-65 -209h-86l239 718h528v-87h-319v-219h291v-87h-291v-238h325v-87zM375 296v335h-80l-109 -335h189zM552 900l-107 -121h-60l73 121h94z" />
    <glyph glyph-name="aeacute" unicode="&#x1fd;" horiz-adv-x="729" 
d="M695 233h-314q6 -171 122 -171q43 0 75.5 29t38.5 73h72q-13 -82 -62 -130.5t-127 -48.5q-58 0 -95.5 25.5t-65.5 83.5q-34 -58 -74 -83.5t-94 -25.5q-65 0 -103 41.5t-38 111.5q0 68 34 110t96 52l119 18q38 6 38 60q0 87 -99 87q-47 0 -70 -22.5t-31 -78.5h-66
q5 92 48 133t129 41q48 0 77 -15.5t62 -58.5q35 42 65.5 58t75.5 16q87 0 133.5 -70.5t53.5 -234.5zM620 303q-12 157 -116 157q-52 0 -85.5 -43t-37.5 -114h239zM315 181v86q-10 -10 -32 -16t-86 -17q-49 -8 -70.5 -29t-21.5 -59q0 -42 20 -65t57 -23q54 0 93.5 36.5
t39.5 86.5zM499 725l-107 -141h-55l73 141h89z" />
    <glyph glyph-name="Oslashacute" unicode="&#x1fe;" horiz-adv-x="638" 
d="M607 707l-68 -91q67 -118 67 -258q0 -160 -76.5 -268.5t-211.5 -108.5q-59 0 -104 20.5t-88 66.5l-66 -87l-26 28l68 90q-70 120 -70 261q0 104 32 188t98.5 136.5t157.5 52.5q61 0 106.5 -21t88.5 -68l67 89zM524 359q0 104 -40 184l-306 -405q60 -70 140 -70
q93 0 149.5 80t56.5 211zM463 578q-61 72 -143 72q-93 0 -149.5 -80t-56.5 -211q0 -103 42 -188zM456 900l-107 -121h-60l73 121h94z" />
    <glyph glyph-name="oslashacute" unicode="&#x1ff;" 
d="M440 519l-57 -78q44 -82 44 -180q0 -122 -55.5 -198.5t-144.5 -76.5q-73 0 -129 60l-50 -68l-25 26l52 72q-46 85 -46 186q0 123 55.5 199.5t144.5 76.5q76 0 133 -65l53 72zM317 410q-35 51 -89 51q-56 0 -90 -54t-34 -145q0 -62 20 -119zM352 262q0 58 -18 111
l-191 -265q33 -45 84 -45q57 0 91 54t34 145zM385 725l-107 -141h-55l73 141h89z" />
    <glyph glyph-name="Adblgrave" unicode="&#x200;" horiz-adv-x="547" 
d="M536 0h-87l-58 209h-236l-62 -209h-82l221 718h91zM362 296l-88 318l-95 -318h183zM380 780h-55l-107 141h89zM232 780h-55l-107 141h89z" />
    <glyph glyph-name="adblgrave" unicode="&#x201;" 
d="M435 0q-29 -10 -42 -10q-37 0 -53.5 18.5t-20.5 61.5q-35 -45 -70.5 -65t-81.5 -20q-62 0 -99.5 42t-37.5 111q0 68 34 110t96 52l119 18q38 6 38 60q0 87 -99 87q-101 0 -101 -101h-66q0 174 172 174q77 0 120.5 -39t43.5 -107v-301q0 -31 23 -31q5 0 25 4v-64zM315 181
v86q-11 -10 -33 -16t-85 -17q-49 -8 -70.5 -28.5t-21.5 -59.5q0 -42 20 -65t57 -23q54 0 93.5 36.5t39.5 86.5zM325 585h-55l-107 141h89zM177 585h-55l-107 141h89z" />
    <glyph glyph-name="Edblgrave" unicode="&#x204;" horiz-adv-x="547" 
d="M505 0h-434v718h428v-87h-348v-219h321v-87h-321v-238h354v-87zM387 780h-55l-107 141h89zM239 780h-55l-107 141h89z" />
    <glyph glyph-name="edblgrave" unicode="&#x205;" 
d="M423 233h-313q6 -171 122 -171q44 0 76 29t37 73h72q-14 -85 -63.5 -132t-123.5 -47q-91 0 -144 71.5t-53 195.5q0 131 55 208.5t148 77.5q87 0 134.5 -71.5t52.5 -233.5zM348 303q-11 157 -115 157q-52 0 -86 -43.5t-37 -113.5h238zM330 585h-55l-107 141h89zM182 585
h-55l-107 141h89z" />
    <glyph glyph-name="Idblgrave" unicode="&#x208;" horiz-adv-x="228" 
d="M154 0h-79v718h79v-718zM217 780h-55l-107 141h89zM69 780h-55l-107 141h89z" />
    <glyph glyph-name="idblgrave" unicode="&#x209;" horiz-adv-x="228" 
d="M150 0h-72v523h72v-523zM216 585h-55l-107 141h89zM68 585h-55l-107 141h89z" />
    <glyph glyph-name="Odblgrave" unicode="&#x20c;" horiz-adv-x="638" 
d="M606 358q0 -104 -32 -188t-98.5 -136.5t-156.5 -52.5t-156.5 52.5t-98.5 136.5t-32 188q0 165 77 272t214 107q124 0 203.5 -105.5t79.5 -273.5zM524 359q0 130 -56 210.5t-146 80.5q-95 0 -151.5 -79t-56.5 -213q0 -130 56.5 -210t148.5 -80t148.5 80t56.5 211zM425 780
h-55l-107 141h89zM277 780h-55l-107 141h89z" />
    <glyph glyph-name="odblgrave" unicode="&#x20d;" 
d="M427 262q0 -122 -55.5 -199t-143.5 -77t-143.5 77t-55.5 199q0 124 55.5 200t146.5 76q86 0 141 -77.5t55 -198.5zM352 262q0 90 -33.5 144.5t-88.5 54.5q-58 0 -92 -53.5t-34 -145.5q0 -91 34 -145t90 -54t90 54t34 145zM330 585h-55l-107 141h89zM182 585h-55l-107 141
h89z" />
    <glyph glyph-name="Rdblgrave" unicode="&#x210;" horiz-adv-x="592" 
d="M561 0h-98q-13 54 -13 180q0 68 -25 98t-80 30h-193v-308h-80v718h273q94 0 143.5 -50t49.5 -144q0 -61 -18 -99t-64 -72q38 -18 52.5 -45.5t18.5 -89.5l4 -130q1 -33 6.5 -46t23.5 -26v-16zM456 516q0 119 -106 119h-198v-244h184q61 0 90.5 30.5t29.5 94.5zM384 780
h-55l-107 141h89zM236 780h-55l-107 141h89z" />
    <glyph glyph-name="rdblgrave" unicode="&#x211;" horiz-adv-x="273" 
d="M272 445h-27q-48 0 -79 -39.5t-31 -100.5v-305h-72v523h68v-89q29 56 57 80t65 24q9 0 19 -3v-90zM237 585h-55l-107 141h89zM89 585h-55l-107 141h89z" />
    <glyph glyph-name="Udblgrave" unicode="&#x214;" horiz-adv-x="592" 
d="M528 252q0 -124 -64 -197.5t-172 -73.5q-104 0 -165.5 70t-61.5 188v479h80v-452q0 -95 39 -146.5t111 -51.5q73 0 113 51t40 145v454h80v-466zM399 780h-55l-107 141h89zM251 780h-55l-107 141h89z" />
    <glyph glyph-name="udblgrave" unicode="&#x215;" 
d="M401 0h-68v81q-29 -54 -58.5 -75t-77.5 -21q-66 0 -103.5 43t-37.5 119v376h72v-347q0 -114 83 -114q54 0 86 47t32 126v288h72v-523zM330 585h-55l-107 141h89zM182 585h-55l-107 141h89z" />
    <glyph glyph-name="uni0218" unicode="&#x218;" horiz-adv-x="547" 
d="M508 197q0 -101 -62 -158.5t-170 -57.5t-172 62t-64 189h75q0 -83 43 -125.5t122 -42.5q71 0 111 32.5t40 91.5q0 51 -26.5 77.5t-98.5 46.5l-121 34q-125 35 -125 172q0 97 55.5 158t154.5 61q106 0 164 -56.5t58 -172.5h-75q0 71 -40 108.5t-107 37.5q-63 0 -98 -32.5
t-35 -91.5q0 -74 69 -93l168 -47q134 -38 134 -193zM314 -153q0 -129 -82 -129v36q45 0 45 79v10h-46v97h83v-93z" />
    <glyph glyph-name="uni0219" unicode="&#x219;" horiz-adv-x="410" 
d="M380 157q0 -79 -48 -125.5t-130 -46.5q-84 0 -127.5 44t-48.5 139h70q4 -56 30 -81t81 -25q47 0 74 22t27 60q0 29 -17.5 44.5t-67.5 30.5l-84 25q-99 30 -99 129q0 75 45 120t119 45q73 0 115 -42.5t47 -121.5h-70q-4 87 -97 87q-41 0 -65 -20t-24 -54q0 -28 15 -41.5
t62 -27.5l73 -22q65 -19 92.5 -51.5t27.5 -87.5zM244 -153q0 -129 -82 -129v36q45 0 45 79v10h-46v97h83v-93z" />
    <glyph glyph-name="uni021A" unicode="&#x21a;" horiz-adv-x="501" 
d="M490 631h-199v-631h-80v631h-200v87h479v-87zM292 -153q0 -129 -82 -129v36q45 0 45 79v10h-46v97h83v-93z" />
    <glyph glyph-name="uni021B" unicode="&#x21b;" horiz-adv-x="228" 
d="M211 450h-70v-340q0 -22 10 -31.5t34 -9.5h25v-69l-28 -3.5l-16 -2t-7 -1t-6 -0.5q-84 0 -84 112v345h-58v73h58v146h72v-146h70v-73zM182 -153q0 -129 -82 -129v36q45 0 45 79v10h-46v97h83v-93z" />
    <glyph glyph-name="ereversed" unicode="&#x258;" 
d="M423 252q0 -124 -53 -195.5t-144 -71.5q-74 0 -123.5 47t-63.5 132h72q5 -44 37 -73t76 -29q116 0 122 171h-313q5 162 52.5 233.5t134.5 71.5q93 0 148 -77.5t55 -208.5zM346 303q-3 70 -37 113.5t-86 43.5q-104 0 -115 -157h238z" />
    <glyph glyph-name="schwa" unicode="&#x259;" 
d="M423 271q0 -131 -55 -208.5t-148 -77.5q-87 0 -134.5 71.5t-52.5 233.5h313q-6 171 -122 171q-44 0 -76 -29t-37 -73h-72q14 85 63.5 132t123.5 47q91 0 144 -71.5t53 -195.5zM346 220h-238q11 -157 115 -157q52 0 86 43.5t37 113.5z" />
    <glyph glyph-name="ringhalfright" unicode="&#x2be;" horiz-adv-x="370" 
d="M315 513q0 -91 -39 -145t-104 -54q-104 0 -117 135q0 9 8 9h47q6 0 8 -7q10 -68 58 -68q35 0 53.5 33t18.5 93q0 123 -68 123q-48 0 -62 -76q-2 -6 -8 -6h-47q-10 0 -8 9q18 140 124 140q62 0 99 -50.5t37 -135.5z" />
    <glyph glyph-name="ringhalfleft" unicode="&#x2bf;" horiz-adv-x="370" 
d="M315 454q-18 -140 -124 -140q-62 0 -99 50.5t-37 135.5q0 91 39 145t104 54q104 0 117 -135q0 -9 -8 -9h-47q-6 0 -8 7q-10 68 -58 68q-35 0 -53.5 -33t-18.5 -93q0 -123 68 -123q48 0 62 76q2 6 8 6h47q10 0 8 -9z" />
    <glyph glyph-name="circumflex" unicode="&#x2c6;" horiz-adv-x="273" 
d="M256 585h-66l-54 93l-54 -93h-65l81 141h77z" />
    <glyph glyph-name="caron" unicode="&#x2c7;" horiz-adv-x="273" 
d="M256 726l-81 -141h-77l-81 141h66l54 -93l54 93h65z" />
    <glyph glyph-name="breve" unicode="&#x2d8;" horiz-adv-x="273" 
d="M263 723q-9 -71 -40 -103.5t-89 -32.5q-56 0 -86 33t-37 103h40l2 -7q19 -72 86 -72q37 0 55.5 17.5t29.5 61.5h39z" />
    <glyph glyph-name="dotaccent" unicode="&#x2d9;" horiz-adv-x="273" 
d="M180 607h-86v96h86v-96z" />
    <glyph glyph-name="ring" unicode="&#x2da;" horiz-adv-x="273" 
d="M238 654q0 -35 -29 -58.5t-72 -23.5q-44 0 -73 23.5t-29 60.5q0 35 29 58.5t73 23.5t72.5 -23.5t28.5 -60.5zM194 654q0 20 -17 34t-40 14t-40.5 -13.5t-17.5 -32.5q0 -20 17 -34t41 -14q23 0 40 13.5t17 32.5z" />
    <glyph glyph-name="ogonek" unicode="&#x2db;" horiz-adv-x="273" 
d="M204 -230h-31q-50 0 -86.5 27t-36.5 70q0 39 16 67t54 66h58q-56 -47 -56 -115q0 -24 12 -33t39 -9h31v-73z" />
    <glyph glyph-name="tilde" unicode="&#x2dc;" horiz-adv-x="273" 
d="M276 713q-15 -109 -83 -109q-15 0 -47 13l-21 9q-34 15 -51 15q-26 0 -38 -44h-39q14 107 85 107q23 0 56 -15l18 -9q26 -13 41 -13q30 0 38 46h41z" />
    <glyph glyph-name="hungarumlaut" unicode="&#x2dd;" horiz-adv-x="273" 
d="M197 726l-107 -141h-55l73 141h89zM345 726l-107 -141h-55l73 141h89z" />
    <glyph glyph-name="uni0300" unicode="&#x300;" horiz-adv-x="0" 
d="M-200 584h-55l-107 141h89z" />
    <glyph glyph-name="uni0301" unicode="&#x301;" horiz-adv-x="0" 
d="M-93 725l-107 -141h-55l73 141h89z" />
    <glyph glyph-name="uni0302" unicode="&#x302;" horiz-adv-x="0" 
d="M-108 585h-66l-54 93l-54 -93h-65l81 141h77z" />
    <glyph glyph-name="uni0303" unicode="&#x303;" horiz-adv-x="0" 
d="M-88 713q-15 -109 -83 -109q-15 0 -47 13l-21 9q-34 15 -51 15q-26 0 -38 -44h-39q14 107 85 107q23 0 56 -15l18 -9q26 -13 41 -13q30 0 38 46h41z" />
    <glyph glyph-name="uni0304" unicode="&#x304;" horiz-adv-x="0" 
d="M-99 627h-257v57h257v-57z" />
    <glyph glyph-name="uni0306" unicode="&#x306;" horiz-adv-x="0" 
d="M-101 723q-9 -71 -40 -103.5t-89 -32.5q-56 0 -86 33t-37 103h40l2 -7q19 -72 86 -72q37 0 55.5 17.5t29.5 61.5h39z" />
    <glyph glyph-name="uni0307" unicode="&#x307;" horiz-adv-x="0" 
d="M-184 607h-86v96h86v-96z" />
    <glyph glyph-name="uni0308" unicode="&#x308;" horiz-adv-x="0" 
d="M-264 607h-88v96h88v-96zM-103 607h-88v96h88v-96z" />
    <glyph glyph-name="uni0309" unicode="&#x309;" horiz-adv-x="0" 
d="M-124 676q0 -20 -9.5 -33t-35.5 -29q-20 -14 -25.5 -19.5t-5.5 -12.5v-24h-56v27q0 18 10 29.5t38 28.5q29 19 29 33q0 11 -12.5 18t-33.5 7q-30 0 -41 -14q-6 -7 -6 -34h-55q0 92 104 92q46 0 72.5 -18.5t26.5 -50.5z" />
    <glyph glyph-name="uni030A" unicode="&#x30a;" horiz-adv-x="0" 
d="M-126 654q0 -35 -29 -58.5t-72 -23.5q-44 0 -73 23.5t-29 60.5q0 35 29 58.5t73 23.5t72.5 -23.5t28.5 -60.5zM-170 654q0 20 -17 34t-40 14t-40.5 -13.5t-17.5 -32.5q0 -20 17 -34t41 -14q23 0 40 13.5t17 32.5z" />
    <glyph glyph-name="uni030B" unicode="&#x30b;" horiz-adv-x="0" 
d="M-167 726l-107 -141h-55l73 141h89zM-19 726l-107 -141h-55l73 141h89z" />
    <glyph glyph-name="uni030C" unicode="&#x30c;" horiz-adv-x="0" 
d="M-108 726l-81 -141h-77l-81 141h66l54 -93l54 93h65z" />
    <glyph glyph-name="uni030F" unicode="&#x30f;" horiz-adv-x="0" 
d="M-126 585h-55l-107 141h89zM-274 585h-55l-107 141h89z" />
    <glyph glyph-name="uni0311" unicode="&#x311;" horiz-adv-x="0" 
d="M-101 587h-40l-2 7q-19 72 -86 72q-37 0 -55.5 -17.5t-29.5 -61.5h-39q9 71 40 103.5t89 32.5q56 0 86 -33t37 -103z" />
    <glyph glyph-name="uni0323" unicode="&#x323;" horiz-adv-x="0" 
d="M-184 -180h-86v96h86v-96z" />
    <glyph glyph-name="uni0326" unicode="&#x326;" horiz-adv-x="0" 
d="M-186 -153q0 -129 -82 -129v36q45 0 45 79v10h-46v97h83v-93z" />
    <glyph glyph-name="uni032E" unicode="&#x32e;" horiz-adv-x="0" 
d="M-91 -74q-17 -58 -50 -87t-89 -29q-102 0 -133 116h40l2 -7q40 -52 96 -52q35 0 54 14t31 45h49z" />
    <glyph glyph-name="uni032F" unicode="&#x32f;" horiz-adv-x="0" 
d="M-91 -190h-40l-2 7q-40 52 -96 52q-35 0 -54 -14t-31 -45h-49q17 58 50 87t89 29q102 0 133 -116z" />
    <glyph glyph-name="uni0330" unicode="&#x330;" horiz-adv-x="0" 
d="M-88 -74q-15 -109 -83 -109q-15 0 -47 13l-21 9q-34 15 -51 15q-26 0 -38 -44h-39q14 107 85 107q23 0 56 -15l18 -9q26 -13 41 -13q30 0 38 46h41z" />
    <glyph glyph-name="uni0331" unicode="&#x331;" horiz-adv-x="0" 
d="M-99 -160h-257v57h257v-57z" />
    <glyph glyph-name="uni0332" unicode="&#x332;" horiz-adv-x="0" 
d="M-99 -160h-257v57h257v-57z" />
    <glyph glyph-name="Alpha" unicode="&#x391;" horiz-adv-x="547" 
d="M536 0h-87l-58 209h-236l-62 -209h-82l221 718h91zM362 296l-88 318l-95 -318h183z" />
    <glyph glyph-name="Beta" unicode="&#x392;" horiz-adv-x="547" 
d="M514 214q0 -97 -54.5 -155.5t-144.5 -58.5h-254v718h259q75 0 120.5 -49.5t45.5 -131.5q0 -99 -78 -150q58 -29 82 -68t24 -105zM406 528q0 55 -29.5 81t-91.5 26h-144v-221h143q62 0 92 28t30 86zM434 214q0 122 -137 122h-156v-253h170q58 0 90.5 34.5t32.5 96.5z" />
    <glyph glyph-name="Gamma" unicode="&#x393;" horiz-adv-x="501" 
d="M478 631h-327v-631h-80v718h407v-87z" />
    <glyph glyph-name="Delta" unicode="&#x394;" horiz-adv-x="502" 
d="M497 0h-492l212 702h68zM400 72l-149 495l-149 -495h298z" />
    <glyph glyph-name="Epsilon" unicode="&#x395;" horiz-adv-x="547" 
d="M505 0h-434v718h428v-87h-348v-219h321v-87h-321v-238h354v-87z" />
    <glyph glyph-name="Zeta" unicode="&#x396;" horiz-adv-x="501" 
d="M482 0h-463v82l361 549h-334v87h436v-85l-362 -546h362v-87z" />
    <glyph glyph-name="Eta" unicode="&#x397;" horiz-adv-x="592" 
d="M530 0h-80v334h-307v-334h-80v718h80v-297h307v297h80v-718z" />
    <glyph glyph-name="Theta" unicode="&#x398;" horiz-adv-x="638" 
d="M606 358q0 -104 -32 -188t-98.5 -136.5t-156.5 -52.5t-156.5 52.5t-98.5 136.5t-32 188q0 165 77 272t214 107q124 0 203.5 -105.5t79.5 -273.5zM524 359q0 130 -56 210.5t-146 80.5q-95 0 -151.5 -79t-56.5 -213q0 -130 56.5 -210t148.5 -80t148.5 80t56.5 211zM425 323
h-212v72h212v-72z" />
    <glyph glyph-name="Iota" unicode="&#x399;" horiz-adv-x="228" 
d="M154 0h-79v718h79v-718z" />
    <glyph glyph-name="Kappa" unicode="&#x39a;" horiz-adv-x="547" 
d="M544 0h-103l-206 360l-93 -108v-252h-80v718h80v-348l286 348h110l-246 -290z" />
    <glyph glyph-name="Lambda" unicode="&#x39b;" horiz-adv-x="547" 
d="M536 0h-87l-175 614l-181 -614h-82l221 718h91z" />
    <glyph glyph-name="Mu" unicode="&#x39c;" horiz-adv-x="683" 
d="M624 0h-75v424v185l-168 -609h-78l-166 608v-138v-470h-77v718h114l169 -610l168 610h113v-718z" />
    <glyph glyph-name="Nu" unicode="&#x39d;" horiz-adv-x="592" 
d="M530 0h-89l-302 583v-583h-77v718h94l297 -583v583h77v-718z" />
    <glyph glyph-name="Xi" unicode="&#x39e;" horiz-adv-x="592" 
d="M552 638h-512v80h512v-80zM472 323h-352v72h352v-72zM552 0h-512v80h512v-80z" />
    <glyph glyph-name="Omicron" unicode="&#x39f;" horiz-adv-x="638" 
d="M606 358q0 -104 -32 -188t-98.5 -136.5t-156.5 -52.5t-156.5 52.5t-98.5 136.5t-32 188q0 165 77 272t214 107q124 0 203.5 -105.5t79.5 -273.5zM524 359q0 130 -56 210.5t-146 80.5q-95 0 -151.5 -79t-56.5 -213q0 -130 56.5 -210t148.5 -80t148.5 80t56.5 211z" />
    <glyph glyph-name="Pi" unicode="&#x3a0;" horiz-adv-x="592" 
d="M530 0h-80v631h-307v-631h-80v718h467v-718z" />
    <glyph glyph-name="Rho" unicode="&#x3a1;" horiz-adv-x="547" 
d="M510 515q0 -96 -48 -154t-127 -58h-184v-303h-80v718h264q79 0 127 -56t48 -147zM428 512q0 123 -117 123h-160v-249h157q120 0 120 126z" />
    <glyph glyph-name="Sigma" unicode="&#x3a3;" horiz-adv-x="504" 
d="M474 0h-444v82l222 277l-222 277v82h444v-87h-329l218 -272l-218 -272h329v-87z" />
    <glyph glyph-name="Tau" unicode="&#x3a4;" horiz-adv-x="501" 
d="M490 631h-199v-631h-80v631h-200v87h479v-87z" />
    <glyph glyph-name="Upsilon" unicode="&#x3a5;" horiz-adv-x="547" 
d="M535 718l-222 -429v-289h-80v289l-222 429h93l169 -345l169 345h93z" />
    <glyph glyph-name="Phi" unicode="&#x3a6;" horiz-adv-x="624" 
d="M568 359q0 -84 -62.5 -143.5t-154.5 -71.5v-144h-79v144q-92 12 -154.5 71.5t-62.5 143.5t62.5 143.5t154.5 71.5v144h79v-144q92 -12 154.5 -71.5t62.5 -143.5zM272 497q-61 -10 -102 -47t-41 -91t41 -91t102 -47v276zM494 359q0 54 -41 91t-102 47v-276q61 10 102 47
t41 91z" />
    <glyph glyph-name="Chi" unicode="&#x3a7;" horiz-adv-x="547" 
d="M531 0h-98l-158 295l-163 -295h-96l210 368l-197 350h100l149 -275l149 275h95l-197 -350z" />
    <glyph glyph-name="Psi" unicode="&#x3a8;" horiz-adv-x="610" 
d="M554 523q0 -109 -58.5 -194t-151.5 -102v-227h-79v227q-93 17 -151.5 102t-58.5 194v195h74v-195q0 -78 37 -139.5t99 -78.5v413h79v-413q62 17 99 78.5t37 139.5v195h74v-195z" />
    <glyph glyph-name="Omega" unicode="&#x3a9;" horiz-adv-x="634" 
d="M604 0h-239v200q59 19 95 80t36 135q0 90 -50.5 157t-128.5 67t-128 -66.5t-50 -157.5q0 -74 35.5 -135t94.5 -80v-200h-239v87h159v57q-61 41 -95.5 114t-34.5 157q0 126 73 218.5t185 92.5t185.5 -92.5t73.5 -218.5q0 -84 -35 -157t-96 -114v-57h159v-87z" />
    <glyph glyph-name="alpha" unicode="&#x3b1;" horiz-adv-x="635" 
d="M580 17l-65 -34q-32 61 -54 144q-65 -148 -182 -148q-98 0 -161 81.5t-63 192.5q0 118 62 204.5t162 86.5q120 0 184 -159q25 104 52 155l65 -34q-45 -85 -80 -253q30 -143 80 -236zM434 253q-10 45 -20.5 78.5t-28.5 67t-44.5 51.5t-61.5 18q-70 0 -111 -64t-41 -151
q0 -80 42 -139t110 -59q110 0 155 198z" />
    <glyph glyph-name="beta" unicode="&#x3b2;" horiz-adv-x="491" 
d="M462 223q0 -102 -54 -170t-152 -68q-72 0 -135 30v-245h-72v762q0 92 51 144t141 52q88 0 140.5 -49.5t52.5 -132.5q0 -93 -67 -146q95 -40 95 -177zM387 214q0 140 -140 140q-18 0 -31 -4v79q10 -2 23 -2q58 0 90.5 29t32.5 82t-33 83t-91 30q-62 0 -89.5 -33.5
t-27.5 -107.5v-423q60 -24 126 -24q140 0 140 151z" />
    <glyph glyph-name="gamma" unicode="&#x3b3;" horiz-adv-x="524" 
d="M469 523l-171 -529v-224h-72v224l-171 529h76l131 -405l131 405h76z" />
    <glyph glyph-name="delta" unicode="&#x3b4;" horiz-adv-x="461" 
d="M431 215q0 -94 -57.5 -162t-142.5 -68q-86 0 -143.5 68t-57.5 162q0 77 48 136t124 82q-83 74 -83 141q0 59 38 101.5t94 42.5q75 0 136 -45l-46 -62q-41 30 -90 30q-26 0 -43 -19.5t-17 -47.5q0 -18 6.5 -33t21 -29.5t25 -22.5t33.5 -23.5t31 -20.5q57 -40 90 -101
t33 -129zM359 215q0 52 -25.5 96.5t-69.5 70.5q-67 0 -114.5 -49t-47.5 -118q0 -62 36.5 -107.5t92.5 -45.5q55 0 91.5 45.5t36.5 107.5z" />
    <glyph glyph-name="epsilon" unicode="&#x3b5;" horiz-adv-x="503" 
d="M448 29q-84 -68 -168 -68q-92 0 -158.5 61.5t-66.5 150.5q0 81 96 115q-77 42 -77 115q0 67 49.5 113t118.5 46q92 0 186 -67l-35 -49q-55 40 -151 40q-39 0 -67.5 -23.5t-28.5 -59.5q0 -90 180 -90v-61q-31 0 -47.5 -0.5t-44 -2.5t-43 -7t-32.5 -13.5t-24.5 -22.5
t-7.5 -33q0 -57 45.5 -96.5t107.5 -39.5q83 0 131 38z" />
    <glyph glyph-name="zeta" unicode="&#x3b6;" horiz-adv-x="429" 
d="M401 -79q0 -61 -37 -105t-92 -44v68q26 0 41.5 24t15.5 57q0 31 -15.5 54t-41.5 23h-30q-86 0 -136.5 78.5t-50.5 185.5q0 118 55 222t151 174h-206v61h346v-61h-38q-110 -55 -173 -162.5t-63 -233.5q0 -77 29 -132.5t86 -55.5h30q56 0 92.5 -45.5t36.5 -107.5z" />
    <glyph glyph-name="eta" unicode="&#x3b7;" 
d="M401 -230h-72v579q0 48 -24 83.5t-63 35.5q-73 0 -115 -57v-411h-72v283q-19 60 0 121v119h72v-17q51 38 115 38q69 0 114 -58t45 -137v-579z" />
    <glyph glyph-name="theta" unicode="&#x3b8;" horiz-adv-x="475" 
d="M420 351q0 -372 -183 -372q-182 0 -182 372q0 62 3.5 112t15 103.5t31 89.5t53 59.5t79.5 23.5t80 -23.5t53.5 -59.5t31 -89.5t15 -103.5t3.5 -112zM348 389q0 60 -3.5 100.5t-14 84.5t-34 66.5t-59.5 22.5t-59 -22.5t-33.5 -66.5t-14 -84.5t-3.5 -100.5h221zM348 313
h-221q0 -57 3.5 -95.5t14 -79.5t33.5 -62t59 -21t59.5 21t34 62t14 79.5t3.5 95.5z" />
    <glyph glyph-name="iota" unicode="&#x3b9;" horiz-adv-x="297" 
d="M242 -21q-60 0 -96 53t-36 125v366h72v-366q0 -42 15 -72t45 -30v-76z" />
    <glyph glyph-name="kappa" unicode="&#x3ba;" horiz-adv-x="410" 
d="M411 0h-93l-133 264l-60 -66v-198h-72v523h72v-221l185 221h91l-164 -195z" />
    <glyph glyph-name="lambda" unicode="&#x3bb;" horiz-adv-x="562" 
d="M507 0h-76l-117 372l-179 -372h-80l228 474l-12 37q-18 59 -54 98t-86 39v68q73 0 128 -51.5t80 -129.5z" />
    <glyph glyph-name="mu.greek" unicode="&#x3bc;" horiz-adv-x="566" 
d="M456 0h-72v27q-40 -48 -101 -48t-101 48v-257h-72v753h72v-350q21 -118 101 -118t101 118v350h72v-523z" />
    <glyph glyph-name="nu" unicode="&#x3bd;" horiz-adv-x="467" 
d="M440 349q0 -107 -48.5 -202t-134.5 -158l-55 18l-174 516h76l149 -444q115 110 115 270q0 86 -20 174h74q18 -79 18 -174z" />
    <glyph glyph-name="xi" unicode="&#x3be;" 
d="M401 -79q0 -61 -37 -105t-92 -44v68q26 0 41.5 24t15.5 57q0 31 -15.5 54t-41.5 23h-30q-80 0 -133.5 64t-53.5 152q0 56 27 103t73 76q-81 55 -81 147q0 69 54 118h-73v61h346v-61h-150q-46 -10 -75.5 -42t-29.5 -76q0 -48 37 -81t89 -33v-68q-60 0 -102.5 -42
t-42.5 -102q0 -57 32.5 -98.5t82.5 -41.5h30q56 0 92.5 -45.5t36.5 -107.5z" />
    <glyph glyph-name="omicron" unicode="&#x3bf;" 
d="M427 262q0 -122 -55.5 -199t-143.5 -77t-143.5 77t-55.5 199q0 124 55.5 200t146.5 76q86 0 141 -77.5t55 -198.5zM352 262q0 90 -33.5 144.5t-88.5 54.5q-58 0 -92 -53.5t-34 -145.5q0 -91 34 -145t90 -54t90 54t34 145z" />
    <glyph glyph-name="pi" unicode="&#x3c0;" horiz-adv-x="562" 
d="M532 446h-50v-446h-72v446h-128v-446h-72v446q-54 0 -78.5 -27t-24.5 -84h-77q0 100 53 144t163 44h286v-77z" />
    <glyph glyph-name="rho" unicode="&#x3c1;" horiz-adv-x="520" 
d="M465 262q0 -114 -56 -198.5t-149 -84.5q-75 0 -133 53v-262h-72v492q0 114 56 198t149 84t149 -84t56 -198zM393 262q0 84 -34.5 145t-98.5 61q-63 0 -98 -61t-35 -145v-133q18 -35 54.5 -54.5t78.5 -19.5q64 0 98.5 61t34.5 146z" />
    <glyph glyph-name="uni03C2" unicode="&#x3c2;" 
d="M401 -79q0 -61 -37 -105t-92 -44v68q26 0 41.5 24t15.5 57q0 31 -15.5 54t-41.5 23h-30q-87 0 -137 81t-50 192t50 192t137 81q66 0 111.5 -49t43.5 -116l-64 1q1 36 -26 62t-65 26q-58 0 -86.5 -58t-28.5 -139t28.5 -139t86.5 -58h30q56 0 92.5 -45.5t36.5 -107.5z" />
    <glyph glyph-name="sigma" unicode="&#x3c3;" horiz-adv-x="540" 
d="M513 506q-61 -20 -129 -28q69 -79 69 -216q0 -122 -55.5 -199t-143.5 -77t-143.5 77t-55.5 199q0 124 55.5 200t146.5 76q21 0 36 -4q80 6 196 44zM378 262q0 90 -33.5 144.5t-88.5 54.5q-58 0 -92 -53.5t-34 -145.5q0 -91 34 -145t90 -54t90 54t34 145z" />
    <glyph glyph-name="tau" unicode="&#x3c4;" horiz-adv-x="403" 
d="M348 449h-111v-292q0 -42 15 -72t45 -30v-76q-59 0 -95.5 53t-36.5 125v292h-110v76h293v-76z" />
    <glyph glyph-name="upsilon" unicode="&#x3c5;" 
d="M401 250q0 -109 -52 -190t-140 -81q-68 0 -111 58t-43 137v349h72v-349q0 -48 22 -83.5t60 -35.5q59 0 89.5 57.5t30.5 137.5q0 136 -40 273h76q36 -128 36 -273z" />
    <glyph glyph-name="phi" unicode="&#x3c6;" horiz-adv-x="702" 
d="M647 262q0 -109 -75 -188.5t-185 -92.5v-211h-72v211q-110 13 -185 92.5t-75 188.5q0 81 39 153.5t108 118.5l38 -56q-53 -36 -83 -93.5t-30 -122.5q0 -78 54 -135.5t134 -68.5v192q0 77 15 140.5t53.5 108.5t97.5 45q57 0 96 -43t54.5 -104t15.5 -135zM575 262
q0 43 -3 74.5t-12 64t-29 50t-50 17.5q-31 0 -51.5 -18.5t-29 -54t-11 -67t-2.5 -78.5v-192q80 11 134 68.5t54 135.5z" />
    <glyph glyph-name="chi" unicode="&#x3c7;" horiz-adv-x="528" 
d="M473 -230h-80l-129 288l-129 -288h-80l169 377l-169 376h80l129 -288l129 288h80l-169 -376z" />
    <glyph glyph-name="psi" unicode="&#x3c8;" horiz-adv-x="592" 
d="M537 174q0 -77 -59.5 -130t-145.5 -63v-211h-72v211q-86 10 -145.5 63t-59.5 130v349h72v-349q0 -47 38 -77.5t95 -38.5v660h72v-660q57 8 95 38.5t38 77.5v349h72v-349z" />
    <glyph glyph-name="omega" unicode="&#x3c9;" horiz-adv-x="619" 
d="M564 270q0 -291 -145 -291q-78 0 -113 78q-33 -78 -106 -78q-145 0 -145 291q0 109 57 253h54q-39 -101 -39 -253q0 -33 0.5 -50.5t2 -47.5t6.5 -47t12.5 -35t20.5 -26.5t31 -8.5q68 0 80 108q-6 58 -6 186h72v-50.5t1 -49.5t3 -50.5t5 -44.5t8.5 -41t13 -30t18.5 -21.5
t24 -6.5q18 0 31 8.5t20.5 26.5t12.5 35t6.5 47t2 47.5t0.5 50.5q0 152 -39 253h54q57 -144 57 -253z" />
    <glyph glyph-name="uni03D1" unicode="&#x3d1;" horiz-adv-x="511" 
d="M456 388l-55 1v-215q0 -79 -50 -136t-123 -57t-123 57t-50 136v175h72v-175q0 -49 28.5 -85t72.5 -36t72.5 36t28.5 85v220q-248 26 -248 174q0 73 41.5 126.5t105.5 53.5q77 0 125 -67t48 -158v-74h55v-61zM329 452v71q0 67 -25.5 116t-75.5 49q-40 0 -64.5 -36
t-24.5 -84q0 -40 27.5 -66t66.5 -36t96 -14z" />
    <glyph glyph-name="uni03D5" unicode="&#x3d5;" horiz-adv-x="669" 
d="M614 262q0 -107 -70 -186t-174 -93l1 -213h-72v213q-104 14 -174 93t-70 186q0 106 70 185t174 93v178h72v-178q103 -14 173 -93t70 -185zM542 262q0 76 -49 134t-122 71l-1 -411q74 13 123 71t49 135zM299 467q-74 -13 -123 -71t-49 -134q0 -77 49 -135t123 -71v411z
" />
    <glyph glyph-name="uni03D6" unicode="&#x3d6;" horiz-adv-x="619" 
d="M564 270q0 -291 -145 -291q-78 0 -113 78q-33 -78 -106 -78q-145 0 -145 291q0 109 57 253h54q-39 -101 -39 -253q0 -33 0.5 -50.5t2 -47.5t6.5 -47t12.5 -35t20.5 -26.5t31 -8.5q68 0 80 108q-6 58 -6 186h72v-50.5t1 -49.5t3 -50.5t5 -44.5t8.5 -41t13 -30t18.5 -21.5
t24 -6.5q18 0 31 8.5t20.5 26.5t12.5 35t6.5 47t2 47.5t0.5 50.5q0 50 -1.5 86.5t-6.5 81.5t-16 76t-27.5 59.5t-43.5 42.5t-62 14q-93 0 -186 -34l-19 49q100 38 205 38q62 0 108 -35.5t71.5 -96.5t37.5 -131t12 -150z" />
    <glyph glyph-name="epsilon.alt" unicode="&#x3f5;" horiz-adv-x="410" 
d="M384 392h-74q-23 68 -89 68q-50 0 -81 -43t-37 -121h170v-69h-170q5 -80 34 -122.5t79 -42.5q62 0 90 69h75q-38 -146 -164 -146q-88 0 -140 72.5t-52 194.5q0 131 55 208.5t148 77.5q126 0 156 -146z" />
    <glyph glyph-name="uni0400" unicode="&#x400;" horiz-adv-x="537" 
d="M356 818h-55l-107 141h89zM495 0h-434v718h428v-87h-348v-219h321v-87h-321v-238h354v-87z" />
    <glyph glyph-name="afii10023" unicode="&#x401;" horiz-adv-x="537" 
d="M495 0h-434v718h428v-87h-348v-219h321v-87h-321v-238h354v-87zM235 799h-75v102h75v-102zM367 799h-75v102h75v-102z" />
    <glyph glyph-name="afii10051" unicode="&#x402;" horiz-adv-x="631" 
d="M589 0q0 -46 -37.5 -77.5t-82.5 -42.5t-91 -11v82q48 0 89.5 14t41.5 43v316q0 29 -41.5 43t-89.5 14q-47 0 -87 -14.5t-40 -35.5v-331h-79v631h-160v87h399v-87h-159v-204q6 9 48.5 22.5t77.5 13.5q46 0 91 -11t82.5 -42.5t37.5 -77.5v-332z" />
    <glyph glyph-name="afii10052" unicode="&#x403;" horiz-adv-x="489" 
d="M246 919l-107 -141h-55l73 141h89zM468 631h-327v-631h-80v718h407v-87z" />
    <glyph glyph-name="afii10053" unicode="&#x404;" horiz-adv-x="588" 
d="M554 264q-15 -84 -34 -130t-53 -81q-67 -72 -170 -72q-122 0 -193.5 102t-71.5 275q0 174 74.5 276.5t200.5 102.5q137 0 203 -114q29 -49 38 -121h-77q-17 76 -55 110q-44 38 -107 38q-82 0 -132 -62.5t-60 -175.5h277v-87h-279q5 -122 54.5 -189.5t134.5 -67.5
q81 0 130 73q27 41 43 123h77z" />
    <glyph glyph-name="afii10054" unicode="&#x405;" horiz-adv-x="547" 
d="M508 197q0 -101 -62 -158.5t-170 -57.5q-129 0 -193 90q-42 58 -43 161h75q1 -61 23 -98q42 -70 142 -70q71 0 111 32.5t40 91.5q0 52 -26 77.5t-99 46.5l-121 34q-125 35 -125 172q0 89 49 152q54 67 161 67q137 0 192 -100q23 -46 30 -129h-75q-4 52 -23 85
q-39 61 -124 61q-63 0 -98 -32.5t-35 -91.5q0 -74 69 -93l168 -47q134 -37 134 -193z" />
    <glyph glyph-name="afii10055" unicode="&#x406;" horiz-adv-x="213" 
d="M146 0h-79v718h79v-718z" />
    <glyph glyph-name="afii10056" unicode="&#x407;" horiz-adv-x="341" 
d="M211 0h-80v718h80v-718zM142 799h-75v102h75v-102zM274 799h-75v102h75v-102z" />
    <glyph glyph-name="afii10057" unicode="&#x408;" horiz-adv-x="410" 
d="M351 194q0 -102 -44.5 -157.5t-126.5 -55.5q-76 0 -121 48.5t-45 130.5v71h75v-50q0 -60 22 -88.5t68 -28.5q92 0 92 124v530h80v-524z" />
    <glyph glyph-name="afii10058" unicode="&#x409;" horiz-adv-x="896" 
d="M873 203q0 -91 -48 -147t-127 -56h-264v633h-221q0 -46 -0.5 -73.5t-1.5 -78.5t-3.5 -85t-7 -82.5t-12 -82t-17.5 -73t-24.5 -65t-32 -48.5t-41.5 -34t-52 -11v86q25 0 44 24.5t30.5 73t19.5 103t11.5 133.5t4.5 144t1 154h382v-303h184q79 0 127 -58t48 -154zM791 206
q0 126 -120 126h-157v-249h160q117 0 117 123z" />
    <glyph glyph-name="afii10059" unicode="&#x40a;" horiz-adv-x="924" 
d="M887 203q0 -91 -48 -147t-127 -56h-264v334h-307v-334h-80v718h80v-297h307v297h80v-303h184q79 0 127 -58t48 -154zM805 206q0 126 -120 126h-157v-249h160q117 0 117 123z" />
    <glyph glyph-name="afii10060" unicode="&#x40b;" horiz-adv-x="631" 
d="M589 0h-80v324q0 29 -41.5 43t-89.5 14q-47 0 -87 -14.5t-40 -35.5v-331h-79v631h-160v87h399v-87h-159v-204q6 9 48.5 22.5t77.5 13.5q46 0 91 -11t82.5 -42.5t37.5 -77.5v-332z" />
    <glyph glyph-name="afii10061" unicode="&#x40c;" horiz-adv-x="552" 
d="M241 919l-107 -141h-55l73 141h89zM543 0h-103l-272 350h-27v-350h-80v718h80v-290h36l250 290h110l-289 -336z" />
    <glyph glyph-name="uni040D" unicode="&#x40d;" horiz-adv-x="596" 
d="M376 818h-55l-107 141h89zM529 0h-77v583l-302 -583h-89v718h77v-583l297 583h94v-718z" />
    <glyph glyph-name="afii10062" unicode="&#x40e;" horiz-adv-x="546" 
d="M406 878q-9 -71 -40 -103.5t-89 -32.5q-56 0 -86 33t-37 103h40l2 -7q19 -72 86 -72q37 0 55.5 17.5t29.5 61.5h39zM535 718l-369 -718h-88l148 298l-215 420h93l169 -345l169 345h93z" />
    <glyph glyph-name="afii10145" unicode="&#x40f;" horiz-adv-x="595" 
d="M528 0h-194v-120h-80v120h-193v718h80v-631h307v631h80v-718z" />
    <glyph glyph-name="afii10017" unicode="&#x410;" horiz-adv-x="547" 
d="M536 0h-87l-58 209h-236l-62 -209h-82l221 718h91zM362 296l-88 318l-95 -318h183z" />
    <glyph glyph-name="afii10018" unicode="&#x411;" horiz-adv-x="551" 
d="M514 214q0 -90 -55.5 -152t-143.5 -62h-254v718h417v-87h-337v-217h144q229 0 229 -200zM434 214q0 122 -137 122h-156v-253h170q58 0 90.5 34.5t32.5 96.5z" />
    <glyph glyph-name="afii10019" unicode="&#x412;" horiz-adv-x="547" 
d="M514 214q0 -97 -54.5 -155.5t-144.5 -58.5h-254v718h259q75 0 120.5 -49.5t45.5 -131.5q0 -99 -78 -150q58 -29 82 -68t24 -105zM406 528q0 55 -29.5 81t-91.5 26h-144v-221h143q62 0 92 28t30 86zM434 214q0 122 -137 122h-156v-253h170q58 0 90.5 34.5t32.5 96.5z" />
    <glyph glyph-name="afii10020" unicode="&#x413;" horiz-adv-x="489" 
d="M468 631h-327v-631h-80v718h407v-87z" />
    <glyph glyph-name="afii10021" unicode="&#x414;" horiz-adv-x="666" 
d="M645 -120h-80v120h-464v-120h-80v206h53q25 0 44 24.5t30.5 73t19.5 103t11.5 133.5t4.5 144t1 154h382v-632h78v-206zM487 88v545h-221q0 -83 -1.5 -138t-7.5 -140t-21 -152.5t-39 -114.5h290z" />
    <glyph glyph-name="afii10022" unicode="&#x415;" horiz-adv-x="537" 
d="M495 0h-434v718h428v-87h-348v-219h321v-87h-321v-238h354v-87z" />
    <glyph glyph-name="afii10024" unicode="&#x416;" horiz-adv-x="902" 
d="M893 0h-103l-272 350h-27v-350h-80v350h-27l-272 -350h-103l295 382l-289 336h110l250 -290h36v290h80v-290h36l250 290h110l-289 -336z" />
    <glyph glyph-name="afii10025" unicode="&#x417;" horiz-adv-x="541" 
d="M510 197q0 -101 -62 -158.5t-170 -57.5q-129 0 -193 90q-42 58 -43 161h75q1 -61 23 -98q42 -70 142 -70q71 0 111 32.5t40 91.5t-32 101t-98 42h-118v71h122q47 0 72 41t25 87q0 59 -35 91.5t-98 32.5q-85 0 -124 -61q-19 -33 -23 -85h-75q7 83 30 129q55 100 192 100
q107 0 161 -67q49 -63 49 -152q0 -97 -62 -143q91 -47 91 -178z" />
    <glyph glyph-name="afii10026" unicode="&#x418;" horiz-adv-x="596" 
d="M529 0h-77v583l-302 -583h-89v718h77v-583l297 583h94v-718z" />
    <glyph glyph-name="afii10027" unicode="&#x419;" horiz-adv-x="596" 
d="M438 878q-9 -71 -40 -103.5t-89 -32.5q-56 0 -86 33t-37 103h40l2 -7q19 -72 86 -72q37 0 55.5 17.5t29.5 61.5h39zM529 0h-77v583l-302 -583h-89v718h77v-583l297 583h94v-718z" />
    <glyph glyph-name="afii10028" unicode="&#x41a;" horiz-adv-x="552" 
d="M543 0h-103l-272 350h-27v-350h-80v718h80v-290h36l250 290h110l-289 -336z" />
    <glyph glyph-name="afii10029" unicode="&#x41b;" horiz-adv-x="581" 
d="M514 0h-80v633h-221q0 -46 -0.5 -73.5t-1.5 -78.5t-3.5 -85t-7 -82.5t-12 -82t-17.5 -73t-24.5 -65t-32 -48.5t-41.5 -34t-52 -11v86q25 0 44 24.5t30.5 73t19.5 103t11.5 133.5t4.5 144t1 154h382v-718z" />
    <glyph glyph-name="afii10030" unicode="&#x41c;" horiz-adv-x="692" 
d="M625 0h-77v424v45l2 140l-168 -609h-78l-168 608l1 -138l1 -46v-424h-77v718h114l169 -610l168 610h113v-718z" />
    <glyph glyph-name="afii10031" unicode="&#x41d;" horiz-adv-x="595" 
d="M528 0h-80v334h-307v-334h-80v718h80v-297h307v297h80v-718z" />
    <glyph glyph-name="afii10032" unicode="&#x41e;" horiz-adv-x="638" 
d="M606 358q0 -174 -89 -286q-72 -91 -198 -91t-198 91q-89 112 -89 286q0 179 89 288q74 91 202 91q157 0 236 -157q47 -97 47 -222zM524 359q0 130 -56 210.5t-146 80.5q-95 0 -151.5 -79t-56.5 -213q0 -130 56.5 -210t148.5 -80t148.5 80t56.5 211z" />
    <glyph glyph-name="afii10033" unicode="&#x41f;" horiz-adv-x="595" 
d="M528 0h-80v631h-307v-631h-80v718h467v-718z" />
    <glyph glyph-name="afii10034" unicode="&#x420;" horiz-adv-x="547" 
d="M500 515q0 -96 -48 -154t-127 -58h-184v-303h-80v718h264q79 0 127 -56t48 -147zM418 512q0 123 -117 123h-160v-249h157q120 0 120 126z" />
    <glyph glyph-name="afii10035" unicode="&#x421;" horiz-adv-x="588" 
d="M554 264q-15 -84 -34 -130t-53 -81q-67 -72 -170 -72q-122 0 -193.5 102t-71.5 275q0 174 74.5 276.5t200.5 102.5q137 0 203 -114q29 -49 38 -121h-77q-17 76 -55 110q-44 38 -107 38q-91 0 -143 -78.5t-52 -216.5q0 -136 50 -211.5t140 -75.5q81 0 130 73q27 41 43 123
h77z" />
    <glyph glyph-name="afii10036" unicode="&#x422;" horiz-adv-x="503" 
d="M491 631h-199v-631h-80v631h-200v87h479v-87z" />
    <glyph glyph-name="afii10037" unicode="&#x423;" horiz-adv-x="548" 
d="M536 718l-369 -718h-88l148 298l-215 420h93l169 -345l169 345h93z" />
    <glyph glyph-name="afii10038" unicode="&#x424;" horiz-adv-x="737" 
d="M329 157v405q-108 0 -158 -55t-50 -145q0 -93 50.5 -149t157.5 -56zM703 363q0 -135 -84 -202q-56 -45 -100.5 -65.5t-110.5 -20.5v-75h-79v75q-138 0 -216 84q-79 85 -79 204q0 76 20.5 125t63.5 88q48 42 94.5 55.5t116.5 13.5v73h79v-73q69 0 117.5 -13.5t92.5 -55.5
q50 -47 67.5 -91.5t17.5 -121.5zM616 362q0 92 -49.5 146t-158.5 54v-405q109 0 158.5 56.5t49.5 148.5z" />
    <glyph glyph-name="afii10039" unicode="&#x425;" horiz-adv-x="539" 
d="M527 0h-98l-158 295l-163 -295h-96l210 368l-197 350h100l149 -275l149 275h95l-197 -350z" />
    <glyph glyph-name="afii10040" unicode="&#x426;" horiz-adv-x="645" 
d="M624 -120h-80v120h-483v718h80v-631h307v631h80v-632h96v-206z" />
    <glyph glyph-name="afii10041" unicode="&#x427;" horiz-adv-x="547" 
d="M480 0h-80v291q-6 -9 -49 -22.5t-78 -13.5q-46 0 -91 11t-82.5 42.5t-37.5 77.5v332h80v-324q0 -29 41.5 -43t89.5 -14q47 0 87 14.5t40 35.5v331h80v-718z" />
    <glyph glyph-name="afii10042" unicode="&#x428;" horiz-adv-x="698" 
d="M631 0h-570v718h80v-631l165 1v630h80v-631h165v631h80v-718z" />
    <glyph glyph-name="afii10043" unicode="&#x429;" horiz-adv-x="748" 
d="M727 -120h-80v120h-586v718h80v-631l165 1v630h80v-631h165v631h80v-632h96v-206z" />
    <glyph glyph-name="afii10044" unicode="&#x42a;" horiz-adv-x="711" 
d="M674 203q0 -91 -48 -147t-127 -56h-264v631h-223v87h303v-303h184q79 0 127 -58t48 -154zM592 206q0 126 -120 126h-157v-249h160q117 0 117 123z" />
    <glyph glyph-name="afii10045" unicode="&#x42b;" horiz-adv-x="783" 
d="M716 0h-79v718h79v-718zM500 203q0 -91 -48 -147t-127 -56h-264v718h80v-303h184q79 0 127 -58t48 -154zM418 206q0 126 -120 126h-157v-249h160q117 0 117 123z" />
    <glyph glyph-name="afii10046" unicode="&#x42c;" horiz-adv-x="537" 
d="M500 203q0 -91 -48 -147t-127 -56h-264v718h80v-303h184q79 0 127 -58t48 -154zM418 206q0 126 -120 126h-157v-249h160q117 0 117 123z" />
    <glyph glyph-name="afii10047" unicode="&#x42d;" horiz-adv-x="590" 
d="M554 358q0 -173 -71.5 -275t-193.5 -102q-103 0 -170 72q-34 35 -53 81t-34 130h77q16 -82 43 -123q49 -73 130 -73q85 0 134.5 67.5t54.5 189.5h-279v87h277q-10 113 -60 175.5t-132 62.5q-63 0 -107 -38q-38 -34 -55 -110h-77q9 72 38 121q66 114 203 114
q126 0 200.5 -102.5t74.5 -276.5z" />
    <glyph glyph-name="afii10048" unicode="&#x42e;" horiz-adv-x="913" 
d="M881 358q0 -174 -89 -286q-72 -91 -198 -91t-198 91q-82 103 -88 262h-167v-334h-80v718h80v-297h169q15 137 86 225q74 91 202 91q158 0 236 -157q47 -97 47 -222zM799 359q0 130 -56 210.5t-146 80.5q-95 0 -151.5 -79t-56.5 -213q0 -130 56.5 -210t148.5 -80t148.5 80
t56.5 211z" />
    <glyph glyph-name="afii10049" unicode="&#x42f;" horiz-adv-x="554" 
d="M487 0h-80v303h-28l-234 -303h-103l234 304h-53q-79 -1 -127 57t-48 154q0 91 48 147t127 56h264v-718zM407 386v249h-160q-117 0 -117 -123q0 -126 120 -126h157z" />
    <glyph glyph-name="afii10065" unicode="&#x430;" 
d="M435 0l-9 -3q-20 -7 -33 -7q-37 0 -53.5 18.5t-20.5 61.5q-35 -45 -70.5 -65t-81.5 -20q-62 0 -99.5 42t-37.5 111q0 68 34 110t96 52l119 18q38 6 38 60q0 87 -99 87q-47 0 -70 -23t-31 -78h-66q4 69 26 105q43 69 146 69q77 0 120.5 -39t43.5 -107v-301q0 -31 23 -31
q5 0 25 4v-64zM315 181v86q-11 -10 -33 -16t-85 -17q-49 -8 -70.5 -28.5t-21.5 -59.5q0 -42 20 -65t57 -23q54 0 93.5 36.5t39.5 86.5z" />
    <glyph glyph-name="afii10066" unicode="&#x431;" horiz-adv-x="442" 
d="M424 262q0 -122 -55.5 -199t-143.5 -77t-143.5 77t-55.5 199q0 3 -0.5 37t0 52.5t2.5 58t6.5 65t13.5 61t21 59.5t31.5 46.5t44.5 34.5q27 14 88.5 21.5t93.5 22.5q36 16 36 56h56q0 -75 -48 -102q-37 -21 -96.5 -33.5t-77.5 -18.5q-46 -15 -80 -94q-16 -38 -10 -37
q50 47 121 47q86 0 141 -77.5t55 -198.5zM349 262q0 90 -33.5 144.5t-88.5 54.5q-58 0 -92 -53.5t-34 -145.5q0 -91 34 -145t90 -54t90 54t34 145z" />
    <glyph glyph-name="afii10067" unicode="&#x432;" horiz-adv-x="444" 
d="M420 161q0 -72 -51 -116.5t-140 -44.5h-175v523h180q74 0 117 -37.5t43 -98.5q0 -78 -72 -105q59 -21 78.5 -44t19.5 -77zM320 380q0 40 -29 57t-92 17h-77v-148h76q64 0 93 16.5t29 57.5zM348 161q0 43 -33 61t-104 18h-89v-170h103q59 0 91 23t32 68z" />
    <glyph glyph-name="afii10068" unicode="&#x433;" horiz-adv-x="337" 
d="M325 450h-202v-450h-72v523h274v-73z" />
    <glyph glyph-name="afii10069" unicode="&#x434;" horiz-adv-x="536" 
d="M515 -125h-69v125h-356v-125h-69v191h61q29 0 53.5 142.5t24.5 314.5h288v-457h67v-191zM376 69v385h-144q3 -275 -53 -385h197z" />
    <glyph glyph-name="afii10070" unicode="&#x435;" 
d="M423 233h-313q3 -78 25 -116q32 -55 97 -55q44 0 76 29t37 73h72q-14 -85 -63.5 -132t-123.5 -47q-91 0 -144 71.5t-53 195.5q0 131 55 208.5t148 77.5q102 0 150 -101q19 -39 27 -83t10 -121zM348 303q-5 70 -27 107q-31 50 -88 50q-52 0 -86 -43.5t-37 -113.5h238z" />
    <glyph glyph-name="afii10072" unicode="&#x436;" horiz-adv-x="658" 
d="M650 0h-93l-193 209v-209h-70v209l-193 -209h-93l235 262l-225 261h91l185 -221v221h70v-221l185 221h91l-225 -261z" />
    <glyph glyph-name="afii10073" unicode="&#x437;" horiz-adv-x="410" 
d="M378 157q0 -79 -48 -125.5t-130 -46.5q-111 0 -153 79q-19 34 -23 104h70q4 -56 30 -81t81 -25q47 0 74 22t27 60q0 37 -19.5 66.5t-65.5 29.5h-69v69h58q77 0 77 78q0 34 -24 54t-65 20q-93 0 -97 -87h-70q5 79 47 121.5t115 42.5q74 0 119 -45t45 -120q0 -65 -42 -99
q63 -36 63 -117z" />
    <glyph glyph-name="afii10074" unicode="&#x438;" horiz-adv-x="455" 
d="M403 0h-72v427l-186 -427h-92v523h72v-432l186 432h92v-523z" />
    <glyph glyph-name="afii10075" unicode="&#x439;" horiz-adv-x="455" 
d="M371 741q-9 -71 -40 -103.5t-89 -32.5q-56 0 -86 33t-37 103h40l2 -7q19 -72 86 -72q37 0 55.5 17.5t29.5 61.5h39zM403 0h-72v427l-186 -427h-92v523h72v-432l186 432h92v-523z" />
    <glyph glyph-name="afii10076" unicode="&#x43a;" horiz-adv-x="417" 
d="M409 0h-93l-194 209v-209h-69v523h70v-221l185 221h91l-225 -261z" />
    <glyph glyph-name="afii10077" unicode="&#x43b;" horiz-adv-x="439" 
d="M387 0h-72v454h-144q0 -53 -0.5 -89.5t-4.5 -96.5t-13.5 -101t-25.5 -82.5t-43 -63t-63 -21.5v70q78 0 78 453h288v-523z" />
    <glyph glyph-name="afii10078" unicode="&#x43c;" horiz-adv-x="539" 
d="M487 0h-72v354l-106 -354h-78l-106 354v-354h-72v523h105l112 -429l112 429h105v-523z" />
    <glyph glyph-name="afii10079" unicode="&#x43d;" horiz-adv-x="455" 
d="M403 0h-72v247h-206v-247h-72v523h72v-206h206v206h72v-523z" />
    <glyph glyph-name="afii10080" unicode="&#x43e;" 
d="M427 262q0 -122 -55.5 -199t-143.5 -77t-143.5 77t-55.5 199q0 124 55.5 200t146.5 76q86 0 141 -77.5t55 -198.5zM352 262q0 90 -33.5 144.5t-88.5 54.5q-58 0 -92 -53.5t-34 -145.5q0 -91 34 -145t90 -54t90 54t34 145z" />
    <glyph glyph-name="afii10081" unicode="&#x43f;" horiz-adv-x="455" 
d="M403 0h-72v454h-206v-454h-72v523h350v-523z" />
    <glyph glyph-name="afii10082" unicode="&#x440;" 
d="M424 274q0 -131 -51 -210t-136 -79q-75 0 -117 73v-265h-72v730h68v-77q28 51 57.5 71.5t73.5 20.5q79 0 128 -72.5t49 -191.5zM349 271q0 92 -29 140.5t-85 48.5q-118 0 -118 -215q0 -85 31.5 -134t85.5 -49q55 0 85 55t30 154z" />
    <glyph glyph-name="afii10083" unicode="&#x441;" horiz-adv-x="410" 
d="M391 185q-26 -200 -174 -200q-88 0 -140 72.5t-52 194.5q0 131 55 208.5t148 77.5q144 0 163 -191h-70q-9 59 -33 86t-67 27q-56 0 -87.5 -53t-31.5 -148t29.5 -146t84.5 -51q82 0 105 123h70z" />
    <glyph glyph-name="afii10084" unicode="&#x442;" horiz-adv-x="336" 
d="M324 450h-120v-450h-72v450h-120v73h312v-73z" />
    <glyph glyph-name="afii10085" unicode="&#x443;" horiz-adv-x="409" 
d="M400 523l-155 -513q-26 -84 -40 -123t-33 -65t-37 -31t-53 -5q-13 0 -29 6l-6 2v80q21 -9 44 -9q22 0 34 13.5t24 53.5l18 54l-159 537h81l115 -429l116 429h80z" />
    <glyph glyph-name="afii10086" unicode="&#x444;" horiz-adv-x="748" 
d="M716 274q0 -131 -51 -210t-136 -79q-75 0 -117 73v-265h-76v265q-42 -73 -117 -73q-85 0 -136 79t-51 210q0 119 49 191.5t128 72.5q44 0 73.5 -20.5t57.5 -71.5v182h68v-182q28 51 57.5 71.5t73.5 20.5q79 0 128 -72.5t49 -191.5zM339 245q0 215 -118 215
q-56 0 -85 -48.5t-29 -140.5q0 -99 30 -154t85 -55q54 0 85.5 49t31.5 134zM641 271q0 92 -29 140.5t-85 48.5q-118 0 -118 -215q0 -85 31.5 -134t85.5 -49q55 0 85 55t30 154z" />
    <glyph glyph-name="afii10087" unicode="&#x445;" horiz-adv-x="410" 
d="M401 0h-92l-107 197l-103 -197h-91l151 269l-144 254h93l99 -184l100 184h88l-145 -254z" />
    <glyph glyph-name="afii10088" unicode="&#x446;" horiz-adv-x="501" 
d="M480 -125h-69v125h-358v523h72v-454h206v454h72v-457h77v-191z" />
    <glyph glyph-name="afii10089" unicode="&#x447;" horiz-adv-x="406" 
d="M371 0h-72v198q-8 -9 -38 -16.5t-53 -7.5q-37 0 -69 7.5t-59 31t-27 60.5v250h72v-242q0 -37 87 -37q28 0 57.5 10.5t29.5 29.5v239h72v-523z" />
    <glyph glyph-name="afii10090" unicode="&#x448;" horiz-adv-x="589" 
d="M537 0h-484v523h72v-454h134v454h72v-454h134v454h72v-523z" />
    <glyph glyph-name="afii10091" unicode="&#x449;" horiz-adv-x="635" 
d="M614 -125h-69v125h-492v523h72v-454h134v454h72v-454h134v454h72v-457h77v-191z" />
    <glyph glyph-name="afii10092" unicode="&#x44a;" horiz-adv-x="512" 
d="M497 161q0 -72 -51 -116.5t-140 -44.5h-175v454h-114v69h182v-217h126q81 0 126.5 -43t45.5 -102zM425 161q0 43 -33 61t-104 18h-89v-170h103q59 0 91 23t32 68z" />
    <glyph glyph-name="afii10093" unicode="&#x44b;" horiz-adv-x="585" 
d="M533 0h-72v523h72v-523zM419 161q0 -72 -51 -116.5t-140 -44.5h-175v523h68v-217h126q81 0 126.5 -43t45.5 -102zM347 161q0 43 -33 61t-104 18h-89v-170h103q59 0 91 23t32 68z" />
    <glyph glyph-name="afii10094" unicode="&#x44c;" horiz-adv-x="444" 
d="M419 161q0 -72 -51 -116.5t-140 -44.5h-175v523h68v-217h126q81 0 126.5 -43t45.5 -102zM347 161q0 43 -33 61t-104 18h-89v-170h103q59 0 91 23t32 68z" />
    <glyph glyph-name="afii10095" unicode="&#x44d;" horiz-adv-x="410" 
d="M391 252q0 -122 -52 -194.5t-140 -72.5q-148 0 -174 200h70q23 -123 105 -123q52 0 82 48t32 137h-166v70h162q-19 143 -115 143q-43 0 -67 -27t-33 -86h-70q19 191 163 191q93 0 148 -77.5t55 -208.5z" />
    <glyph glyph-name="afii10096" unicode="&#x44e;" horiz-adv-x="667" 
d="M638 262q0 -122 -55.5 -199t-143.5 -77q-85 0 -139.5 72.5t-58.5 188.5h-116v-247h-72v523h72v-206h118q12 102 65.5 161.5t133.5 59.5q86 0 141 -77.5t55 -198.5zM563 262q0 90 -33.5 144.5t-88.5 54.5q-58 0 -92 -53.5t-34 -145.5q0 -91 34 -145t90 -54t90 54t34 145z
" />
    <glyph glyph-name="afii10097" unicode="&#x44f;" horiz-adv-x="447" 
d="M410 0h-68v218h-21l-204 -218h-93l199 218q-82 0 -130.5 43t-48.5 102q0 72 51 116t140 44h175v-523zM342 284v170h-103q-59 0 -91 -23t-32 -68q0 -43 33 -61t104 -18h89z" />
    <glyph glyph-name="uni0450" unicode="&#x450;" 
d="M347 623h-55l-107 141h89zM423 233h-313q3 -78 25 -116q32 -55 97 -55q44 0 76 29t37 73h72q-14 -85 -63.5 -132t-123.5 -47q-91 0 -144 71.5t-53 195.5q0 131 55 208.5t148 77.5q102 0 150 -101q19 -39 27 -83t10 -121zM348 303q-5 70 -27 107q-31 50 -88 50
q-52 0 -86 -43.5t-37 -113.5h238z" />
    <glyph glyph-name="afii10071" unicode="&#x451;" 
d="M423 233h-313q3 -78 25 -116q32 -55 97 -55q44 0 76 29t37 73h72q-14 -85 -63.5 -132t-123.5 -47q-91 0 -144 71.5t-53 195.5q0 131 55 208.5t148 77.5q102 0 150 -101q19 -39 27 -83t10 -121zM348 303q-5 70 -27 107q-31 50 -88 50q-52 0 -86 -43.5t-37 -113.5h238z
M200 604h-75v102h75v-102zM332 604h-75v102h75v-102z" />
    <glyph glyph-name="afii10099" unicode="&#x452;" horiz-adv-x="495" 
d="M442 32q0 -182 -156 -182v78q44 0 64 28t20 90v231q0 62 -20 90t-64 28q-58 0 -90 -46t-32 -129v-220h-72v550h-80v73h79v95h73v-95h160v-73h-160v-164q31 49 60.5 68t72.5 19q68 0 106.5 -48t38.5 -134v-259z" />
    <glyph glyph-name="afii10100" unicode="&#x453;" horiz-adv-x="337" 
d="M322 739l-106 -141h-56l74 141h88zM325 450h-202v-450h-72v523h274v-73z" />
    <glyph glyph-name="afii10101" unicode="&#x454;" horiz-adv-x="426" 
d="M395 185q-26 -200 -174 -200q-88 0 -140 72.5t-52 194.5q0 131 55 208.5t148 77.5q144 0 163 -191h-70q-9 59 -33 86t-67 27q-96 0 -115 -143h162v-70h-166q2 -89 32 -137t82 -48q82 0 105 123h70z" />
    <glyph glyph-name="afii10102" unicode="&#x455;" horiz-adv-x="410" 
d="M380 157q0 -79 -48 -125.5t-130 -46.5q-111 0 -153 79q-19 34 -23 104h70q4 -56 30 -81t81 -25q47 0 74 22t27 60q0 29 -17.5 44.5t-67.5 30.5l-84 25q-99 30 -99 129q0 75 45 120t119 45q73 0 115 -42.5t47 -121.5h-70q-4 87 -97 87q-41 0 -65 -20t-24 -54
q0 -28 15 -41.5t62 -27.5l73 -22q65 -20 92.5 -52t27.5 -87z" />
    <glyph glyph-name="afii10103" unicode="&#x456;" horiz-adv-x="182" 
d="M127 0h-72v523h72v-523zM127 618h-72v100h72v-100z" />
    <glyph glyph-name="afii10104" unicode="&#x457;" horiz-adv-x="317" 
d="M194 0h-72v523h72v-523zM130 604h-75v102h75v-102zM262 604h-75v102h75v-102z" />
    <glyph glyph-name="afii10105" unicode="&#x458;" horiz-adv-x="182" 
d="M127 -77q0 -68 -26 -100.5t-81 -32.5q-15 0 -33 3v76h15q34 0 43.5 11.5t9.5 52.5v590h72v-600zM127 618h-72v100h72v-100z" />
    <glyph glyph-name="afii10106" unicode="&#x459;" horiz-adv-x="709" 
d="M684 161q0 -72 -51 -116.5t-140 -44.5h-178v454h-144q0 -53 -0.5 -89.5t-4.5 -96.5t-13.5 -101t-25.5 -82.5t-43 -63t-63 -21.5v70q78 0 78 453h287v-217h126q81 0 126.5 -43t45.5 -102zM612 161q0 43 -33 61t-104 18h-89v-170h103q59 0 91 23t32 68z" />
    <glyph glyph-name="afii10107" unicode="&#x45a;" horiz-adv-x="722" 
d="M697 161q0 -72 -51 -116.5t-140 -44.5h-175v247h-206v-247h-72v523h72v-206h206v206h68v-217h126q81 0 126.5 -43t45.5 -102zM625 161q0 43 -33 61t-104 18h-89v-170h103q59 0 91 23t32 68z" />
    <glyph glyph-name="afii10108" unicode="&#x45b;" horiz-adv-x="495" 
d="M442 0h-72v277q0 62 -20 90t-64 28q-58 0 -90 -46t-32 -129v-220h-72v550h-80v73h80v95h72v-95h160v-73h-160v-164q31 49 60.5 68t72.5 19q68 0 106.5 -48t38.5 -134v-291z" />
    <glyph glyph-name="afii10109" unicode="&#x45c;" horiz-adv-x="417" 
d="M360 739l-106 -141h-56l74 141h88zM409 0h-93l-194 209v-209h-69v523h70v-221l185 221h91l-225 -261z" />
    <glyph glyph-name="uni045D" unicode="&#x45d;" horiz-adv-x="455" 
d="M256 598h-56l-106 141h88zM403 0h-72v427l-186 -427h-92v523h72v-432l186 432h92v-523z" />
    <glyph glyph-name="afii10110" unicode="&#x45e;" horiz-adv-x="416" 
d="M340 741q-9 -71 -40 -103.5t-89 -32.5q-56 0 -86 33t-37 103h40l2 -7q19 -72 86 -72q37 0 55.5 17.5t29.5 61.5h39zM404 523l-155 -513q-26 -84 -40 -123t-33 -65t-37 -31t-53 -5q-13 0 -29 6l-6 2v80q21 -9 44 -9q22 0 34 13.5t24 53.5l18 54l-159 537h81l115 -429
l116 429h80z" />
    <glyph glyph-name="afii10193" unicode="&#x45f;" horiz-adv-x="455" 
d="M403 0h-141v-125h-69v125h-140v523h72v-454h206v454h72v-523z" />
    <glyph glyph-name="uni048C" unicode="&#x48c;" horiz-adv-x="537" 
d="M418 206q0 126 -120 126h-157v-249h160q117 0 117 123zM500 203q0 -91 -48 -147t-127 -56h-264v571h-53v57h53v90h80v-90h64v-57h-64v-156h184q79 0 127 -58t48 -154z" />
    <glyph glyph-name="uni048D" unicode="&#x48d;" horiz-adv-x="444" 
d="M347 161q0 43 -33 61t-104 18h-89v-170h103q59 0 91 23t32 68zM419 161q0 -72 -51 -116.5t-140 -44.5h-175v400h-46v57h46v66h68v-66h43v-57h-43v-94h126q81 0 126.5 -43t45.5 -102z" />
    <glyph glyph-name="uni048E" unicode="&#x48e;" horiz-adv-x="547" 
d="M500 515q0 -96 -48 -154t-127 -58h-184v-303h-80v718h264q79 0 127 -56t48 -147zM418 512q0 123 -117 123h-160v-249h157q120 0 120 126z" />
    <glyph glyph-name="uni048F" unicode="&#x48f;" 
d="M424 274q0 -131 -51 -210t-136 -79q-75 0 -117 73v-265h-72v730h68v-77q28 51 57.5 71.5t73.5 20.5q79 0 128 -72.5t49 -191.5zM349 271q0 92 -29 140.5t-85 48.5q-118 0 -118 -215q0 -85 31.5 -134t85.5 -49q55 0 85 55t30 154z" />
    <glyph glyph-name="afii10050" unicode="&#x490;" horiz-adv-x="499" 
d="M474 631h-327v-631h-80v718h329v81h78v-168z" />
    <glyph glyph-name="afii10098" unicode="&#x491;" horiz-adv-x="344" 
d="M329 450h-202v-450h-72v523h209v68h65v-141z" />
    <glyph glyph-name="uni0492" unicode="&#x492;" horiz-adv-x="489" 
d="M468 631h-327v-108h174v-60h-174v-463h-80v463h-61v60h61v195h407v-87z" />
    <glyph glyph-name="uni0493" unicode="&#x493;" horiz-adv-x="337" 
d="M325 450h-202v-73h107v-67h-107v-310h-72v310h-51v67h51v146h274v-73z" />
    <glyph glyph-name="uni0494" unicode="&#x494;" horiz-adv-x="543" 
d="M481 0q0 -46 -37.5 -77.5t-82.5 -42.5t-91 -11v82q48 0 89.5 14t41.5 43v316q0 29 -41.5 43t-89.5 14q-47 0 -87 -14.5t-40 -35.5v-331h-82v718h407v-87h-327v-204q11 13 51 24.5t78 11.5q46 0 91 -11t82.5 -42.5t37.5 -77.5v-332z" />
    <glyph glyph-name="uni0495" unicode="&#x495;" horiz-adv-x="337" 
d="M325 450h-202v-450h-72v523h274v-73z" />
    <glyph glyph-name="uni0496" unicode="&#x496;" horiz-adv-x="902" 
d="M893 -120h-80v120h-23l-272 350h-27v-350h-80v350h-27l-272 -350h-103l295 382l-289 336h110l250 -290h36v290h80v-290h36l250 290h110l-289 -336l228 -296h67v-206z" />
    <glyph glyph-name="uni0497" unicode="&#x497;" horiz-adv-x="658" 
d="M650 -125h-69v125h-24l-193 209v-209h-70v209l-193 -209h-93l235 262l-225 261h91l185 -221v221h70v-221l185 221h91l-225 -261l176 -196h59v-191z" />
    <glyph glyph-name="uni0498" unicode="&#x498;" horiz-adv-x="541" 
d="M510 197q0 -101 -62 -158.5t-170 -57.5q-129 0 -193 90q-42 58 -43 161h75q1 -61 23 -98q42 -70 142 -70q71 0 111 32.5t40 91.5q0 60 -30.5 101.5t-99.5 41.5h-118v71h122q47 0 72 41t25 87q0 59 -35 91.5t-98 32.5q-85 0 -124 -61q-19 -33 -23 -85h-75q7 83 30 129
q55 100 192 100q107 0 161 -67q49 -63 49 -152q0 -97 -62 -143q91 -47 91 -178z" />
    <glyph glyph-name="uni0499" unicode="&#x499;" horiz-adv-x="410" 
d="M378 157q0 -79 -48 -125.5t-130 -46.5q-111 0 -153 79q-19 34 -23 104h70q4 -56 30 -81t81 -25q47 0 74 22t27 60q0 37 -19.5 66.5t-65.5 29.5h-69v69h58q77 0 77 78q0 34 -24 54t-65 20q-93 0 -97 -87h-70q5 79 47 121.5t115 42.5q74 0 119 -45t45 -120q0 -65 -42 -99
q63 -36 63 -117z" />
    <glyph glyph-name="uni049A" unicode="&#x49a;" horiz-adv-x="552" 
d="M543 -120h-80v120h-23l-272 350h-27v-350h-80v718h80v-290h36l250 290h110l-289 -336l228 -296h67v-206z" />
    <glyph glyph-name="uni049B" unicode="&#x49b;" horiz-adv-x="417" 
d="M409 -125h-69v125h-24l-194 209v-209h-69v523h70v-221l185 221h91l-225 -261l176 -196h59v-191z" />
    <glyph glyph-name="uni049C" unicode="&#x49c;" horiz-adv-x="552" 
d="M543 0h-103l-272 350h-27v-350h-80v718h80v-290h36l250 290h110l-289 -336z" />
    <glyph glyph-name="uni049D" unicode="&#x49d;" horiz-adv-x="417" 
d="M409 0h-93l-194 209v-209h-69v523h70v-221l185 221h91l-225 -261z" />
    <glyph glyph-name="uni049E" unicode="&#x49e;" horiz-adv-x="552" 
d="M543 0h-103l-272 350h-27v-350h-80v718h80v-290h36l250 290h110l-289 -336z" />
    <glyph glyph-name="uni049F" unicode="&#x49f;" horiz-adv-x="417" 
d="M409 0h-93l-194 209v-209h-69v523h70v-221l185 221h91l-225 -261z" />
    <glyph glyph-name="uni04A0" unicode="&#x4a0;" horiz-adv-x="552" 
d="M543 0h-103l-272 350h-27v-350h-80v718h80v-290h36l250 290h110l-289 -336z" />
    <glyph glyph-name="uni04A1" unicode="&#x4a1;" horiz-adv-x="417" 
d="M409 0h-93l-194 209v-209h-69v523h70v-221l185 221h91l-225 -261z" />
    <glyph glyph-name="uni04A2" unicode="&#x4a2;" horiz-adv-x="595" 
d="M599 -120h-80v120h-71v334h-307v-334h-80v718h80v-297h307v297h80v-632h71v-206z" />
    <glyph glyph-name="uni04A3" unicode="&#x4a3;" horiz-adv-x="455" 
d="M455 -125h-69v125h-55v247h-206v-247h-72v523h72v-206h206v206h72v-457h52v-191z" />
    <glyph glyph-name="uni04A4" unicode="&#x4a4;" horiz-adv-x="595" 
d="M528 0h-80v334h-307v-334h-80v718h80v-297h307v297h80v-718z" />
    <glyph glyph-name="uni04A5" unicode="&#x4a5;" horiz-adv-x="455" 
d="M403 0h-72v247h-206v-247h-72v523h72v-206h206v206h72v-523z" />
    <glyph glyph-name="uni04A6" unicode="&#x4a6;" horiz-adv-x="595" 
d="M528 0h-80v631h-307v-631h-80v718h467v-718z" />
    <glyph glyph-name="uni04A7" unicode="&#x4a7;" horiz-adv-x="455" 
d="M403 0h-72v454h-206v-454h-72v523h350v-523z" />
    <glyph glyph-name="uni04A8" unicode="&#x4a8;" horiz-adv-x="588" 
d="M554 264q-15 -84 -34 -130t-53 -81q-67 -72 -170 -72q-122 0 -193.5 102t-71.5 275q0 174 74.5 276.5t200.5 102.5q137 0 203 -114q29 -49 38 -121h-77q-17 76 -55 110q-44 38 -107 38q-91 0 -143 -78.5t-52 -216.5q0 -136 50 -211.5t140 -75.5q81 0 130 73q27 41 43 123
h77z" />
    <glyph glyph-name="uni04A9" unicode="&#x4a9;" horiz-adv-x="410" 
d="M391 185q-26 -200 -174 -200q-88 0 -140 72.5t-52 194.5q0 131 55 208.5t148 77.5q144 0 163 -191h-70q-9 59 -33 86t-67 27q-56 0 -87.5 -53t-31.5 -148t29.5 -146t84.5 -51q82 0 105 123h70z" />
    <glyph glyph-name="uni04AA" unicode="&#x4aa;" horiz-adv-x="588" 
d="M554 264q-15 -84 -34 -130t-53 -81q-67 -72 -170 -72q-122 0 -193.5 102t-71.5 275q0 174 74.5 276.5t200.5 102.5q137 0 203 -114q29 -49 38 -121h-77q-17 76 -55 110q-44 38 -107 38q-91 0 -143 -78.5t-52 -216.5q0 -136 50 -211.5t140 -75.5q81 0 130 73q27 41 43 123
h77z" />
    <glyph glyph-name="uni04AB" unicode="&#x4ab;" horiz-adv-x="410" 
d="M391 185q-26 -200 -174 -200q-88 0 -140 72.5t-52 194.5q0 131 55 208.5t148 77.5q144 0 163 -191h-70q-9 59 -33 86t-67 27q-56 0 -87.5 -53t-31.5 -148t29.5 -146t84.5 -51q82 0 105 123h70z" />
    <glyph glyph-name="uni04AC" unicode="&#x4ac;" horiz-adv-x="503" 
d="M491 631h-199v-545h71v-206h-80v120h-71v631h-200v87h479v-87z" />
    <glyph glyph-name="uni04AD" unicode="&#x4ad;" horiz-adv-x="336" 
d="M324 450h-120v-384h52v-191h-69v125h-55v450h-120v73h312v-73z" />
    <glyph glyph-name="uni04AE" unicode="&#x4ae;" horiz-adv-x="547" 
d="M535 718l-222 -429v-289h-80v289l-222 429h93l169 -345l169 345h93z" />
    <glyph glyph-name="uni04AF" unicode="&#x4af;" horiz-adv-x="547" 
d="M505 523l-192 -430v-288h-80v288l-192 430h93l139 -345l139 345h93z" />
    <glyph glyph-name="uni04B0" unicode="&#x4b0;" horiz-adv-x="547" 
d="M535 718l-222 -429v-16h190v-63h-190v-210h-80v210h-190v63h190v16l-222 429h93l169 -345l169 345h93z" />
    <glyph glyph-name="uni04B1" unicode="&#x4b1;" horiz-adv-x="547" 
d="M505 523l-192 -429h170v-72h-170v-217h-80v217h-170v72h170l-192 429h93l139 -345l139 345h93z" />
    <glyph glyph-name="uni04B2" unicode="&#x4b2;" horiz-adv-x="539" 
d="M527 -120h-80v120h-18l-158 295l-163 -295h-96l210 368l-197 350h100l149 -275l149 275h95l-197 -350l158 -282h48v-206z" />
    <glyph glyph-name="uni04B3" unicode="&#x4b3;" horiz-adv-x="410" 
d="M401 -125h-69v125h-23l-107 197l-103 -197h-91l151 269l-144 254h93l99 -184l100 184h88l-145 -254l114 -203h37v-191z" />
    <glyph glyph-name="uni04B4" unicode="&#x4b4;" horiz-adv-x="645" 
d="M624 -120h-80v120h-483v718h80v-631h307v631h80v-632h96v-206z" />
    <glyph glyph-name="uni04B5" unicode="&#x4b5;" horiz-adv-x="501" 
d="M480 -125h-69v125h-358v523h72v-454h206v454h72v-457h77v-191z" />
    <glyph glyph-name="uni04B6" unicode="&#x4b6;" horiz-adv-x="547" 
d="M480 0h-80v291q-6 -9 -49 -22.5t-78 -13.5q-46 0 -91 11t-82.5 42.5t-37.5 77.5v332h80v-324q0 -29 41.5 -43t89.5 -14q47 0 87 14.5t40 35.5v331h80v-718z" />
    <glyph glyph-name="uni04B7" unicode="&#x4b7;" horiz-adv-x="406" 
d="M371 0h-72v198q-8 -9 -38 -16.5t-53 -7.5q-37 0 -69 7.5t-59 31t-27 60.5v250h72v-242q0 -37 87 -37q28 0 57.5 10.5t29.5 29.5v239h72v-523z" />
    <glyph glyph-name="uni04B8" unicode="&#x4b8;" horiz-adv-x="547" 
d="M480 0h-80v291q-6 -9 -49 -22.5t-78 -13.5q-46 0 -91 11t-82.5 42.5t-37.5 77.5v332h80v-324q0 -29 41.5 -43t89.5 -14q47 0 87 14.5t40 35.5v331h80v-718z" />
    <glyph glyph-name="uni04B9" unicode="&#x4b9;" horiz-adv-x="406" 
d="M371 0h-72v198q-8 -9 -38 -16.5t-53 -7.5q-37 0 -69 7.5t-59 31t-27 60.5v250h72v-242q0 -37 87 -37q28 0 57.5 10.5t29.5 29.5v239h72v-523z" />
    <glyph glyph-name="uni04BA" unicode="&#x4ba;" horiz-adv-x="547" 
d="M480 0h-80v324q0 29 -41.5 43t-89.5 14q-47 0 -87 -14.5t-40 -35.5v-331h-80v718h80v-291q6 9 49 22.5t78 13.5q46 0 91 -11t82.5 -42.5t37.5 -77.5v-332z" />
    <glyph glyph-name="uni04BB" unicode="&#x4bb;" horiz-adv-x="406" 
d="M371 0h-72v244q0 37 -87 37q-28 0 -57.5 -10.5t-29.5 -29.5v-241h-72v523h72v-196q8 9 38 16.5t53 7.5q37 0 69 -7.5t59 -31t27 -60.5v-252z" />
    <glyph glyph-name="uni04BC" unicode="&#x4bc;" horiz-adv-x="588" 
d="M554 264q-15 -84 -34 -130t-53 -81q-67 -72 -170 -72q-122 0 -193.5 102t-71.5 275q0 174 74.5 276.5t200.5 102.5q137 0 203 -114q29 -49 38 -121h-77q-17 76 -55 110q-44 38 -107 38q-91 0 -143 -78.5t-52 -216.5q0 -136 50 -211.5t140 -75.5q81 0 130 73q27 41 43 123
h77z" />
    <glyph glyph-name="uni04BD" unicode="&#x4bd;" horiz-adv-x="410" 
d="M391 185q-26 -200 -174 -200q-88 0 -140 72.5t-52 194.5q0 131 55 208.5t148 77.5q144 0 163 -191h-70q-9 59 -33 86t-67 27q-56 0 -87.5 -53t-31.5 -148t29.5 -146t84.5 -51q82 0 105 123h70z" />
    <glyph glyph-name="uni04BE" unicode="&#x4be;" horiz-adv-x="588" 
d="M554 264q-15 -84 -34 -130t-53 -81q-67 -72 -170 -72q-122 0 -193.5 102t-71.5 275q0 174 74.5 276.5t200.5 102.5q137 0 203 -114q29 -49 38 -121h-77q-17 76 -55 110q-44 38 -107 38q-91 0 -143 -78.5t-52 -216.5q0 -136 50 -211.5t140 -75.5q81 0 130 73q27 41 43 123
h77z" />
    <glyph glyph-name="uni04BF" unicode="&#x4bf;" horiz-adv-x="410" 
d="M391 185q-26 -200 -174 -200q-88 0 -140 72.5t-52 194.5q0 131 55 208.5t148 77.5q144 0 163 -191h-70q-9 59 -33 86t-67 27q-56 0 -87.5 -53t-31.5 -148t29.5 -146t84.5 -51q82 0 105 123h70z" />
    <glyph glyph-name="uni04C0" unicode="&#x4c0;" horiz-adv-x="228" 
d="M154 0h-79v718h79v-718z" />
    <glyph glyph-name="uni04C1" unicode="&#x4c1;" horiz-adv-x="902" 
d="M577 954q-9 -71 -40 -103.5t-89 -32.5q-56 0 -86 33t-37 103h40l2 -7q19 -72 86 -72q37 0 55.5 17.5t29.5 61.5h39zM893 0h-103l-272 350h-27v-350h-80v350h-27l-272 -350h-103l295 382l-289 336h110l250 -290h36v290h80v-290h36l250 290h110l-289 -336z" />
    <glyph glyph-name="uni04C2" unicode="&#x4c2;" horiz-adv-x="658" 
d="M455 759q-9 -71 -40 -103.5t-89 -32.5q-56 0 -86 33t-37 103h40l2 -7q19 -72 86 -72q37 0 55.5 17.5t29.5 61.5h39zM650 0h-93l-193 209v-209h-70v209l-193 -209h-93l235 262l-225 261h91l185 -221v221h70v-221l185 221h91l-225 -261z" />
    <glyph glyph-name="uni04C3" unicode="&#x4c3;" horiz-adv-x="552" 
d="M543 0h-103l-272 350h-27v-350h-80v718h80v-290h36l250 290h110l-289 -336z" />
    <glyph glyph-name="uni04C4" unicode="&#x4c4;" horiz-adv-x="417" 
d="M409 0h-93l-194 209v-209h-69v523h70v-221l185 221h91l-225 -261z" />
    <glyph glyph-name="uni04C7" unicode="&#x4c7;" horiz-adv-x="595" 
d="M528 0h-80v334h-307v-334h-80v718h80v-297h307v297h80v-718z" />
    <glyph glyph-name="uni04C8" unicode="&#x4c8;" horiz-adv-x="455" 
d="M403 0h-72v247h-206v-247h-72v523h72v-206h206v206h72v-523z" />
    <glyph glyph-name="uni04CB" unicode="&#x4cb;" horiz-adv-x="547" 
d="M480 0h-80v291q-6 -9 -49 -22.5t-78 -13.5q-46 0 -91 11t-82.5 42.5t-37.5 77.5v332h80v-324q0 -29 41.5 -43t89.5 -14q47 0 87 14.5t40 35.5v331h80v-718z" />
    <glyph glyph-name="uni04CC" unicode="&#x4cc;" horiz-adv-x="406" 
d="M371 0h-72v198q-8 -9 -38 -16.5t-53 -7.5q-37 0 -69 7.5t-59 31t-27 60.5v250h72v-242q0 -37 87 -37q28 0 57.5 10.5t29.5 29.5v239h72v-523z" />
    <glyph glyph-name="uni04D0" unicode="&#x4d0;" horiz-adv-x="547" 
d="M399 954q-9 -71 -40 -103.5t-89 -32.5q-56 0 -86 33t-37 103h40l2 -7q19 -72 86 -72q37 0 55.5 17.5t29.5 61.5h39zM536 0h-87l-58 209h-236l-62 -209h-82l221 718h91zM362 296l-88 318l-95 -318h183z" />
    <glyph glyph-name="uni04D1" unicode="&#x4d1;" 
d="M345 759q-9 -71 -40 -103.5t-89 -32.5q-56 0 -86 33t-37 103h40l2 -7q19 -72 86 -72q37 0 55.5 17.5t29.5 61.5h39zM435 0l-9 -3q-20 -7 -33 -7q-37 0 -53.5 18.5t-20.5 61.5q-35 -45 -70.5 -65t-81.5 -20q-62 0 -99.5 42t-37.5 111q0 68 34 110t96 52l119 18q38 6 38 60
q0 87 -99 87q-47 0 -70 -23t-31 -78h-66q4 69 26 105q43 69 146 69q77 0 120.5 -39t43.5 -107v-301q0 -31 23 -31q5 0 25 4v-64zM315 181v86q-11 -10 -33 -16t-85 -17q-49 -8 -70.5 -28.5t-21.5 -59.5q0 -42 20 -65t57 -23q54 0 93.5 36.5t39.5 86.5z" />
    <glyph glyph-name="uni04D2" unicode="&#x4d2;" horiz-adv-x="547" 
d="M245 818h-75v102h75v-102zM377 818h-75v102h75v-102zM536 0h-87l-58 209h-236l-62 -209h-82l221 718h91zM362 296l-88 318l-95 -318h183z" />
    <glyph glyph-name="uni04D3" unicode="&#x4d3;" 
d="M190 623h-75v102h75v-102zM322 623h-75v102h75v-102zM435 0l-9 -3q-20 -7 -33 -7q-37 0 -53.5 18.5t-20.5 61.5q-35 -45 -70.5 -65t-81.5 -20q-62 0 -99.5 42t-37.5 111q0 68 34 110t96 52l119 18q38 6 38 60q0 87 -99 87q-47 0 -70 -23t-31 -78h-66q4 69 26 105
q43 69 146 69q77 0 120.5 -39t43.5 -107v-301q0 -31 23 -31q5 0 25 4v-64zM315 181v86q-11 -10 -33 -16t-85 -17q-49 -8 -70.5 -28.5t-21.5 -59.5q0 -42 20 -65t57 -23q54 0 93.5 36.5t39.5 86.5z" />
    <glyph glyph-name="uni04D4" unicode="&#x4d4;" horiz-adv-x="820" 
d="M780 0h-405v209h-217l-65 -209h-86l239 718h528v-87h-319v-219h291v-87h-291v-238h325v-87zM375 296v335h-80l-109 -335h189z" />
    <glyph glyph-name="uni04D5" unicode="&#x4d5;" horiz-adv-x="729" 
d="M695 233h-314q3 -78 26 -116q31 -55 96 -55q43 0 75.5 29t38.5 73h72q-14 -83 -65 -133q-47 -46 -124 -46q-58 0 -95.5 25.5t-65.5 83.5q-23 -39 -46 -62q-52 -47 -122 -47q-65 0 -103 41.5t-38 111.5q0 68 34 110t96 52l119 18q38 6 38 60q0 87 -99 87q-47 0 -70 -22.5
t-31 -78.5h-66q4 69 26 105q42 69 151 69q48 0 77 -15.5t62 -58.5q35 42 65.5 58t75.5 16q102 0 150 -101q32 -64 37 -204zM620 303q-5 71 -28 107q-30 50 -88 50q-52 0 -85.5 -43t-37.5 -114h239zM315 181v86q-10 -10 -32 -16t-86 -17q-49 -8 -70.5 -29t-21.5 -59
q0 -42 20 -65t57 -23q54 0 93.5 36.5t39.5 86.5z" />
    <glyph glyph-name="uni04D6" unicode="&#x4d6;" horiz-adv-x="537" 
d="M401 954q-9 -71 -40 -103.5t-89 -32.5q-56 0 -86 33t-37 103h40l2 -7q19 -72 86 -72q37 0 55.5 17.5t29.5 61.5h39zM495 0h-434v718h428v-87h-348v-219h321v-87h-321v-238h354v-87z" />
    <glyph glyph-name="uni04D7" unicode="&#x4d7;" 
d="M393 759q-9 -71 -40 -103.5t-89 -32.5q-56 0 -86 33t-37 103h40l2 -7q19 -72 86 -72q37 0 55.5 17.5t29.5 61.5h39zM423 233h-313q3 -78 25 -116q32 -55 97 -55q44 0 76 29t37 73h72q-14 -85 -63.5 -132t-123.5 -47q-91 0 -144 71.5t-53 195.5q0 131 55 208.5t148 77.5
q102 0 150 -101q19 -39 27 -83t10 -121zM348 303q-5 70 -27 107q-31 50 -88 50q-52 0 -86 -43.5t-37 -113.5h238z" />
    <glyph glyph-name="uni04D8" unicode="&#x4d8;" horiz-adv-x="588" 
d="M554 360q0 -174 -74.5 -276.5t-200.5 -102.5q-137 0 -203 114q-29 49 -38 121h77q17 -76 55 -110q44 -38 107 -38q91 0 143 78.5t52 216.5q0 136 -50 211.5t-140 75.5q-81 0 -130 -73q-27 -41 -43 -123h-77q15 84 34 130t53 81q67 72 170 72q122 0 193.5 -102t71.5 -275z
" />
    <glyph glyph-name="afii10846" unicode="&#x4d9;" horiz-adv-x="410" 
d="M391 271q0 -131 -55 -208.5t-148 -77.5q-144 0 -163 191h70q9 -59 33 -86t67 -27q56 0 87.5 53t31.5 148t-29.5 146t-84.5 51q-82 0 -105 -123h-70q26 200 174 200q88 0 140 -72.5t52 -194.5z" />
    <glyph glyph-name="uni04DA" unicode="&#x4da;" horiz-adv-x="588" 
d="M224 818h-75v102h75v-102zM356 818h-75v102h75v-102zM554 360q0 -174 -74.5 -276.5t-200.5 -102.5q-137 0 -203 114q-29 49 -38 121h77q17 -76 55 -110q44 -38 107 -38q91 0 143 78.5t52 216.5q0 136 -50 211.5t-140 75.5q-81 0 -130 -73q-27 -41 -43 -123h-77
q15 84 34 130t53 81q67 72 170 72q122 0 193.5 -102t71.5 -275z" />
    <glyph glyph-name="uni04DB" unicode="&#x4db;" horiz-adv-x="410" 
d="M176 623h-75v102h75v-102zM308 623h-75v102h75v-102zM391 271q0 -131 -55 -208.5t-148 -77.5q-144 0 -163 191h70q9 -59 33 -86t67 -27q56 0 87.5 53t31.5 148t-29.5 146t-84.5 51q-82 0 -105 -123h-70q26 200 174 200q88 0 140 -72.5t52 -194.5z" />
    <glyph glyph-name="uni04DC" unicode="&#x4dc;" horiz-adv-x="902" 
d="M422 818h-75v102h75v-102zM554 818h-75v102h75v-102zM893 0h-103l-272 350h-27v-350h-80v350h-27l-272 -350h-103l295 382l-289 336h110l250 -290h36v290h80v-290h36l250 290h110l-289 -336z" />
    <glyph glyph-name="uni04DD" unicode="&#x4dd;" horiz-adv-x="658" 
d="M300 623h-75v102h75v-102zM432 623h-75v102h75v-102zM650 0h-93l-193 209v-209h-70v209l-193 -209h-93l235 262l-225 261h91l185 -221v221h70v-221l185 221h91l-225 -261z" />
    <glyph glyph-name="uni04DE" unicode="&#x4de;" horiz-adv-x="541" 
d="M236 818h-75v102h75v-102zM368 818h-75v102h75v-102zM510 197q0 -101 -62 -158.5t-170 -57.5q-129 0 -193 90q-42 58 -43 161h75q1 -61 23 -98q42 -70 142 -70q71 0 111 32.5t40 91.5q0 38 -11 68t-41 52t-78 23h-118v71h122q47 0 72 41t25 87q0 59 -35 91.5t-98 32.5
q-85 0 -124 -61q-19 -33 -23 -85h-75q7 83 30 129q55 100 192 100q107 0 161 -67q49 -63 49 -152q0 -97 -62 -143q91 -47 91 -178z" />
    <glyph glyph-name="uni04DF" unicode="&#x4df;" horiz-adv-x="410" 
d="M166 623h-75v102h75v-102zM298 623h-75v102h75v-102zM378 157q0 -79 -48 -125.5t-130 -46.5q-111 0 -153 79q-19 34 -23 104h70q4 -56 30 -81t81 -25q47 0 74 22t27 60t-18.5 67t-66.5 29h-69v69h58q77 0 77 78q0 34 -24 54t-65 20q-93 0 -97 -87h-70q5 79 47 121.5
t115 42.5q74 0 119 -45t45 -120q0 -65 -42 -99q63 -36 63 -117z" />
    <glyph glyph-name="uni04E0" unicode="&#x4e0;" horiz-adv-x="541" 
d="M510 197q0 -101 -62 -158.5t-170 -57.5q-129 0 -193 90q-42 58 -43 161h75q1 -61 23 -98q42 -70 142 -70q71 0 111 32.5t40 91.5q0 60 -30.5 101.5t-99.5 41.5h-118v71h122q47 0 72 41t25 87q0 59 -35 91.5t-98 32.5q-85 0 -124 -61q-19 -33 -23 -85h-75q7 83 30 129
q55 100 192 100q107 0 161 -67q49 -63 49 -152q0 -97 -62 -143q91 -47 91 -178z" />
    <glyph glyph-name="uni04E1" unicode="&#x4e1;" horiz-adv-x="410" 
d="M378 157q0 -79 -48 -125.5t-130 -46.5q-111 0 -153 79q-19 34 -23 104h70q4 -56 30 -81t81 -25q47 0 74 22t27 60q0 37 -19.5 66.5t-65.5 29.5h-69v69h58q77 0 77 78q0 34 -24 54t-65 20q-93 0 -97 -87h-70q5 79 47 121.5t115 42.5q74 0 119 -45t45 -120q0 -65 -42 -99
q63 -36 63 -117z" />
    <glyph glyph-name="uni04E2" unicode="&#x4e2;" horiz-adv-x="596" 
d="M424 797h-258v57h258v-57zM529 0h-77v583l-302 -583h-89v718h77v-583l297 583h94v-718z" />
    <glyph glyph-name="uni04E3" unicode="&#x4e3;" horiz-adv-x="455" 
d="M356 598h-256v57h256v-57zM403 0h-72v427l-186 -427h-92v523h72v-432l186 432h92v-523z" />
    <glyph glyph-name="uni04E4" unicode="&#x4e4;" horiz-adv-x="596" 
d="M266 797h-74v102h74v-102zM398 797h-74v102h74v-102zM529 0h-77v583l-302 -583h-89v718h77v-583l297 583h94v-718z" />
    <glyph glyph-name="uni04E5" unicode="&#x4e5;" horiz-adv-x="455" 
d="M200 598h-76v102h76v-102zM332 598h-76v102h76v-102zM403 0h-72v427l-186 -427h-92v523h72v-432l186 432h92v-523z" />
    <glyph glyph-name="uni04E6" unicode="&#x4e6;" horiz-adv-x="638" 
d="M290 818h-75v102h75v-102zM422 818h-75v102h75v-102zM606 358q0 -174 -89 -286q-72 -91 -198 -91t-198 91q-89 112 -89 286q0 179 89 288q74 91 202 91q157 0 236 -157q47 -97 47 -222zM524 359q0 130 -56 210.5t-146 80.5q-95 0 -151.5 -79t-56.5 -213q0 -130 56.5 -210
t148.5 -80t148.5 80t56.5 211z" />
    <glyph glyph-name="uni04E7" unicode="&#x4e7;" 
d="M200 623h-75v102h75v-102zM332 623h-75v102h75v-102zM427 262q0 -122 -55.5 -199t-143.5 -77t-143.5 77t-55.5 199q0 124 55.5 200t146.5 76q86 0 141 -77.5t55 -198.5zM352 262q0 90 -33.5 144.5t-88.5 54.5q-58 0 -92 -53.5t-34 -145.5q0 -91 34 -145t90 -54t90 54
t34 145z" />
    <glyph glyph-name="uni04E8" unicode="&#x4e8;" horiz-adv-x="638" 
d="M606 358q0 -174 -89 -286q-72 -91 -198 -91t-198 91q-89 112 -89 286q0 179 89 288q74 91 202 91q157 0 236 -157q47 -97 47 -222zM523 387q-6 119 -61 191t-140 72q-90 0 -145.5 -71t-61.5 -192h408zM523 330h-408q6 -119 61.5 -190.5t142.5 -71.5t142.5 71.5
t61.5 190.5z" />
    <glyph glyph-name="uni04E9" unicode="&#x4e9;" 
d="M427 262q0 -122 -55.5 -199t-143.5 -77t-143.5 77t-55.5 199q0 124 55.5 200t146.5 76q86 0 141 -77.5t55 -198.5zM351 288q-5 79 -37.5 126t-83.5 47q-54 0 -87 -46.5t-38 -126.5h246zM351 231h-246q6 -77 39 -122.5t84 -45.5t84 45.5t39 122.5z" />
    <glyph glyph-name="uni04EA" unicode="&#x4ea;" horiz-adv-x="638" 
d="M290 818h-75v102h75v-102zM422 818h-75v102h75v-102zM606 358q0 -174 -89 -286q-72 -91 -198 -91t-198 91q-89 112 -89 286q0 179 89 288q74 91 202 91q157 0 236 -157q47 -97 47 -222zM523 387q-6 119 -61 191t-140 72q-90 0 -145.5 -71t-61.5 -192h408zM523 330h-408
q6 -119 61.5 -190.5t142.5 -71.5t142.5 71.5t61.5 190.5z" />
    <glyph glyph-name="uni04EB" unicode="&#x4eb;" 
d="M200 623h-75v102h75v-102zM332 623h-75v102h75v-102zM427 262q0 -122 -55.5 -199t-143.5 -77t-143.5 77t-55.5 199q0 124 55.5 200t146.5 76q86 0 141 -77.5t55 -198.5zM351 288q-5 79 -37.5 126t-83.5 47q-54 0 -87 -46.5t-38 -126.5h246zM351 231h-246q6 -77 39 -122.5
t84 -45.5t84 45.5t39 122.5z" />
    <glyph glyph-name="uni04EC" unicode="&#x4ec;" horiz-adv-x="590" 
d="M225 818h-75v102h75v-102zM357 818h-75v102h75v-102zM554 358q0 -173 -71.5 -275t-193.5 -102q-103 0 -170 72q-34 35 -53 81t-34 130h77q16 -82 43 -123q49 -73 130 -73q85 0 134.5 67.5t54.5 189.5h-279v87h277q-10 113 -60 175.5t-132 62.5q-63 0 -107 -38
q-38 -34 -55 -110h-77q9 72 38 121q66 114 203 114q126 0 200.5 -102.5t74.5 -276.5z" />
    <glyph glyph-name="uni04ED" unicode="&#x4ed;" horiz-adv-x="410" 
d="M174 623h-75v102h75v-102zM306 623h-75v102h75v-102zM391 252q0 -122 -52 -194.5t-140 -72.5q-148 0 -174 200h70q23 -123 105 -123q52 0 82 48t32 137h-166v70h162q-19 143 -115 143q-43 0 -67 -27t-33 -86h-70q19 191 163 191q93 0 148 -77.5t55 -208.5z" />
    <glyph glyph-name="uni04EE" unicode="&#x4ee;" horiz-adv-x="548" 
d="M403 818h-257v57h257v-57zM536 718l-369 -718h-88l148 298l-215 420h93l169 -345l169 345h93z" />
    <glyph glyph-name="uni04EF" unicode="&#x4ef;" horiz-adv-x="409" 
d="M333 623h-257v57h257v-57zM400 523l-155 -513q-26 -84 -40 -123t-33 -65t-37 -31t-53 -5q-13 0 -29 6l-6 2v80q21 -9 44 -9q22 0 34 13.5t24 53.5l18 54l-159 537h81l115 -429l116 429h80z" />
    <glyph glyph-name="uni04F0" unicode="&#x4f0;" horiz-adv-x="548" 
d="M246 818h-75v102h75v-102zM378 818h-75v102h75v-102zM536 718l-369 -718h-88l148 298l-215 420h93l169 -345l169 345h93z" />
    <glyph glyph-name="uni04F1" unicode="&#x4f1;" horiz-adv-x="409" 
d="M176 623h-75v102h75v-102zM308 623h-75v102h75v-102zM400 523l-155 -513q-26 -84 -40 -123t-33 -65t-37 -31t-53 -5q-13 0 -29 6l-6 2v80q21 -9 44 -9q22 0 34 13.5t24 53.5l18 54l-159 537h81l115 -429l116 429h80z" />
    <glyph glyph-name="uni04F2" unicode="&#x4f2;" horiz-adv-x="548" 
d="M281 959l-107 -141h-55l73 141h89zM429 959l-107 -141h-55l73 141h89zM536 718l-369 -718h-88l148 298l-215 420h93l169 -345l169 345h93z" />
    <glyph glyph-name="uni04F3" unicode="&#x4f3;" horiz-adv-x="409" 
d="M211 764l-107 -141h-55l73 141h89zM359 764l-107 -141h-55l73 141h89zM400 523l-155 -513q-26 -84 -40 -123t-33 -65t-37 -31t-53 -5q-13 0 -29 6l-6 2v80q21 -9 44 -9q22 0 34 13.5t24 53.5l18 54l-159 537h81l115 -429l116 429h80z" />
    <glyph glyph-name="uni04F4" unicode="&#x4f4;" horiz-adv-x="547" 
d="M242 797h-74v102h74v-102zM374 797h-74v102h74v-102zM480 0h-80v291q-6 -9 -49 -22.5t-78 -13.5q-46 0 -91 11t-82.5 42.5t-37.5 77.5v332h80v-324q0 -29 41.5 -43t89.5 -14q47 0 87 14.5t40 35.5v331h80v-718z" />
    <glyph glyph-name="uni04F5" unicode="&#x4f5;" horiz-adv-x="406" 
d="M184 598h-76v102h76v-102zM316 598h-76v102h76v-102zM371 0h-72v198q-8 -9 -38 -16.5t-53 -7.5q-37 0 -69 7.5t-59 31t-27 60.5v250h72v-242q0 -37 87 -37q28 0 57.5 10.5t29.5 29.5v239h72v-523z" />
    <glyph glyph-name="uni04F8" unicode="&#x4f8;" horiz-adv-x="783" 
d="M360 818h-75v102h75v-102zM492 818h-75v102h75v-102zM716 0h-79v718h79v-718zM500 203q0 -91 -48 -147t-127 -56h-264v718h80v-303h184q79 0 127 -58t48 -154zM418 206q0 126 -120 126h-157v-249h160q117 0 117 123z" />
    <glyph glyph-name="uni04F9" unicode="&#x4f9;" horiz-adv-x="585" 
d="M264 623h-75v102h75v-102zM396 623h-75v102h75v-102zM533 0h-72v523h72v-523zM419 161q0 -72 -51 -116.5t-140 -44.5h-175v524l68 -1v-217h126q81 0 126.5 -43t45.5 -102zM347 161q0 43 -33 61t-104 18h-89v-170h103q59 0 91 23t32 68z" />
    <glyph glyph-name="baht" unicode="&#xe3f;" horiz-adv-x="547" 
d="M514 214q0 -97 -54.5 -155.5t-144.5 -58.5h-21v-83h-53v83h-180v718h180v83h53v-83h26q75 0 120.5 -49.5t45.5 -131.5q0 -99 -78 -150q58 -29 82 -68t24 -105zM406 528q0 53 -27 79t-85 28v-221q112 4 112 114zM241 414v221h-100v-221h100zM434 214q0 122 -137 122h-3
v-253h17q58 0 90.5 34.5t32.5 96.5zM241 336h-100v-253h100v253z" />
    <glyph glyph-name="Ddotbelow" unicode="&#x1e0c;" horiz-adv-x="592" 
d="M553 367q0 -160 -65.5 -263.5t-185.5 -103.5h-236v718h239q113 0 180.5 -95.5t67.5 -255.5zM471 359q0 133 -45.5 204.5t-130.5 71.5h-149v-552h154q79 0 125 74t46 202zM338 -180h-86v96h86v-96z" />
    <glyph glyph-name="ddotbelow" unicode="&#x1e0d;" 
d="M409 0h-68v75q-23 -49 -51.5 -69.5t-72.5 -20.5q-85 0 -136.5 79t-51.5 210q0 119 49 191.5t128 72.5q44 0 75 -22t56 -72v274h72v-718zM336 248q0 103 -29.5 157.5t-85.5 54.5q-117 0 -117 -191q0 -98 30 -152.5t84 -54.5q55 0 86.5 49t31.5 137zM271 -180h-86v96h86
v-96z" />
    <glyph glyph-name="Dlinebelow" unicode="&#x1e0e;" horiz-adv-x="592" 
d="M553 367q0 -160 -65.5 -263.5t-185.5 -103.5h-236v718h239q113 0 180.5 -95.5t67.5 -255.5zM471 359q0 133 -45.5 204.5t-130.5 71.5h-149v-552h154q79 0 125 74t46 202zM424 -160h-257v57h257v-57z" />
    <glyph glyph-name="dlinebelow" unicode="&#x1e0f;" 
d="M409 0h-68v75q-23 -49 -51.5 -69.5t-72.5 -20.5q-85 0 -136.5 79t-51.5 210q0 119 49 191.5t128 72.5q44 0 75 -22t56 -72v274h72v-718zM336 248q0 103 -29.5 157.5t-85.5 54.5q-117 0 -117 -191q0 -98 30 -152.5t84 -54.5q55 0 86.5 49t31.5 137zM357 -160h-257v57h257
v-57z" />
    <glyph glyph-name="Hdotbelow" unicode="&#x1e24;" horiz-adv-x="592" 
d="M530 0h-80v334h-307v-334h-80v718h80v-297h307v297h80v-718zM340 -180h-86v96h86v-96z" />
    <glyph glyph-name="hdotbelow" unicode="&#x1e25;" 
d="M403 0h-72v342q0 62 -20 90t-64 28q-58 0 -90 -46t-32 -129v-285h-72v718h72v-267q31 49 60.5 68t72.5 19q68 0 106.5 -48t38.5 -134v-356zM271 -180h-86v96h86v-96z" />
    <glyph glyph-name="Hdieresis" unicode="&#x1e26;" horiz-adv-x="592" 
d="M530 0h-80v334h-307v-334h-80v718h80v-297h307v297h80v-718zM261 792h-88v96h88v-96zM422 792h-88v96h88v-96z" />
    <glyph glyph-name="hdieresis" unicode="&#x1e27;" 
d="M403 0h-72v342q0 62 -20 90t-64 28q-58 0 -90 -46t-32 -129v-285h-72v718h72v-267q31 49 60.5 68t72.5 19q68 0 106.5 -48t38.5 -134v-356zM192 792h-88v96h88v-96zM353 792h-88v96h88v-96z" />
    <glyph glyph-name="Hbrevebelow" unicode="&#x1e2a;" horiz-adv-x="592" 
d="M530 0h-80v334h-307v-334h-80v718h80v-297h307v297h80v-718zM433 -74q-17 -58 -50 -87t-89 -29q-102 0 -133 116h40l2 -7q40 -52 96 -52q35 0 54 14t31 45h49z" />
    <glyph glyph-name="hbrevebelow" unicode="&#x1e2b;" 
d="M403 0h-72v342q0 62 -20 90t-64 28q-58 0 -90 -46t-32 -129v-285h-72v718h72v-267q31 49 60.5 68t72.5 19q68 0 106.5 -48t38.5 -134v-356zM364 -74q-17 -58 -50 -87t-89 -29q-102 0 -133 116h40l2 -7q40 -52 96 -52q35 0 54 14t31 45h49z" />
    <glyph glyph-name="Ldotbelow" unicode="&#x1e36;" 
d="M440 0h-378v718h80v-631h298v-87zM294 -180h-86v96h86v-96z" />
    <glyph glyph-name="ldotbelow" unicode="&#x1e37;" horiz-adv-x="182" 
d="M127 0h-72v718h72v-718zM134 -180h-86v96h86v-96z" />
    <glyph glyph-name="Ldotbelowmacron" unicode="&#x1e38;" 
d="M440 0h-378v718h80v-631h298v-87zM294 -180h-86v96h86v-96zM231 812h-257v57h257v-57z" />
    <glyph glyph-name="ldotbelowmacron" unicode="&#x1e39;" horiz-adv-x="182" 
d="M127 0h-72v718h72v-718zM134 -180h-86v96h86v-96zM220 812h-257v57h257v-57z" />
    <glyph glyph-name="Mdotbelow" unicode="&#x1e42;" horiz-adv-x="683" 
d="M624 0h-75v424v185l-168 -609h-78l-166 608v-138v-470h-77v718h114l169 -610l168 610h113v-718zM385 -180h-86v96h86v-96z" />
    <glyph glyph-name="mdotbelow" unicode="&#x1e43;" horiz-adv-x="683" 
d="M631 0h-72v338q0 122 -78 122q-43 0 -73 -41t-30 -100v-319h-72v362q0 46 -17.5 72t-49.5 26q-52 0 -83 -48t-31 -127v-285h-72v523h68v-77q28 49 59 70.5t74 21.5q40 0 66.5 -19.5t46.5 -65.5q37 50 63.5 67.5t65.5 17.5q62 0 98.5 -47t36.5 -129v-362zM385 -180h-86v96
h86v-96z" />
    <glyph glyph-name="Ndotaccent" unicode="&#x1e44;" horiz-adv-x="592" 
d="M530 0h-89l-302 583v-583h-77v718h94l297 -583v583h77v-718zM340 792h-86v96h86v-96z" />
    <glyph glyph-name="ndotaccent" unicode="&#x1e45;" 
d="M403 0h-72v322q0 72 -21 105t-67 33q-55 0 -86.5 -46.5t-31.5 -128.5v-285h-72v523h68v-77q52 92 137 92q68 0 106.5 -48t38.5 -134v-356zM271 607h-86v96h86v-96z" />
    <glyph glyph-name="Ndotbelow" unicode="&#x1e46;" horiz-adv-x="592" 
d="M530 0h-89l-302 583v-583h-77v718h94l297 -583v583h77v-718zM339 -180h-86v96h86v-96z" />
    <glyph glyph-name="ndotbelow" unicode="&#x1e47;" 
d="M403 0h-72v322q0 72 -21 105t-67 33q-55 0 -86.5 -46.5t-31.5 -128.5v-285h-72v523h68v-77q52 92 137 92q68 0 106.5 -48t38.5 -134v-356zM271 -180h-86v96h86v-96z" />
    <glyph glyph-name="Rdotaccent" unicode="&#x1e58;" horiz-adv-x="592" 
d="M561 0h-98q-13 54 -13 180q0 68 -25 98t-80 30h-193v-308h-80v718h273q94 0 143.5 -50t49.5 -144q0 -61 -18 -99t-64 -72q38 -18 52.5 -45.5t18.5 -89.5l4 -130q1 -33 6.5 -46t23.5 -26v-16zM456 516q0 119 -106 119h-198v-244h184q61 0 90.5 30.5t29.5 94.5zM326 792
h-86v96h86v-96z" />
    <glyph glyph-name="rdotaccent" unicode="&#x1e59;" horiz-adv-x="273" 
d="M272 445h-27q-48 0 -79 -39.5t-31 -100.5v-305h-72v523h68v-89q29 56 57 80t65 24q9 0 19 -3v-90zM178 607h-86v96h86v-96z" />
    <glyph glyph-name="Rdotbelow" unicode="&#x1e5a;" horiz-adv-x="592" 
d="M561 0h-98q-13 54 -13 180q0 68 -25 98t-80 30h-193v-308h-80v718h273q94 0 143.5 -50t49.5 -144q0 -61 -18 -99t-64 -72q38 -18 52.5 -45.5t18.5 -89.5l4 -130q1 -33 6.5 -46t23.5 -26v-16zM456 516q0 119 -106 119h-198v-244h184q61 0 90.5 30.5t29.5 94.5zM325 -180
h-86v96h86v-96z" />
    <glyph glyph-name="rdotbelow" unicode="&#x1e5b;" horiz-adv-x="273" 
d="M272 445h-27q-48 0 -79 -39.5t-31 -100.5v-305h-72v523h68v-89q29 56 57 80t65 24q9 0 19 -3v-90zM142 -180h-86v96h86v-96z" />
    <glyph glyph-name="Rdotbelowmacron" unicode="&#x1e5c;" horiz-adv-x="592" 
d="M561 0h-98q-13 54 -13 180q0 68 -25 98t-80 30h-193v-308h-80v718h273q94 0 143.5 -50t49.5 -144q0 -61 -18 -99t-64 -72q38 -18 52.5 -45.5t18.5 -89.5l4 -130q1 -33 6.5 -46t23.5 -26v-16zM456 516q0 119 -106 119h-198v-244h184q61 0 90.5 30.5t29.5 94.5zM325 -180
h-86v96h86v-96zM411 812h-257v57h257v-57z" />
    <glyph glyph-name="rdotbelowmacron" unicode="&#x1e5d;" horiz-adv-x="273" 
d="M272 445h-27q-48 0 -79 -39.5t-31 -100.5v-305h-72v523h68v-89q29 56 57 80t65 24q9 0 19 -3v-90zM142 -180h-86v96h86v-96zM263 642h-257v57h257v-57z" />
    <glyph glyph-name="Sdotbelow" unicode="&#x1e62;" horiz-adv-x="547" 
d="M508 197q0 -101 -62 -158.5t-170 -57.5t-172 62t-64 189h75q0 -83 43 -125.5t122 -42.5q71 0 111 32.5t40 91.5q0 51 -26.5 77.5t-98.5 46.5l-121 34q-125 35 -125 172q0 97 55.5 158t154.5 61q106 0 164 -56.5t58 -172.5h-75q0 71 -40 108.5t-107 37.5q-63 0 -98 -32.5
t-35 -91.5q0 -74 69 -93l168 -47q134 -38 134 -193zM316 -180h-86v96h86v-96z" />
    <glyph glyph-name="sdotbelow" unicode="&#x1e63;" horiz-adv-x="410" 
d="M380 157q0 -79 -48 -125.5t-130 -46.5q-84 0 -127.5 44t-48.5 139h70q4 -56 30 -81t81 -25q47 0 74 22t27 60q0 29 -17.5 44.5t-67.5 30.5l-84 25q-99 30 -99 129q0 75 45 120t119 45q73 0 115 -42.5t47 -121.5h-70q-4 87 -97 87q-41 0 -65 -20t-24 -54q0 -28 15 -41.5
t62 -27.5l73 -22q65 -19 92.5 -51.5t27.5 -87.5zM246 -180h-86v96h86v-96z" />
    <glyph glyph-name="Tdotbelow" unicode="&#x1e6c;" horiz-adv-x="501" 
d="M490 631h-199v-631h-80v631h-200v87h479v-87zM294 -180h-86v96h86v-96z" />
    <glyph glyph-name="tdotbelow" unicode="&#x1e6d;" horiz-adv-x="228" 
d="M211 450h-70v-340q0 -22 10 -31.5t34 -9.5h25v-69l-28 -3.5l-16 -2t-7 -1t-6 -0.5q-84 0 -84 112v345h-58v73h58v146h72v-146h70v-73zM184 -180h-86v96h86v-96z" />
    <glyph glyph-name="Tlinebelow" unicode="&#x1e6e;" horiz-adv-x="501" 
d="M490 631h-199v-631h-80v631h-200v87h479v-87zM380 -160h-257v57h257v-57z" />
    <glyph glyph-name="tlinebelow" unicode="&#x1e6f;" horiz-adv-x="228" 
d="M211 450h-70v-340q0 -22 10 -31.5t34 -9.5h25v-69l-28 -3.5l-16 -2t-7 -1t-6 -0.5q-84 0 -84 112v345h-58v73h58v146h72v-146h70v-73zM270 -160h-257v57h257v-57z" />
    <glyph glyph-name="Wgrave" unicode="&#x1e80;" horiz-adv-x="774" 
d="M761 718l-155 -718h-84l-135 599l-137 -599h-84l-153 718h86l111 -588l133 588h87l133 -588l110 588h88zM418 779h-60l-107 121h94z" />
    <glyph glyph-name="wgrave" unicode="&#x1e81;" horiz-adv-x="592" 
d="M581 523l-125 -523h-74l-88 409l-85 -409h-74l-124 523h79l83 -415l83 415h81l84 -415l88 415h72zM324 584h-55l-107 141h89z" />
    <glyph glyph-name="Wacute" unicode="&#x1e82;" horiz-adv-x="774" 
d="M761 718l-155 -718h-84l-135 599l-137 -599h-84l-153 718h86l111 -588l133 588h87l133 -588l110 588h88zM524 900l-107 -121h-60l73 121h94z" />
    <glyph glyph-name="wacute" unicode="&#x1e83;" horiz-adv-x="592" 
d="M581 523l-125 -523h-74l-88 409l-85 -409h-74l-124 523h79l83 -415l83 415h81l84 -415l88 415h72zM430 725l-107 -141h-55l73 141h89z" />
    <glyph glyph-name="Wdieresis" unicode="&#x1e84;" horiz-adv-x="774" 
d="M761 718l-155 -718h-84l-135 599l-137 -599h-84l-153 718h86l111 -588l133 588h87l133 -588l110 588h88zM351 792h-88v96h88v-96zM512 792h-88v96h88v-96z" />
    <glyph glyph-name="wdieresis" unicode="&#x1e85;" horiz-adv-x="592" 
d="M581 523l-125 -523h-74l-88 409l-85 -409h-74l-124 523h79l83 -415l83 415h81l84 -415l88 415h72zM259 607h-88v96h88v-96zM420 607h-88v96h88v-96z" />
    <glyph glyph-name="Zdotbelow" unicode="&#x1e92;" horiz-adv-x="501" 
d="M482 0h-463v82l361 549h-334v87h436v-85l-362 -546h362v-87zM307 -180h-86v96h86v-96z" />
    <glyph glyph-name="zdotbelow" unicode="&#x1e93;" horiz-adv-x="410" 
d="M385 0h-360v69l259 381h-239v73h333v-72l-257 -378h264v-73zM248 -180h-86v96h86v-96z" />
    <glyph glyph-name="tdieresis" unicode="&#x1e97;" horiz-adv-x="228" 
d="M211 450h-70v-340q0 -22 10 -31.5t34 -9.5h25v-69l-28 -3.5l-16 -2t-7 -1t-6 -0.5q-84 0 -84 112v345h-58v73h58v146h72v-146h70v-73zM69 743h-88v96h88v-96zM230 743h-88v96h88v-96z" />
    <glyph glyph-name="Adotbelow" unicode="&#x1ea0;" horiz-adv-x="547" 
d="M536 0h-87l-58 209h-236l-62 -209h-82l221 718h91zM362 296l-88 318l-95 -318h183zM317 -180h-86v96h86v-96z" />
    <glyph glyph-name="adotbelow" unicode="&#x1ea1;" 
d="M435 0q-29 -10 -42 -10q-37 0 -53.5 18.5t-20.5 61.5q-35 -45 -70.5 -65t-81.5 -20q-62 0 -99.5 42t-37.5 111q0 68 34 110t96 52l119 18q38 6 38 60q0 87 -99 87q-101 0 -101 -101h-66q0 174 172 174q77 0 120.5 -39t43.5 -107v-301q0 -31 23 -31q5 0 25 4v-64zM315 181
v86q-11 -10 -33 -16t-85 -17q-49 -8 -70.5 -28.5t-21.5 -59.5q0 -42 20 -65t57 -23q54 0 93.5 36.5t39.5 86.5zM266 -180h-86v96h86v-96z" />
    <glyph glyph-name="Ahookabove" unicode="&#x1ea2;" horiz-adv-x="547" 
d="M536 0h-87l-58 209h-236l-62 -209h-82l221 718h91zM362 296l-88 318l-95 -318h183zM382 871q0 -20 -9.5 -33t-35.5 -29q-20 -14 -25.5 -19.5t-5.5 -12.5v-24h-56v27q0 18 10 29.5t38 28.5q29 19 29 33q0 11 -12.5 18t-33.5 7q-30 0 -41 -14q-6 -8 -6 -34h-55q0 92 104 92
q46 0 72.5 -18.5t26.5 -50.5z" />
    <glyph glyph-name="ahookabove" unicode="&#x1ea3;" 
d="M435 0q-29 -10 -42 -10q-37 0 -53.5 18.5t-20.5 61.5q-35 -45 -70.5 -65t-81.5 -20q-62 0 -99.5 42t-37.5 111q0 68 34 110t96 52l119 18q38 6 38 60q0 87 -99 87q-101 0 -101 -101h-66q0 174 172 174q77 0 120.5 -39t43.5 -107v-301q0 -31 23 -31q5 0 25 4v-64zM315 181
v86q-11 -10 -33 -16t-85 -17q-49 -8 -70.5 -28.5t-21.5 -59.5q0 -42 20 -65t57 -23q54 0 93.5 36.5t39.5 86.5zM327 676q0 -20 -9.5 -33t-35.5 -29q-20 -14 -25.5 -19.5t-5.5 -12.5v-24h-56v27q0 18 10 29.5t38 28.5q29 19 29 33q0 11 -12.5 18t-33.5 7q-30 0 -41 -14
q-6 -7 -6 -34h-55q0 92 104 92q46 0 72.5 -18.5t26.5 -50.5z" />
    <glyph glyph-name="Acircumflexacute" unicode="&#x1ea4;" horiz-adv-x="547" 
d="M536 0h-87l-58 209h-236l-62 -209h-82l221 718h91zM362 296l-88 318l-95 -318h183zM415 1042l-107 -121h-60l73 121h94zM413 780h-66l-69 73l-69 -73h-65l96 121h77z" />
    <glyph glyph-name="acircumflexacute" unicode="&#x1ea5;" 
d="M435 0q-29 -10 -42 -10q-37 0 -53.5 18.5t-20.5 61.5q-35 -45 -70.5 -65t-81.5 -20q-62 0 -99.5 42t-37.5 111q0 68 34 110t96 52l119 18q38 6 38 60q0 87 -99 87q-101 0 -101 -101h-66q0 174 172 174q77 0 120.5 -39t43.5 -107v-301q0 -31 23 -31q5 0 25 4v-64zM315 181
v86q-11 -10 -33 -16t-85 -17q-49 -8 -70.5 -28.5t-21.5 -59.5q0 -42 20 -65t57 -23q54 0 93.5 36.5t39.5 86.5zM360 847l-107 -121h-60l73 121h94zM358 585h-66l-69 73l-69 -73h-65l96 121h77z" />
    <glyph glyph-name="Acircumflexgrave" unicode="&#x1ea6;" horiz-adv-x="547" 
d="M536 0h-87l-58 209h-236l-62 -209h-82l221 718h91zM362 296l-88 318l-95 -318h183zM309 921h-60l-107 121h94zM413 780h-66l-69 73l-69 -73h-65l96 121h77z" />
    <glyph glyph-name="acircumflexgrave" unicode="&#x1ea7;" 
d="M435 0q-29 -10 -42 -10q-37 0 -53.5 18.5t-20.5 61.5q-35 -45 -70.5 -65t-81.5 -20q-62 0 -99.5 42t-37.5 111q0 68 34 110t96 52l119 18q38 6 38 60q0 87 -99 87q-101 0 -101 -101h-66q0 174 172 174q77 0 120.5 -39t43.5 -107v-301q0 -31 23 -31q5 0 25 4v-64zM315 181
v86q-11 -10 -33 -16t-85 -17q-49 -8 -70.5 -28.5t-21.5 -59.5q0 -42 20 -65t57 -23q54 0 93.5 36.5t39.5 86.5zM254 726h-60l-107 121h94zM358 585h-66l-69 73l-69 -73h-65l96 121h77z" />
    <glyph glyph-name="Acircumflexhookabove" unicode="&#x1ea8;" horiz-adv-x="547" 
d="M536 0h-87l-58 209h-236l-62 -209h-82l221 718h91zM362 296l-88 318l-95 -318h183zM413 1027q0 -17 -9.5 -29t-35.5 -28q-20 -12 -25.5 -17t-5.5 -11v-21h-56v24q0 17 9.5 27t37.5 25q29 17 29 30q0 22 -46 22q-31 0 -40 -12q-6 -6 -6 -31h-55q0 83 104 83q45 0 72 -17
t27 -45zM413 780h-66l-69 73l-69 -73h-65l96 121h77z" />
    <glyph glyph-name="acircumflexhookabove" unicode="&#x1ea9;" 
d="M435 0q-29 -10 -42 -10q-37 0 -53.5 18.5t-20.5 61.5q-35 -45 -70.5 -65t-81.5 -20q-62 0 -99.5 42t-37.5 111q0 68 34 110t96 52l119 18q38 6 38 60q0 87 -99 87q-101 0 -101 -101h-66q0 174 172 174q77 0 120.5 -39t43.5 -107v-301q0 -31 23 -31q5 0 25 4v-64zM315 181
v86q-11 -10 -33 -16t-85 -17q-49 -8 -70.5 -28.5t-21.5 -59.5q0 -42 20 -65t57 -23q54 0 93.5 36.5t39.5 86.5zM358 832q0 -17 -9.5 -29t-35.5 -28q-20 -12 -25.5 -17t-5.5 -11v-21h-56v24q0 17 9.5 27t37.5 25q29 17 29 30q0 22 -46 22q-31 0 -40 -12q-6 -6 -6 -31h-55
q0 83 104 83q45 0 72 -17t27 -45zM358 585h-66l-69 73l-69 -73h-65l96 121h77z" />
    <glyph glyph-name="Acircumflextilde" unicode="&#x1eaa;" horiz-adv-x="547" 
d="M536 0h-87l-58 209h-236l-62 -209h-82l221 718h91zM362 296l-88 318l-95 -318h183zM418 1047q-15 -109 -83 -109q-15 0 -47 13l-21 9q-34 15 -51 15q-26 0 -38 -44h-39q14 107 85 107q23 0 56 -15l18 -9q26 -13 41 -13q30 0 38 46h41zM413 780h-66l-69 73l-69 -73h-65
l96 121h77z" />
    <glyph glyph-name="acircumflextilde" unicode="&#x1eab;" 
d="M435 0q-29 -10 -42 -10q-37 0 -53.5 18.5t-20.5 61.5q-35 -45 -70.5 -65t-81.5 -20q-62 0 -99.5 42t-37.5 111q0 68 34 110t96 52l119 18q38 6 38 60q0 87 -99 87q-101 0 -101 -101h-66q0 174 172 174q77 0 120.5 -39t43.5 -107v-301q0 -31 23 -31q5 0 25 4v-64zM315 181
v86q-11 -10 -33 -16t-85 -17q-49 -8 -70.5 -28.5t-21.5 -59.5q0 -42 20 -65t57 -23q54 0 93.5 36.5t39.5 86.5zM363 852q-15 -109 -83 -109q-15 0 -47 13l-21 9q-34 15 -51 15q-26 0 -38 -44h-39q14 107 85 107q23 0 56 -15l18 -9q26 -13 41 -13q30 0 38 46h41zM358 585h-66
l-69 73l-69 -73h-65l96 121h77z" />
    <glyph glyph-name="Acircumflexdotbelow" unicode="&#x1eac;" horiz-adv-x="547" 
d="M536 0h-87l-58 209h-236l-62 -209h-82l221 718h91zM362 296l-88 318l-95 -318h183zM412 780h-66l-69 73l-69 -73h-65l96 121h77zM317 -180h-86v96h86v-96z" />
    <glyph glyph-name="acircumflexdotbelow" unicode="&#x1ead;" 
d="M435 0q-29 -10 -42 -10q-37 0 -53.5 18.5t-20.5 61.5q-35 -45 -70.5 -65t-81.5 -20q-62 0 -99.5 42t-37.5 111q0 68 34 110t96 52l119 18q38 6 38 60q0 87 -99 87q-101 0 -101 -101h-66q0 174 172 174q77 0 120.5 -39t43.5 -107v-301q0 -31 23 -31q5 0 25 4v-64zM315 181
v86q-11 -10 -33 -16t-85 -17q-49 -8 -70.5 -28.5t-21.5 -59.5q0 -42 20 -65t57 -23q54 0 93.5 36.5t39.5 86.5zM342 585h-66l-54 93l-54 -93h-65l81 141h77zM266 -180h-86v96h86v-96z" />
    <glyph glyph-name="Abreveacute" unicode="&#x1eae;" horiz-adv-x="547" 
d="M536 0h-87l-58 209h-236l-62 -209h-82l221 718h91zM362 296l-88 318l-95 -318h183zM415 1047l-107 -121h-60l73 121h94zM415 898q-17 -58 -50 -87t-89 -29q-102 0 -133 116h40l2 -7q40 -52 96 -52q35 0 54 14t31 45h49z" />
    <glyph glyph-name="abreveacute" unicode="&#x1eaf;" 
d="M435 0q-29 -10 -42 -10q-37 0 -53.5 18.5t-20.5 61.5q-35 -45 -70.5 -65t-81.5 -20q-62 0 -99.5 42t-37.5 111q0 68 34 110t96 52l119 18q38 6 38 60q0 87 -99 87q-101 0 -101 -101h-66q0 174 172 174q77 0 120.5 -39t43.5 -107v-301q0 -31 23 -31q5 0 25 4v-64zM315 181
v86q-11 -10 -33 -16t-85 -17q-49 -8 -70.5 -28.5t-21.5 -59.5q0 -42 20 -65t57 -23q54 0 93.5 36.5t39.5 86.5zM360 852l-107 -121h-60l73 121h94zM360 703q-17 -58 -50 -87t-89 -29q-102 0 -133 116h40l2 -7q40 -52 96 -52q35 0 54 14t31 45h49z" />
    <glyph glyph-name="Abrevegrave" unicode="&#x1eb0;" horiz-adv-x="547" 
d="M536 0h-87l-58 209h-236l-62 -209h-82l221 718h91zM362 296l-88 318l-95 -318h183zM309 926h-60l-107 121h94zM415 898q-17 -58 -50 -87t-89 -29q-102 0 -133 116h40l2 -7q40 -52 96 -52q35 0 54 14t31 45h49z" />
    <glyph glyph-name="abrevegrave" unicode="&#x1eb1;" 
d="M435 0q-29 -10 -42 -10q-37 0 -53.5 18.5t-20.5 61.5q-35 -45 -70.5 -65t-81.5 -20q-62 0 -99.5 42t-37.5 111q0 68 34 110t96 52l119 18q38 6 38 60q0 87 -99 87q-101 0 -101 -101h-66q0 174 172 174q77 0 120.5 -39t43.5 -107v-301q0 -31 23 -31q5 0 25 4v-64zM315 181
v86q-11 -10 -33 -16t-85 -17q-49 -8 -70.5 -28.5t-21.5 -59.5q0 -42 20 -65t57 -23q54 0 93.5 36.5t39.5 86.5zM254 731h-60l-107 121h94zM360 703q-17 -58 -50 -87t-89 -29q-102 0 -133 116h40l2 -7q40 -52 96 -52q35 0 54 14t31 45h49z" />
    <glyph glyph-name="Abrevehookabove" unicode="&#x1eb2;" horiz-adv-x="547" 
d="M536 0h-87l-58 209h-236l-62 -209h-82l221 718h91zM362 296l-88 318l-95 -318h183zM380 994q0 -17 -9.5 -29t-35.5 -27q-20 -12 -25.5 -17t-5.5 -11v-22h-56v24q0 17 10 27.5t38 25.5q28 16 28 29q0 10 -12.5 16.5t-32.5 6.5q-31 0 -41 -13q-6 -8 -6 -30h-55q0 82 104 82
q45 0 72 -17t27 -45zM415 898q-17 -58 -50 -87t-89 -29q-102 0 -133 116h40l2 -7q40 -52 96 -52q35 0 54 14t31 45h49z" />
    <glyph glyph-name="abrevehookabove" unicode="&#x1eb3;" 
d="M435 0q-29 -10 -42 -10q-37 0 -53.5 18.5t-20.5 61.5q-35 -45 -70.5 -65t-81.5 -20q-62 0 -99.5 42t-37.5 111q0 68 34 110t96 52l119 18q38 6 38 60q0 87 -99 87q-101 0 -101 -101h-66q0 174 172 174q77 0 120.5 -39t43.5 -107v-301q0 -31 23 -31q5 0 25 4v-64zM315 181
v86q-11 -10 -33 -16t-85 -17q-49 -8 -70.5 -28.5t-21.5 -59.5q0 -42 20 -65t57 -23q54 0 93.5 36.5t39.5 86.5zM325 799q0 -17 -9.5 -29t-35.5 -27q-20 -12 -25.5 -17t-5.5 -11v-22h-56v24q0 17 10 27.5t38 25.5q28 16 28 29q0 10 -12.5 16.5t-32.5 6.5q-31 0 -41 -13
q-6 -7 -6 -30h-55q0 82 104 82q45 0 72 -17t27 -45zM360 703q-17 -58 -50 -87t-89 -29q-102 0 -133 116h40l2 -7q40 -52 96 -52q35 0 54 14t31 45h49z" />
    <glyph glyph-name="Abrevetilde" unicode="&#x1eb4;" horiz-adv-x="547" 
d="M536 0h-87l-58 209h-236l-62 -209h-82l221 718h91zM362 296l-88 318l-95 -318h183zM418 1051q-15 -109 -83 -109q-15 0 -47 13l-21 9q-34 15 -51 15q-26 0 -38 -44h-39q14 107 85 107q23 0 56 -15l18 -9q26 -13 41 -13q30 0 38 46h41zM415 898q-17 -58 -50 -87t-89 -29
q-102 0 -133 116h40l2 -7q40 -52 96 -52q35 0 54 14t31 45h49z" />
    <glyph glyph-name="abrevetilde" unicode="&#x1eb5;" 
d="M435 0q-29 -10 -42 -10q-37 0 -53.5 18.5t-20.5 61.5q-35 -45 -70.5 -65t-81.5 -20q-62 0 -99.5 42t-37.5 111q0 68 34 110t96 52l119 18q38 6 38 60q0 87 -99 87q-101 0 -101 -101h-66q0 174 172 174q77 0 120.5 -39t43.5 -107v-301q0 -31 23 -31q5 0 25 4v-64zM315 181
v86q-11 -10 -33 -16t-85 -17q-49 -8 -70.5 -28.5t-21.5 -59.5q0 -42 20 -65t57 -23q54 0 93.5 36.5t39.5 86.5zM363 856q-15 -109 -83 -109q-15 0 -47 13l-21 9q-34 15 -51 15q-26 0 -38 -44h-39q14 107 85 107q23 0 56 -15l18 -9q26 -13 41 -13q30 0 38 46h41zM360 703
q-17 -58 -50 -87t-89 -29q-102 0 -133 116h40l2 -7q40 -52 96 -52q35 0 54 14t31 45h49z" />
    <glyph glyph-name="Abrevedotbelow" unicode="&#x1eb6;" horiz-adv-x="547" 
d="M536 0h-87l-58 209h-236l-62 -209h-82l221 718h91zM362 296l-88 318l-95 -318h183zM414 898q-17 -58 -50 -87t-89 -29q-102 0 -133 116h40l2 -7q40 -52 96 -52q35 0 54 14t31 45h49zM317 -180h-86v96h86v-96z" />
    <glyph glyph-name="abrevedotbelow" unicode="&#x1eb7;" 
d="M435 0q-29 -10 -42 -10q-37 0 -53.5 18.5t-20.5 61.5q-35 -45 -70.5 -65t-81.5 -20q-62 0 -99.5 42t-37.5 111q0 68 34 110t96 52l119 18q38 6 38 60q0 87 -99 87q-101 0 -101 -101h-66q0 174 172 174q77 0 120.5 -39t43.5 -107v-301q0 -31 23 -31q5 0 25 4v-64zM315 181
v86q-11 -10 -33 -16t-85 -17q-49 -8 -70.5 -28.5t-21.5 -59.5q0 -42 20 -65t57 -23q54 0 93.5 36.5t39.5 86.5zM349 723q-9 -71 -40 -103.5t-89 -32.5q-56 0 -86 33t-37 103h40l2 -7q19 -72 86 -72q37 0 55.5 17.5t29.5 61.5h39zM266 -180h-86v96h86v-96z" />
    <glyph glyph-name="Edotbelow" unicode="&#x1eb8;" horiz-adv-x="547" 
d="M505 0h-434v718h428v-87h-348v-219h321v-87h-321v-238h354v-87zM317 -180h-86v96h86v-96z" />
    <glyph glyph-name="edotbelow" unicode="&#x1eb9;" 
d="M423 233h-313q6 -171 122 -171q44 0 76 29t37 73h72q-14 -85 -63.5 -132t-123.5 -47q-91 0 -144 71.5t-53 195.5q0 131 55 208.5t148 77.5q87 0 134.5 -71.5t52.5 -233.5zM348 303q-11 157 -115 157q-52 0 -86 -43.5t-37 -113.5h238zM271 -180h-86v96h86v-96z" />
    <glyph glyph-name="Ehookabove" unicode="&#x1eba;" horiz-adv-x="547" 
d="M505 0h-434v718h428v-87h-348v-219h321v-87h-321v-238h354v-87zM389 871q0 -20 -9.5 -33t-35.5 -29q-20 -14 -25.5 -19.5t-5.5 -12.5v-24h-56v27q0 18 10 29.5t38 28.5q29 19 29 33q0 11 -12.5 18t-33.5 7q-30 0 -41 -14q-6 -8 -6 -34h-55q0 92 104 92q46 0 72.5 -18.5
t26.5 -50.5z" />
    <glyph glyph-name="ehookabove" unicode="&#x1ebb;" 
d="M423 233h-313q6 -171 122 -171q44 0 76 29t37 73h72q-14 -85 -63.5 -132t-123.5 -47q-91 0 -144 71.5t-53 195.5q0 131 55 208.5t148 77.5q87 0 134.5 -71.5t52.5 -233.5zM348 303q-11 157 -115 157q-52 0 -86 -43.5t-37 -113.5h238zM332 676q0 -20 -9.5 -33t-35.5 -29
q-20 -14 -25.5 -19.5t-5.5 -12.5v-24h-56v27q0 18 10 29.5t38 28.5q29 19 29 33q0 11 -12.5 18t-33.5 7q-30 0 -41 -14q-6 -7 -6 -34h-55q0 92 104 92q46 0 72.5 -18.5t26.5 -50.5z" />
    <glyph glyph-name="Etilde" unicode="&#x1ebc;" horiz-adv-x="547" 
d="M505 0h-434v718h428v-87h-348v-219h321v-87h-321v-238h354v-87zM425 898q-15 -109 -83 -109q-15 0 -47 13l-21 9q-34 15 -51 15q-26 0 -38 -44h-39q14 107 85 107q23 0 56 -15l18 -9q26 -13 41 -13q30 0 38 46h41z" />
    <glyph glyph-name="etilde" unicode="&#x1ebd;" 
d="M423 233h-313q6 -171 122 -171q44 0 76 29t37 73h72q-14 -85 -63.5 -132t-123.5 -47q-91 0 -144 71.5t-53 195.5q0 131 55 208.5t148 77.5q87 0 134.5 -71.5t52.5 -233.5zM348 303q-11 157 -115 157q-52 0 -86 -43.5t-37 -113.5h238zM367 713q-15 -109 -83 -109
q-15 0 -47 13l-21 9q-34 15 -51 15q-26 0 -38 -44h-39q14 107 85 107q23 0 56 -15l18 -9q26 -13 41 -13q30 0 38 46h41z" />
    <glyph glyph-name="Ecircumflexacute" unicode="&#x1ebe;" horiz-adv-x="547" 
d="M505 0h-434v718h428v-87h-348v-219h321v-87h-321v-238h354v-87zM422 1042l-107 -121h-60l73 121h94zM420 780h-66l-69 73l-69 -73h-65l96 121h77z" />
    <glyph glyph-name="ecircumflexacute" unicode="&#x1ebf;" 
d="M423 233h-313q6 -171 122 -171q44 0 76 29t37 73h72q-14 -85 -63.5 -132t-123.5 -47q-91 0 -144 71.5t-53 195.5q0 131 55 208.5t148 77.5q87 0 134.5 -71.5t52.5 -233.5zM348 303q-11 157 -115 157q-52 0 -86 -43.5t-37 -113.5h238zM365 847l-107 -121h-60l73 121h94z
M363 585h-66l-69 73l-69 -73h-65l96 121h77z" />
    <glyph glyph-name="Ecircumflexgrave" unicode="&#x1ec0;" horiz-adv-x="547" 
d="M505 0h-434v718h428v-87h-348v-219h321v-87h-321v-238h354v-87zM316 921h-60l-107 121h94zM420 780h-66l-69 73l-69 -73h-65l96 121h77z" />
    <glyph glyph-name="ecircumflexgrave" unicode="&#x1ec1;" 
d="M423 233h-313q6 -171 122 -171q44 0 76 29t37 73h72q-14 -85 -63.5 -132t-123.5 -47q-91 0 -144 71.5t-53 195.5q0 131 55 208.5t148 77.5q87 0 134.5 -71.5t52.5 -233.5zM348 303q-11 157 -115 157q-52 0 -86 -43.5t-37 -113.5h238zM259 726h-60l-107 121h94zM363 585
h-66l-69 73l-69 -73h-65l96 121h77z" />
    <glyph glyph-name="Ecircumflexhookabove" unicode="&#x1ec2;" horiz-adv-x="547" 
d="M505 0h-434v718h428v-87h-348v-219h321v-87h-321v-238h354v-87zM420 1027q0 -17 -9.5 -29t-35.5 -28q-20 -12 -25.5 -17t-5.5 -11v-21h-56v24q0 17 9.5 27t37.5 25q29 17 29 30q0 22 -46 22q-31 0 -40 -12q-6 -6 -6 -31h-55q0 83 104 83q45 0 72 -17t27 -45zM420 780h-66
l-69 73l-69 -73h-65l96 121h77z" />
    <glyph glyph-name="ecircumflexhookabove" unicode="&#x1ec3;" 
d="M423 233h-313q6 -171 122 -171q44 0 76 29t37 73h72q-14 -85 -63.5 -132t-123.5 -47q-91 0 -144 71.5t-53 195.5q0 131 55 208.5t148 77.5q87 0 134.5 -71.5t52.5 -233.5zM348 303q-11 157 -115 157q-52 0 -86 -43.5t-37 -113.5h238zM363 832q0 -17 -9.5 -29t-35.5 -28
q-20 -12 -25.5 -17t-5.5 -11v-21h-56v24q0 17 9.5 27t37.5 25q29 17 29 30q0 22 -46 22q-31 0 -40 -12q-6 -6 -6 -31h-55q0 83 104 83q45 0 72 -17t27 -45zM363 585h-66l-69 73l-69 -73h-65l96 121h77z" />
    <glyph glyph-name="Ecircumflextilde" unicode="&#x1ec4;" horiz-adv-x="547" 
d="M505 0h-434v718h428v-87h-348v-219h321v-87h-321v-238h354v-87zM425 1047q-15 -109 -83 -109q-15 0 -47 13l-21 9q-34 15 -51 15q-26 0 -38 -44h-39q14 107 85 107q23 0 56 -15l18 -9q26 -13 41 -13q30 0 38 46h41zM420 780h-66l-69 73l-69 -73h-65l96 121h77z" />
    <glyph glyph-name="ecircumflextilde" unicode="&#x1ec5;" 
d="M423 233h-313q6 -171 122 -171q44 0 76 29t37 73h72q-14 -85 -63.5 -132t-123.5 -47q-91 0 -144 71.5t-53 195.5q0 131 55 208.5t148 77.5q87 0 134.5 -71.5t52.5 -233.5zM348 303q-11 157 -115 157q-52 0 -86 -43.5t-37 -113.5h238zM368 852q-15 -109 -83 -109
q-15 0 -47 13l-21 9q-34 15 -51 15q-26 0 -38 -44h-39q14 107 85 107q23 0 56 -15l18 -9q26 -13 41 -13q30 0 38 46h41zM363 585h-66l-69 73l-69 -73h-65l96 121h77z" />
    <glyph glyph-name="Ecircumflexdotbelow" unicode="&#x1ec6;" horiz-adv-x="547" 
d="M505 0h-434v718h428v-87h-348v-219h321v-87h-321v-238h354v-87zM419 780h-66l-69 73l-69 -73h-65l96 121h77zM317 -180h-86v96h86v-96z" />
    <glyph glyph-name="ecircumflexdotbelow" unicode="&#x1ec7;" 
d="M423 233h-313q6 -171 122 -171q44 0 76 29t37 73h72q-14 -85 -63.5 -132t-123.5 -47q-91 0 -144 71.5t-53 195.5q0 131 55 208.5t148 77.5q87 0 134.5 -71.5t52.5 -233.5zM348 303q-11 157 -115 157q-52 0 -86 -43.5t-37 -113.5h238zM347 585h-66l-54 93l-54 -93h-65
l81 141h77zM271 -180h-86v96h86v-96z" />
    <glyph glyph-name="Ihookabove" unicode="&#x1ec8;" horiz-adv-x="228" 
d="M154 0h-79v718h79v-718zM219 871q0 -20 -9.5 -33t-35.5 -29q-20 -14 -25.5 -19.5t-5.5 -12.5v-24h-56v27q0 18 10 29.5t38 28.5q29 19 29 33q0 11 -12.5 18t-33.5 7q-30 0 -41 -14q-6 -8 -6 -34h-55q0 92 104 92q46 0 72.5 -18.5t26.5 -50.5z" />
    <glyph glyph-name="ihookabove" unicode="&#x1ec9;" horiz-adv-x="228" 
d="M150 0h-72v523h72v-523zM218 676q0 -20 -9.5 -33t-35.5 -29q-20 -14 -25.5 -19.5t-5.5 -12.5v-24h-56v27q0 18 10 29.5t38 28.5q29 19 29 33q0 11 -12.5 18t-33.5 7q-30 0 -41 -14q-6 -7 -6 -34h-55q0 92 104 92q46 0 72.5 -18.5t26.5 -50.5z" />
    <glyph glyph-name="Idotbelow" unicode="&#x1eca;" horiz-adv-x="228" 
d="M154 0h-79v718h79v-718zM158 -180h-86v96h86v-96z" />
    <glyph glyph-name="idotbelow" unicode="&#x1ecb;" horiz-adv-x="182" 
d="M127 0h-72v523h72v-523zM134 607h-86v96h86v-96zM134 -180h-86v96h86v-96z" />
    <glyph glyph-name="Odotbelow" unicode="&#x1ecc;" horiz-adv-x="638" 
d="M606 358q0 -104 -32 -188t-98.5 -136.5t-156.5 -52.5t-156.5 52.5t-98.5 136.5t-32 188q0 165 77 272t214 107q124 0 203.5 -105.5t79.5 -273.5zM524 359q0 130 -56 210.5t-146 80.5q-95 0 -151.5 -79t-56.5 -213q0 -130 56.5 -210t148.5 -80t148.5 80t56.5 211z
M366 -180h-86v96h86v-96z" />
    <glyph glyph-name="odotbelow" unicode="&#x1ecd;" 
d="M427 262q0 -122 -55.5 -199t-143.5 -77t-143.5 77t-55.5 199q0 124 55.5 200t146.5 76q86 0 141 -77.5t55 -198.5zM352 262q0 90 -33.5 144.5t-88.5 54.5q-58 0 -92 -53.5t-34 -145.5q0 -91 34 -145t90 -54t90 54t34 145zM271 -180h-86v96h86v-96z" />
    <glyph glyph-name="Ohookabove" unicode="&#x1ece;" horiz-adv-x="638" 
d="M606 358q0 -104 -32 -188t-98.5 -136.5t-156.5 -52.5t-156.5 52.5t-98.5 136.5t-32 188q0 165 77 272t214 107q124 0 203.5 -105.5t79.5 -273.5zM524 359q0 130 -56 210.5t-146 80.5q-95 0 -151.5 -79t-56.5 -213q0 -130 56.5 -210t148.5 -80t148.5 80t56.5 211zM427 871
q0 -20 -9.5 -33t-35.5 -29q-20 -14 -25.5 -19.5t-5.5 -12.5v-24h-56v27q0 18 10 29.5t38 28.5q29 19 29 33q0 11 -12.5 18t-33.5 7q-30 0 -41 -14q-6 -8 -6 -34h-55q0 92 104 92q46 0 72.5 -18.5t26.5 -50.5z" />
    <glyph glyph-name="ohookabove" unicode="&#x1ecf;" 
d="M427 262q0 -122 -55.5 -199t-143.5 -77t-143.5 77t-55.5 199q0 124 55.5 200t146.5 76q86 0 141 -77.5t55 -198.5zM352 262q0 90 -33.5 144.5t-88.5 54.5q-58 0 -92 -53.5t-34 -145.5q0 -91 34 -145t90 -54t90 54t34 145zM332 676q0 -20 -9.5 -33t-35.5 -29
q-20 -14 -25.5 -19.5t-5.5 -12.5v-24h-56v27q0 18 10 29.5t38 28.5q29 19 29 33q0 11 -12.5 18t-33.5 7q-30 0 -41 -14q-6 -7 -6 -34h-55q0 92 104 92q46 0 72.5 -18.5t26.5 -50.5z" />
    <glyph glyph-name="Ocircumflexacute" unicode="&#x1ed0;" horiz-adv-x="638" 
d="M606 358q0 -104 -32 -188t-98.5 -136.5t-156.5 -52.5t-156.5 52.5t-98.5 136.5t-32 188q0 165 77 272t214 107q124 0 203.5 -105.5t79.5 -273.5zM524 359q0 130 -56 210.5t-146 80.5q-95 0 -151.5 -79t-56.5 -213q0 -130 56.5 -210t148.5 -80t148.5 80t56.5 211z
M460 1042l-107 -121h-60l73 121h94zM458 780h-66l-69 73l-69 -73h-65l96 121h77z" />
    <glyph glyph-name="ocircumflexacute" unicode="&#x1ed1;" 
d="M427 262q0 -122 -55.5 -199t-143.5 -77t-143.5 77t-55.5 199q0 124 55.5 200t146.5 76q86 0 141 -77.5t55 -198.5zM352 262q0 90 -33.5 144.5t-88.5 54.5q-58 0 -92 -53.5t-34 -145.5q0 -91 34 -145t90 -54t90 54t34 145zM365 847l-107 -121h-60l73 121h94zM363 585h-66
l-69 73l-69 -73h-65l96 121h77z" />
    <glyph glyph-name="Ocircumflexgrave" unicode="&#x1ed2;" horiz-adv-x="638" 
d="M606 358q0 -104 -32 -188t-98.5 -136.5t-156.5 -52.5t-156.5 52.5t-98.5 136.5t-32 188q0 165 77 272t214 107q124 0 203.5 -105.5t79.5 -273.5zM524 359q0 130 -56 210.5t-146 80.5q-95 0 -151.5 -79t-56.5 -213q0 -130 56.5 -210t148.5 -80t148.5 80t56.5 211zM354 921
h-60l-107 121h94zM458 780h-66l-69 73l-69 -73h-65l96 121h77z" />
    <glyph glyph-name="ocircumflexgrave" unicode="&#x1ed3;" 
d="M427 262q0 -122 -55.5 -199t-143.5 -77t-143.5 77t-55.5 199q0 124 55.5 200t146.5 76q86 0 141 -77.5t55 -198.5zM352 262q0 90 -33.5 144.5t-88.5 54.5q-58 0 -92 -53.5t-34 -145.5q0 -91 34 -145t90 -54t90 54t34 145zM259 726h-60l-107 121h94zM363 585h-66l-69 73
l-69 -73h-65l96 121h77z" />
    <glyph glyph-name="Ocircumflexhookabove" unicode="&#x1ed4;" horiz-adv-x="638" 
d="M606 358q0 -104 -32 -188t-98.5 -136.5t-156.5 -52.5t-156.5 52.5t-98.5 136.5t-32 188q0 165 77 272t214 107q124 0 203.5 -105.5t79.5 -273.5zM524 359q0 130 -56 210.5t-146 80.5q-95 0 -151.5 -79t-56.5 -213q0 -130 56.5 -210t148.5 -80t148.5 80t56.5 211z
M458 1027q0 -17 -9.5 -29t-35.5 -28q-20 -12 -25.5 -17t-5.5 -11v-21h-56v24q0 17 9.5 27t37.5 25q29 17 29 30q0 22 -46 22q-31 0 -40 -12q-6 -6 -6 -31h-55q0 83 104 83q45 0 72 -17t27 -45zM458 780h-66l-69 73l-69 -73h-65l96 121h77z" />
    <glyph glyph-name="ocircumflexhookabove" unicode="&#x1ed5;" 
d="M427 262q0 -122 -55.5 -199t-143.5 -77t-143.5 77t-55.5 199q0 124 55.5 200t146.5 76q86 0 141 -77.5t55 -198.5zM352 262q0 90 -33.5 144.5t-88.5 54.5q-58 0 -92 -53.5t-34 -145.5q0 -91 34 -145t90 -54t90 54t34 145zM363 832q0 -17 -9.5 -29t-35.5 -28
q-20 -12 -25.5 -17t-5.5 -11v-21h-56v24q0 17 9.5 27t37.5 25q29 17 29 30q0 22 -46 22q-31 0 -40 -12q-6 -6 -6 -31h-55q0 83 104 83q45 0 72 -17t27 -45zM363 585h-66l-69 73l-69 -73h-65l96 121h77z" />
    <glyph glyph-name="Ocircumflextilde" unicode="&#x1ed6;" horiz-adv-x="638" 
d="M606 358q0 -104 -32 -188t-98.5 -136.5t-156.5 -52.5t-156.5 52.5t-98.5 136.5t-32 188q0 165 77 272t214 107q124 0 203.5 -105.5t79.5 -273.5zM524 359q0 130 -56 210.5t-146 80.5q-95 0 -151.5 -79t-56.5 -213q0 -130 56.5 -210t148.5 -80t148.5 80t56.5 211z
M463 1047q-15 -109 -83 -109q-15 0 -47 13l-21 9q-34 15 -51 15q-26 0 -38 -44h-39q14 107 85 107q23 0 56 -15l18 -9q26 -13 41 -13q30 0 38 46h41zM458 780h-66l-69 73l-69 -73h-65l96 121h77z" />
    <glyph glyph-name="ocircumflextilde" unicode="&#x1ed7;" 
d="M427 262q0 -122 -55.5 -199t-143.5 -77t-143.5 77t-55.5 199q0 124 55.5 200t146.5 76q86 0 141 -77.5t55 -198.5zM352 262q0 90 -33.5 144.5t-88.5 54.5q-58 0 -92 -53.5t-34 -145.5q0 -91 34 -145t90 -54t90 54t34 145zM368 852q-15 -109 -83 -109q-15 0 -47 13l-21 9
q-34 15 -51 15q-26 0 -38 -44h-39q14 107 85 107q23 0 56 -15l18 -9q26 -13 41 -13q30 0 38 46h41zM363 585h-66l-69 73l-69 -73h-65l96 121h77z" />
    <glyph glyph-name="Ocircumflexdotbelow" unicode="&#x1ed8;" horiz-adv-x="638" 
d="M606 358q0 -104 -32 -188t-98.5 -136.5t-156.5 -52.5t-156.5 52.5t-98.5 136.5t-32 188q0 165 77 272t214 107q124 0 203.5 -105.5t79.5 -273.5zM524 359q0 130 -56 210.5t-146 80.5q-95 0 -151.5 -79t-56.5 -213q0 -130 56.5 -210t148.5 -80t148.5 80t56.5 211zM457 780
h-66l-69 73l-69 -73h-65l96 121h77zM366 -180h-86v96h86v-96z" />
    <glyph glyph-name="ocircumflexdotbelow" unicode="&#x1ed9;" 
d="M427 262q0 -122 -55.5 -199t-143.5 -77t-143.5 77t-55.5 199q0 124 55.5 200t146.5 76q86 0 141 -77.5t55 -198.5zM352 262q0 90 -33.5 144.5t-88.5 54.5q-58 0 -92 -53.5t-34 -145.5q0 -91 34 -145t90 -54t90 54t34 145zM347 585h-66l-54 93l-54 -93h-65l81 141h77z
M271 -180h-86v96h86v-96z" />
    <glyph glyph-name="Ohornacute" unicode="&#x1eda;" horiz-adv-x="638" 
d="M607 719q0 -38 -16 -69.5t-44 -47.5q59 -102 59 -244q0 -104 -32 -188t-98.5 -136.5t-156.5 -52.5t-156.5 52.5t-98.5 136.5t-32 188q0 165 77 272t214 107q121 0 199 -100q42 19 42 82h-43v96h86v-96zM524 359q0 130 -56 210.5t-146 80.5q-95 0 -151.5 -79t-56.5 -213
q0 -130 56.5 -210t148.5 -80t148.5 80t56.5 211zM460 900l-107 -121h-60l73 121h94z" />
    <glyph glyph-name="ohornacute" unicode="&#x1edb;" horiz-adv-x="465" 
d="M446 524q0 -72 -48 -109q29 -66 29 -153q0 -122 -55.5 -199t-143.5 -77t-143.5 77t-55.5 199q0 124 55.5 200t146.5 76q90 0 146 -85q26 24 26 71h-43v96h86v-96zM352 262q0 90 -33.5 144.5t-88.5 54.5q-58 0 -92 -53.5t-34 -145.5q0 -91 34 -145t90 -54t90 54t34 145z
M362 725l-107 -141h-55l73 141h89z" />
    <glyph glyph-name="Ohorngrave" unicode="&#x1edc;" horiz-adv-x="638" 
d="M607 719q0 -38 -16 -69.5t-44 -47.5q59 -102 59 -244q0 -104 -32 -188t-98.5 -136.5t-156.5 -52.5t-156.5 52.5t-98.5 136.5t-32 188q0 165 77 272t214 107q121 0 199 -100q42 19 42 82h-43v96h86v-96zM524 359q0 130 -56 210.5t-146 80.5q-95 0 -151.5 -79t-56.5 -213
q0 -130 56.5 -210t148.5 -80t148.5 80t56.5 211zM354 779h-60l-107 121h94z" />
    <glyph glyph-name="ohorngrave" unicode="&#x1edd;" horiz-adv-x="465" 
d="M446 524q0 -72 -48 -109q29 -66 29 -153q0 -122 -55.5 -199t-143.5 -77t-143.5 77t-55.5 199q0 124 55.5 200t146.5 76q90 0 146 -85q26 24 26 71h-43v96h86v-96zM352 262q0 90 -33.5 144.5t-88.5 54.5q-58 0 -92 -53.5t-34 -145.5q0 -91 34 -145t90 -54t90 54t34 145z
M256 584h-55l-107 141h89z" />
    <glyph glyph-name="Ohornhookabove" unicode="&#x1ede;" horiz-adv-x="638" 
d="M607 719q0 -38 -16 -69.5t-44 -47.5q59 -102 59 -244q0 -104 -32 -188t-98.5 -136.5t-156.5 -52.5t-156.5 52.5t-98.5 136.5t-32 188q0 165 77 272t214 107q121 0 199 -100q42 19 42 82h-43v96h86v-96zM524 359q0 130 -56 210.5t-146 80.5q-95 0 -151.5 -79t-56.5 -213
q0 -130 56.5 -210t148.5 -80t148.5 80t56.5 211zM427 871q0 -20 -9.5 -33t-35.5 -29q-20 -14 -25.5 -19.5t-5.5 -12.5v-24h-56v27q0 18 10 29.5t38 28.5q29 19 29 33q0 11 -12.5 18t-33.5 7q-30 0 -41 -14q-6 -8 -6 -34h-55q0 92 104 92q46 0 72.5 -18.5t26.5 -50.5z" />
    <glyph glyph-name="ohornhookabove" unicode="&#x1edf;" horiz-adv-x="465" 
d="M446 524q0 -72 -48 -109q29 -66 29 -153q0 -122 -55.5 -199t-143.5 -77t-143.5 77t-55.5 199q0 124 55.5 200t146.5 76q90 0 146 -85q26 24 26 71h-43v96h86v-96zM352 262q0 90 -33.5 144.5t-88.5 54.5q-58 0 -92 -53.5t-34 -145.5q0 -91 34 -145t90 -54t90 54t34 145z
M332 676q0 -20 -9.5 -33t-35.5 -29q-20 -14 -25.5 -19.5t-5.5 -12.5v-24h-56v27q0 18 10 29.5t38 28.5q29 19 29 33q0 11 -12.5 18t-33.5 7q-30 0 -41 -14q-6 -7 -6 -34h-55q0 92 104 92q46 0 72.5 -18.5t26.5 -50.5z" />
    <glyph glyph-name="Ohorntilde" unicode="&#x1ee0;" horiz-adv-x="638" 
d="M607 719q0 -38 -16 -69.5t-44 -47.5q59 -102 59 -244q0 -104 -32 -188t-98.5 -136.5t-156.5 -52.5t-156.5 52.5t-98.5 136.5t-32 188q0 165 77 272t214 107q121 0 199 -100q42 19 42 82h-43v96h86v-96zM524 359q0 130 -56 210.5t-146 80.5q-95 0 -151.5 -79t-56.5 -213
q0 -130 56.5 -210t148.5 -80t148.5 80t56.5 211zM463 898q-15 -109 -83 -109q-15 0 -47 13l-21 9q-34 15 -51 15q-26 0 -38 -44h-39q14 107 85 107q23 0 56 -15l18 -9q26 -13 41 -13q30 0 38 46h41z" />
    <glyph glyph-name="ohorntilde" unicode="&#x1ee1;" horiz-adv-x="465" 
d="M446 524q0 -72 -48 -109q29 -66 29 -153q0 -122 -55.5 -199t-143.5 -77t-143.5 77t-55.5 199q0 124 55.5 200t146.5 76q90 0 146 -85q26 24 26 71h-43v96h86v-96zM352 262q0 90 -33.5 144.5t-88.5 54.5q-58 0 -92 -53.5t-34 -145.5q0 -91 34 -145t90 -54t90 54t34 145z
M367 713q-15 -109 -83 -109q-15 0 -47 13l-21 9q-34 15 -51 15q-26 0 -38 -44h-39q14 107 85 107q23 0 56 -15l18 -9q26 -13 41 -13q30 0 38 46h41z" />
    <glyph glyph-name="Ohorndotbelow" unicode="&#x1ee2;" horiz-adv-x="638" 
d="M607 719q0 -38 -16 -69.5t-44 -47.5q59 -102 59 -244q0 -104 -32 -188t-98.5 -136.5t-156.5 -52.5t-156.5 52.5t-98.5 136.5t-32 188q0 165 77 272t214 107q121 0 199 -100q42 19 42 82h-43v96h86v-96zM524 359q0 130 -56 210.5t-146 80.5q-95 0 -151.5 -79t-56.5 -213
q0 -130 56.5 -210t148.5 -80t148.5 80t56.5 211zM366 -180h-86v96h86v-96z" />
    <glyph glyph-name="ohorndotbelow" unicode="&#x1ee3;" horiz-adv-x="465" 
d="M446 524q0 -72 -48 -109q29 -66 29 -153q0 -122 -55.5 -199t-143.5 -77t-143.5 77t-55.5 199q0 124 55.5 200t146.5 76q90 0 146 -85q26 24 26 71h-43v96h86v-96zM352 262q0 90 -33.5 144.5t-88.5 54.5q-58 0 -92 -53.5t-34 -145.5q0 -91 34 -145t90 -54t90 54t34 145z
M271 -180h-86v96h86v-96z" />
    <glyph glyph-name="Udotbelow" unicode="&#x1ee4;" horiz-adv-x="592" 
d="M528 252q0 -124 -64 -197.5t-172 -73.5q-104 0 -165.5 70t-61.5 188v479h80v-452q0 -95 39 -146.5t111 -51.5q73 0 113 51t40 145v454h80v-466zM340 -180h-86v96h86v-96z" />
    <glyph glyph-name="udotbelow" unicode="&#x1ee5;" 
d="M401 0h-68v81q-29 -54 -58.5 -75t-77.5 -21q-66 0 -103.5 43t-37.5 119v376h72v-347q0 -114 83 -114q54 0 86 47t32 126v288h72v-523zM271 -180h-86v96h86v-96z" />
    <glyph glyph-name="Uhookabove" unicode="&#x1ee6;" horiz-adv-x="592" 
d="M528 252q0 -124 -64 -197.5t-172 -73.5q-104 0 -165.5 70t-61.5 188v479h80v-452q0 -95 39 -146.5t111 -51.5q73 0 113 51t40 145v454h80v-466zM401 871q0 -20 -9.5 -33t-35.5 -29q-20 -14 -25.5 -19.5t-5.5 -12.5v-24h-56v27q0 18 10 29.5t38 28.5q29 19 29 33
q0 11 -12.5 18t-33.5 7q-30 0 -41 -14q-6 -8 -6 -34h-55q0 92 104 92q46 0 72.5 -18.5t26.5 -50.5z" />
    <glyph glyph-name="uhookabove" unicode="&#x1ee7;" 
d="M401 0h-68v81q-29 -54 -58.5 -75t-77.5 -21q-66 0 -103.5 43t-37.5 119v376h72v-347q0 -114 83 -114q54 0 86 47t32 126v288h72v-523zM332 676q0 -20 -9.5 -33t-35.5 -29q-20 -14 -25.5 -19.5t-5.5 -12.5v-24h-56v27q0 18 10 29.5t38 28.5q29 19 29 33q0 11 -12.5 18
t-33.5 7q-30 0 -41 -14q-6 -7 -6 -34h-55q0 92 104 92q46 0 72.5 -18.5t26.5 -50.5z" />
    <glyph glyph-name="Uhornacute" unicode="&#x1ee8;" horiz-adv-x="652" 
d="M633 719q0 -52 -29.5 -90.5t-75.5 -38.5v-338q0 -124 -64 -197.5t-172 -73.5q-104 0 -165.5 70t-61.5 188v479h80v-452q0 -95 39 -146.5t111 -51.5q73 0 113 51t40 145v454h80v-85q28 0 45 25.5t17 60.5h-43v96h86v-96zM434 900l-107 -121h-60l73 121h94z" />
    <glyph glyph-name="uhornacute" unicode="&#x1ee9;" horiz-adv-x="525" 
d="M506 524q0 -52 -29.5 -90.5t-75.5 -38.5v-395h-68v81q-29 -54 -58.5 -75t-77.5 -21q-66 0 -103.5 43t-37.5 119v376h72v-347q0 -114 83 -114q54 0 86 47t32 126v288h72v-85q28 0 45 25.5t17 60.5h-43v96h86v-96zM362 725l-107 -141h-55l73 141h89z" />
    <glyph glyph-name="Uhorngrave" unicode="&#x1eea;" horiz-adv-x="652" 
d="M633 719q0 -52 -29.5 -90.5t-75.5 -38.5v-338q0 -124 -64 -197.5t-172 -73.5q-104 0 -165.5 70t-61.5 188v479h80v-452q0 -95 39 -146.5t111 -51.5q73 0 113 51t40 145v454h80v-85q28 0 45 25.5t17 60.5h-43v96h86v-96zM328 779h-60l-107 121h94z" />
    <glyph glyph-name="uhorngrave" unicode="&#x1eeb;" horiz-adv-x="525" 
d="M506 524q0 -52 -29.5 -90.5t-75.5 -38.5v-395h-68v81q-29 -54 -58.5 -75t-77.5 -21q-66 0 -103.5 43t-37.5 119v376h72v-347q0 -114 83 -114q54 0 86 47t32 126v288h72v-85q28 0 45 25.5t17 60.5h-43v96h86v-96zM256 584h-55l-107 141h89z" />
    <glyph glyph-name="Uhornhookabove" unicode="&#x1eec;" horiz-adv-x="652" 
d="M633 719q0 -52 -29.5 -90.5t-75.5 -38.5v-338q0 -124 -64 -197.5t-172 -73.5q-104 0 -165.5 70t-61.5 188v479h80v-452q0 -95 39 -146.5t111 -51.5q73 0 113 51t40 145v454h80v-85q28 0 45 25.5t17 60.5h-43v96h86v-96zM401 871q0 -20 -9.5 -33t-35.5 -29
q-20 -14 -25.5 -19.5t-5.5 -12.5v-24h-56v27q0 18 10 29.5t38 28.5q29 19 29 33q0 11 -12.5 18t-33.5 7q-30 0 -41 -14q-6 -8 -6 -34h-55q0 92 104 92q46 0 72.5 -18.5t26.5 -50.5z" />
    <glyph glyph-name="uhornhookabove" unicode="&#x1eed;" horiz-adv-x="525" 
d="M506 524q0 -52 -29.5 -90.5t-75.5 -38.5v-395h-68v81q-29 -54 -58.5 -75t-77.5 -21q-66 0 -103.5 43t-37.5 119v376h72v-347q0 -114 83 -114q54 0 86 47t32 126v288h72v-85q28 0 45 25.5t17 60.5h-43v96h86v-96zM332 676q0 -20 -9.5 -33t-35.5 -29q-20 -14 -25.5 -19.5
t-5.5 -12.5v-24h-56v27q0 18 10 29.5t38 28.5q29 19 29 33q0 11 -12.5 18t-33.5 7q-30 0 -41 -14q-6 -7 -6 -34h-55q0 92 104 92q46 0 72.5 -18.5t26.5 -50.5z" />
    <glyph glyph-name="Uhorntilde" unicode="&#x1eee;" horiz-adv-x="652" 
d="M633 719q0 -52 -29.5 -90.5t-75.5 -38.5v-338q0 -124 -64 -197.5t-172 -73.5q-104 0 -165.5 70t-61.5 188v479h80v-452q0 -95 39 -146.5t111 -51.5q73 0 113 51t40 145v454h80v-85q28 0 45 25.5t17 60.5h-43v96h86v-96zM437 898q-15 -109 -83 -109q-15 0 -47 13l-21 9
q-34 15 -51 15q-26 0 -38 -44h-39q14 107 85 107q23 0 56 -15l18 -9q26 -13 41 -13q30 0 38 46h41z" />
    <glyph glyph-name="uhorntilde" unicode="&#x1eef;" horiz-adv-x="525" 
d="M506 524q0 -52 -29.5 -90.5t-75.5 -38.5v-395h-68v81q-29 -54 -58.5 -75t-77.5 -21q-66 0 -103.5 43t-37.5 119v376h72v-347q0 -114 83 -114q54 0 86 47t32 126v288h72v-85q28 0 45 25.5t17 60.5h-43v96h86v-96zM367 713q-15 -109 -83 -109q-15 0 -47 13l-21 9
q-34 15 -51 15q-26 0 -38 -44h-39q14 107 85 107q23 0 56 -15l18 -9q26 -13 41 -13q30 0 38 46h41z" />
    <glyph glyph-name="Uhorndotbelow" unicode="&#x1ef0;" horiz-adv-x="652" 
d="M633 719q0 -52 -29.5 -90.5t-75.5 -38.5v-338q0 -124 -64 -197.5t-172 -73.5q-104 0 -165.5 70t-61.5 188v479h80v-452q0 -95 39 -146.5t111 -51.5q73 0 113 51t40 145v454h80v-85q28 0 45 25.5t17 60.5h-43v96h86v-96zM340 -180h-86v96h86v-96z" />
    </font>
</defs>
</svg>
